<?xml version="1.0" standalone="no"?>
<!DOCTYPE svg PUBLIC "-//W3C//DTD SVG 1.1//EN" "http://www.w3.org/Graphics/SVG/1.1/DTD/svg11.dtd" >
<svg xmlns="http://www.w3.org/2000/svg" xmlns:xlink="http://www.w3.org/1999/xlink" version="1.1">
<metadata>
Created by FontForge 20201107 at Mon Jun  3 13:20:50 2024
 By 
Copyright 2018 Airbnb. All rights reserved.
</metadata>
<defs>
<font id="AirbnbCerealWBd" horiz-adv-x="1216" >
  <font-face 
    font-family="AirbnbCereal_W_Bd"
    font-weight="700"
    font-stretch="normal"
    units-per-em="2048"
    panose-1="2 11 7 2 2 2 3 2 2 4"
    ascent="1638"
    descent="-410"
    x-height="1081"
    cap-height="1454"
    bbox="-463 -569 2232 1997"
    underline-thickness="129"
    underline-position="-394"
    unicode-range="U+000D-FFFD"
  />
<missing-glyph horiz-adv-x="1024" 
d="M922 0h-820v1536h820v-1536zM205 102h614v1332h-614v-1332z" />
    <glyph glyph-name="f_i.liga" unicode="fi" horiz-adv-x="1323" 
d="M37 1081h184v62q0 174 105 289.5t280 115.5q110 0 195 -49l-58 -217q-55 25 -100 25q-50 0 -81.5 -28t-42.5 -66.5t-11 -88.5v-43h700v-1081h-286v856h-414v-856h-287v856h-184v225zM1065 1210q-68 0 -116 47.5t-48 116.5t47 116.5t117 47.5q71 0 117.5 -46t46.5 -118
q0 -69 -47 -116.5t-117 -47.5z" />
    <glyph glyph-name="f_f.liga" unicode="ff" horiz-adv-x="1540" 
d="M37 1081h184v62q0 176 113 290.5t293 114.5q115 0 215 -53l-58 -219q-67 31 -116 31q-160 0 -160 -183v-43h414v62q0 176 112.5 290.5t292.5 114.5q115 0 215 -53l-57 -219q-67 31 -117 31q-160 0 -160 -183v-43h287v-225h-287v-856h-286v856h-414v-856h-287v856h-184
v225z" />
    <glyph glyph-name="f_f_i.liga" unicode="ffi" horiz-adv-x="2023" 
d="M37 1081h184v62q0 176 113 290.5t293 114.5q115 0 215 -53l-58 -219q-67 31 -116 31q-160 0 -160 -183v-43h414v62q0 174 105 289.5t280 115.5q109 0 194 -49l-57 -217q-55 25 -101 25q-50 0 -81.5 -28t-42.5 -66.5t-11 -88.5v-43h701v-1081h-287v856h-414v-856h-286v856
h-414v-856h-287v856h-184v225zM1602 1374q0 69 46.5 116.5t116.5 47.5q71 0 117.5 -46t46.5 -118q0 -69 -47 -116.5t-117 -47.5q-68 0 -115.5 47.5t-47.5 116.5z" />
    <glyph glyph-name=".notdef" horiz-adv-x="1024" 
d="M922 0h-820v1536h820v-1536zM205 102h614v1332h-614v-1332z" />
    <glyph glyph-name="uni0000" horiz-adv-x="0" 
 />
    <glyph glyph-name="uni0000" horiz-adv-x="0" 
 />
    <glyph glyph-name="uni000D" unicode="&#xd;" horiz-adv-x="428" 
 />
    <glyph glyph-name="space" unicode=" " horiz-adv-x="428" 
 />
    <glyph glyph-name="exclam" unicode="!" horiz-adv-x="540" 
d="M115 1454h311l-18 -1001h-275zM96 166q0 48 25 90q21 40 61.5 62t87.5 22t87 -22t65 -62q22 -42 22 -90q0 -46 -22 -88q-55 -86 -152 -86q-47 0 -86.5 22.5t-62.5 63.5q-25 42 -25 88z" />
    <glyph glyph-name="quotedbl" unicode="&#x22;" horiz-adv-x="890" 
d="M522 1454h258l-12 -569h-233zM111 1454h258l-13 -569h-233z" />
    <glyph glyph-name="numbersign" unicode="#" horiz-adv-x="1359" 
d="M295 362h-193l17 195h192l25 299h-191l17 195h190l29 362h219l-29 -362h275l28 362h220l-29 -362h192l-16 -195h-192l-25 -299h193l-17 -195h-192l-29 -362h-219l28 362h-274l-29 -362h-219zM530 557h275l24 299h-274z" />
    <glyph glyph-name="dollar" unicode="$" 
d="M508 -10q-157 33 -266.5 127t-151.5 245l279 58q33 -88 99.5 -137.5t158.5 -49.5q83 0 147 44.5t64 123.5q0 130 -199 170l-100 21q-85 17 -157.5 48.5t-132.5 80.5t-94 121.5t-34 161.5q0 167 108 279.5t279 141.5v254h207v-256q148 -23 251.5 -120.5t137.5 -243.5
l-270 -60q-33 88 -87 134.5t-141 46.5q-81 0 -138.5 -40t-57.5 -118q0 -126 211 -164l100 -20q88 -18 158 -50t127 -81t88.5 -121.5t31.5 -163.5q0 -178 -115 -295t-296 -141v-273h-207v277z" />
    <glyph glyph-name="percent" unicode="%" horiz-adv-x="1550" 
d="M393 788q-137 0 -231 91t-94 229q0 139 95 231.5t236 92.5q138 0 233 -91.5t95 -230.5q0 -138 -96.5 -230t-237.5 -92zM1149 -18q-137 0 -231.5 90.5t-94.5 228.5q0 139 95.5 231.5t236.5 92.5q138 0 233 -91.5t95 -230.5q0 -138 -96.5 -229.5t-237.5 -91.5zM446 0h-229
l885 1413h229zM1036 303q0 -54 32.5 -94.5t84.5 -40.5q54 0 85.5 39.5t31.5 95.5t-31.5 95.5t-85.5 39.5q-52 0 -84.5 -40.5t-32.5 -94.5zM281 1110q0 -54 32 -94.5t84 -40.5q54 0 85.5 39.5t31.5 95.5t-31.5 95.5t-85.5 39.5q-52 0 -84 -40.5t-32 -94.5z" />
    <glyph glyph-name="ampersand" unicode="&#x26;" horiz-adv-x="1443" 
d="M66 379q0 128 69 230.5t187 166.5q-148 166 -148 322q0 172 118.5 279.5t295.5 107.5q107 0 198 -42t148 -126.5t57 -194.5q0 -231 -270 -387l266 -272q75 141 88 336l254 -21q-30 -290 -164 -495l279 -283h-365l-90 92q-181 -133 -414 -133q-76 0 -149 16t-138.5 50.5
t-114.5 83t-78 118.5t-29 152zM354 406q0 -97 75 -150t177 -53q111 0 211 65l-338 346q-125 -72 -125 -208zM463 1178q-21 -34 -21 -74q0 -53 33 -102.5t86 -102.5q70 36 119 91t49 122q0 60 -38.5 97.5t-98.5 37.5q-40 0 -75.5 -17.5t-53.5 -51.5z" />
    <glyph glyph-name="quotesingle" unicode="'" horiz-adv-x="479" 
d="M123 885l-12 569h258l-13 -569h-233z" />
    <glyph glyph-name="parenleft" unicode="(" horiz-adv-x="729" 
d="M426 -297q-162 210 -249 456t-87 505t87 504.5t249 455.5h274q-346 -456 -346 -960q0 -505 346 -961h-274z" />
    <glyph glyph-name="parenright" unicode=")" horiz-adv-x="729" 
d="M303 -297h-274q346 456 346 961q0 504 -346 960h274q336 -435 336 -960q0 -526 -336 -961z" />
    <glyph glyph-name="asterisk" unicode="*" horiz-adv-x="874" 
d="M283 647l-177 129l191 223l-281 70l66 205l266 -111l-22 291h223l-23 -291l267 111l65 -205l-280 -70l190 -223l-176 -129l-154 252z" />
    <glyph glyph-name="plus" unicode="+" 
d="M160 684h325v330h246v-330h326v-240h-326v-342h-246v342h-325v240z" />
    <glyph glyph-name="comma" unicode="," horiz-adv-x="552" 
d="M248 43q-61 0 -105.5 46t-44.5 108q0 67 52 112t120 45q71 0 125 -44t79.5 -108t25.5 -134q0 -152 -93.5 -259.5t-246.5 -148.5l-54 162q112 27 181 123q24 43 24 90q0 18 -2 26q-27 -18 -61 -18z" />
    <glyph glyph-name="hyphen" unicode="-" horiz-adv-x="759" 
d="M90 438v250h580v-250h-580z" />
    <glyph glyph-name="period" unicode="." horiz-adv-x="552" 
d="M96 172q0 74 53 127t127 53t127.5 -52.5t53.5 -127.5q0 -74 -53 -127t-128 -53q-74 0 -127 53t-53 127z" />
    <glyph glyph-name="slash" unicode="/" horiz-adv-x="972" 
d="M16 -236l678 1799h262l-677 -1799h-263z" />
    <glyph glyph-name="zero" unicode="0" horiz-adv-x="1265" 
d="M90 705q0 108 17 208.5t57.5 198.5t101.5 170.5t156.5 117t214.5 44.5q116 0 209.5 -43t154 -114.5t101 -168t57.5 -198t17 -211.5q0 -90 -12 -175.5t-37.5 -170t-69 -154.5t-102 -124.5t-142.5 -85t-184 -30.5q-116 0 -209 43.5t-153.5 115t-101 168.5t-58 198.5
t-17.5 210.5zM385 707q0 -56 4.5 -110.5t20.5 -122t41.5 -117.5t72.5 -84.5t109 -34.5q53 0 95 23t68 63.5t44 87t26 103.5t11.5 101t3.5 91q0 58 -4.5 112t-19.5 122t-40.5 117.5t-73 83.5t-110.5 34q-52 0 -94 -23t-68 -63.5t-44 -87t-26.5 -103t-12 -101.5t-3.5 -91z" />
    <glyph glyph-name="one" unicode="1" horiz-adv-x="905" 
d="M418 0v1102l-287 -160l-96 242l424 229h248v-1413h-289z" />
    <glyph glyph-name="two" unicode="2" horiz-adv-x="1167" 
d="M74 1040q37 183 174 293.5t325 110.5q202 0 340 -128t138 -331q0 -95 -33 -174q-29 -71 -86 -149t-134 -155t-136.5 -130.5t-137.5 -118.5h551v-258h-987v213l143 123q92 79 146.5 127.5t129.5 123.5t132 144q54 68 82.5 125t28.5 125q0 91 -48.5 147t-138.5 56
q-83 0 -137 -53t-76 -138z" />
    <glyph glyph-name="three" unicode="3" horiz-adv-x="1161" 
d="M569 -31q-191 0 -333 101t-187 284l270 47q28 -85 91 -131.5t153 -46.5q91 0 157 50.5t66 140.5q0 91 -66.5 138.5t-162.5 47.5h-149v250h135q87 0 151 45.5t64 130.5q0 79 -54 121.5t-135 42.5q-83 0 -141 -46.5t-82 -127.5l-270 47q22 117 98 205t182 132t226 44
q88 0 170 -25.5t148.5 -73t106.5 -123.5t40 -169q0 -104 -52.5 -186t-146.5 -128q110 -41 171.5 -129.5t61.5 -206.5q0 -99 -44 -182.5t-116.5 -137.5t-163.5 -84t-188 -30z" />
    <glyph glyph-name="four" unicode="4" horiz-adv-x="1230" 
d="M711 291h-641v233l602 889h319v-876h158v-246h-158v-291h-280v291zM346 537h365v532z" />
    <glyph glyph-name="five" unicode="5" horiz-adv-x="1148" 
d="M571 -31q-183 0 -321 99.5t-180 275.5l274 43q28 -76 88 -120t141 -44q97 0 161.5 61t64.5 158q0 94 -64 154.5t-160 60.5q-53 0 -108.5 -21.5t-91.5 -57.5l-232 24v811h846v-266h-571v-299q88 61 215 61q195 0 328 -130t133 -328q0 -141 -72 -252t-190.5 -170.5
t-260.5 -59.5z" />
    <glyph glyph-name="six" unicode="6" horiz-adv-x="1228" 
d="M90 653q0 121 25 234t78 215t129 177.5t185.5 120t240.5 44.5q187 0 339 -92l-77 -242q-103 68 -246 68q-86 0 -155 -33.5t-114 -92t-72 -130t-38 -156.5q53 72 136.5 108.5t178.5 36.5q129 0 236.5 -57.5t171 -163t63.5 -237.5q0 -136 -69.5 -248t-186 -174t-253.5 -62
q-138 0 -249 56.5t-180.5 152.5t-106 217.5t-36.5 257.5zM428 451q0 -95 64 -162.5t159 -67.5t160.5 65.5t65.5 162.5q0 96 -63 159.5t-161 63.5q-96 0 -160.5 -62.5t-64.5 -158.5z" />
    <glyph glyph-name="seven" unicode="7" horiz-adv-x="1144" 
d="M240 0l491 1145h-663v268h991v-221l-494 -1192h-325z" />
    <glyph glyph-name="eight" unicode="8" horiz-adv-x="1220" 
d="M393 -2q-139 44 -228 145.5t-89 241.5q0 122 59 214.5t170 139.5q-90 45 -137 126t-47 184q0 76 28 141.5t75.5 111t111 78.5t133.5 48.5t143 15.5q89 0 173.5 -24t155.5 -70t114 -122.5t43 -172.5q0 -102 -47 -185.5t-136 -128.5q111 -42 169.5 -134t58.5 -214
q0 -83 -30.5 -154t-82.5 -120t-121 -83.5t-145.5 -50.5t-155.5 -16q-109 0 -215 29zM369 410q0 -91 72.5 -141t168.5 -50q97 0 168.5 49t71.5 142q0 52 -29 102q-66 92 -211 92q-63 0 -116 -19.5t-89 -65t-36 -109.5zM610 1194q-81 0 -142.5 -46t-61.5 -126q0 -104 100 -152
q46 -24 104 -24t105 24q45 22 71.5 62t26.5 90q0 79 -60.5 125.5t-142.5 46.5z" />
    <glyph glyph-name="nine" unicode="9" horiz-adv-x="1224" 
d="M53 961q0 139 71 250.5t189 172t258 60.5q114 0 209 -39.5t160 -106.5t109.5 -158t65 -192t20.5 -211q0 -124 -24.5 -236t-77.5 -209.5t-130 -169t-187 -112.5t-243 -41q-192 0 -346 92l78 242q103 -67 256 -67q182 0 274 111.5t107 301.5q-53 -73 -138 -110t-182 -37
q-196 0 -332.5 131t-136.5 328zM573 1192q-97 0 -161 -64.5t-64 -162.5q0 -95 63.5 -159.5t159.5 -64.5t161 62.5t65 159.5q0 95 -64 162t-160 67z" />
    <glyph glyph-name="colon" unicode=":" horiz-adv-x="552" 
d="M276 -8q-74 0 -127 53t-53 127t53 127t127 53t127.5 -52.5t53.5 -127.5q0 -74 -53 -127t-128 -53zM96 909q0 74 53.5 127.5t126.5 53.5q74 0 127.5 -53t53.5 -128q0 -74 -53 -127t-128 -53q-74 0 -127 53.5t-53 126.5z" />
    <glyph glyph-name="semicolon" unicode=";" horiz-adv-x="552" 
d="M248 43q-61 0 -105.5 46t-44.5 108q0 67 52 112t120 45q71 0 125 -44t79.5 -108t25.5 -134q0 -152 -93.5 -259.5t-246.5 -148.5l-54 162q112 27 181 123q24 43 24 90q0 18 -2 26q-27 -18 -61 -18zM276 729q-74 0 -127 53.5t-53 126.5q0 74 53.5 127.5t126.5 53.5
q74 0 127.5 -53t53.5 -128q0 -74 -53 -127t-128 -53z" />
    <glyph glyph-name="less" unicode="&#x3c;" 
d="M182 449v229l801 332v-248l-532 -195l532 -194v-256z" />
    <glyph glyph-name="equal" unicode="=" 
d="M1053 207h-889v242h889v-242zM164 678v240h889v-240h-889z" />
    <glyph glyph-name="greater" unicode="&#x3e;" 
d="M766 559l-533 195v256l801 -332v-229l-801 -332v248z" />
    <glyph glyph-name="question" unicode="?" horiz-adv-x="1105" 
d="M41 1120q39 168 181 266.5t321 98.5q96 0 183.5 -28.5t157 -81.5t111 -135.5t41.5 -182.5q0 -159 -104.5 -274t-265.5 -162v-168h-275v317q346 82 346 277q0 82 -55.5 130t-140.5 48q-80 0 -142.5 -44t-87.5 -120zM379 78q-25 42 -25 88q0 48 25 90q21 40 61.5 62
t87.5 22t87 -22t65 -62q22 -42 22 -90q0 -46 -22 -88q-55 -86 -152 -86q-47 0 -86.5 22.5t-62.5 63.5z" />
    <glyph glyph-name="at" unicode="@" horiz-adv-x="2078" 
d="M1049 -408q-196 0 -372.5 69t-306.5 189.5t-207 294.5t-77 375q0 161 48.5 307.5t138 261.5t210 200t270 130t312.5 45q188 0 357 -62.5t295.5 -174t201 -276.5t74.5 -359q0 -80 -14 -154.5t-46.5 -143t-80 -119.5t-119 -81.5t-158.5 -30.5q-100 0 -177 43.5t-112 131.5
q-46 -85 -124 -131t-175 -46q-93 0 -173 38.5t-134.5 103.5t-85.5 150t-31 177q0 121 50 228t148 176.5t222 69.5q175 0 270 -142l7 119h239v-588q0 -53 27 -88q23 -33 67 -33q47 0 81 35.5t50.5 90.5t23.5 103.5t7 90.5q0 191 -89 340.5t-245 231t-350 81.5
q-204 0 -372.5 -91t-267.5 -257t-99 -373q0 -149 55 -281t149.5 -226.5t228.5 -149.5t286 -55q229 0 422 106l92 -194q-230 -132 -516 -132zM1032 772q-92 0 -150.5 -71t-58.5 -166t58 -165.5t151 -70.5q95 0 153 69t58 167q0 99 -57 168t-154 69z" />
    <glyph glyph-name="A" unicode="A" horiz-adv-x="1546" 
d="M33 0l577 1454h324l579 -1454h-313l-119 319h-628l-119 -319h-301zM766 1157l-217 -579h436z" />
    <glyph glyph-name="B" unicode="B" horiz-adv-x="1269" 
d="M133 1454h529q94 0 176 -20.5t152 -63t110.5 -118t40.5 -175.5q0 -101 -43 -181t-129 -126q114 -44 173.5 -137.5t59.5 -218.5q0 -106 -45 -188t-121.5 -130t-168.5 -72t-195 -24h-539v1454zM428 252h229q106 0 173 45t67 145t-67 145.5t-173 45.5h-229v-381zM428 868
h201q93 0 151 39.5t58 126.5q0 89 -57.5 128.5t-151.5 39.5h-201v-334z" />
    <glyph glyph-name="C" unicode="C" horiz-adv-x="1517" 
d="M86 717q0 123 33 239.5t97 213.5t151 170t201.5 114t242.5 41q142 0 268.5 -50t223 -150t137.5 -236l-295 -74q-48 108 -135 168.5t-203 60.5q-95 0 -174 -42.5t-128.5 -113.5t-76.5 -158t-27 -179q0 -93 26.5 -178.5t76 -153.5t129.5 -108.5t178 -40.5q118 0 208 60
t140 169l295 -74q-67 -207 -242 -321.5t-401 -114.5q-209 0 -375.5 100t-258 273t-91.5 385z" />
    <glyph glyph-name="D" unicode="D" horiz-adv-x="1554" 
d="M133 1454h565q162 0 302 -49t244 -140t164 -229t60 -307q0 -218 -101 -385t-276.5 -255.5t-396.5 -88.5h-561v1454zM438 270h242q215 0 344 120t129 337q0 213 -127.5 335t-345.5 122h-242v-914z" />
    <glyph glyph-name="E" unicode="E" horiz-adv-x="1175" 
d="M133 1454h911v-260h-616v-317h551v-261h-551v-356h637v-260h-932v1454z" />
    <glyph glyph-name="F" unicode="F" horiz-adv-x="1112" 
d="M133 1454h891v-266h-594v-359h528v-264h-528v-565h-297v1454z" />
    <glyph glyph-name="G" unicode="G" horiz-adv-x="1626" 
d="M86 723q0 213 95 389t268.5 279.5t390.5 103.5q212 0 386 -102.5t253 -292.5l-295 -90q-114 204 -344 204q-130 0 -231.5 -67.5t-154.5 -177t-53 -240.5q0 -99 31 -187t87 -155.5t142 -107t189 -39.5q150 0 256.5 82t126.5 229h-363v252h676v-154q0 -306 -198.5 -498
t-511.5 -192q-159 0 -298.5 58.5t-238.5 159.5t-156 243t-57 303z" />
    <glyph glyph-name="H" unicode="H" horiz-adv-x="1519" 
d="M133 1454h305v-567h643v567h305v-1454h-305v616h-643v-616h-305v1454z" />
    <glyph glyph-name="I" unicode="I" horiz-adv-x="571" 
d="M133 0v1454h305v-1454h-305z" />
    <glyph glyph-name="J" unicode="J" horiz-adv-x="1134" 
d="M524 -31q-187 0 -318 106t-181 292l303 53q26 -77 74.5 -126.5t119.5 -49.5q94 0 141.5 66.5t47.5 164.5v979h305v-969q0 -224 -133 -370t-359 -146z" />
    <glyph glyph-name="K" unicode="K" horiz-adv-x="1425" 
d="M133 1454h305v-645l539 645h356l-581 -678l655 -776h-395l-574 705v-705h-305v1454z" />
    <glyph glyph-name="L" unicode="L" horiz-adv-x="1114" 
d="M133 0v1454h305v-1184h594v-270h-899z" />
    <glyph glyph-name="M" unicode="M" horiz-adv-x="1748" 
d="M133 1454h287l459 -840l460 840h277v-1454h-295v920l-338 -617h-217l-338 617v-920h-295v1454z" />
    <glyph glyph-name="N" unicode="N" horiz-adv-x="1499" 
d="M133 1454h264l674 -962v962h295v-1454h-264l-674 963v-963h-295v1454z" />
    <glyph glyph-name="O" unicode="O" horiz-adv-x="1679" 
d="M838 -41q-160 0 -299.5 58.5t-239 160t-156.5 243.5t-57 304q0 160 56 301.5t154.5 245t240.5 163.5t305 60q160 0 300 -58t239 -159.5t155.5 -243.5t56.5 -305q0 -160 -56 -301.5t-154.5 -245t-240 -163.5t-304.5 -60zM401 727q0 -129 51 -238.5t153 -179t235 -69.5
q132 0 233 67t153 177t52 243q0 78 -18.5 150t-55.5 133t-89 106.5t-122.5 71.5t-152.5 26q-132 0 -233.5 -67t-153.5 -177t-52 -243z" />
    <glyph glyph-name="P" unicode="P" horiz-adv-x="1226" 
d="M133 0v1454h467q120 0 221 -28t180.5 -85.5t124.5 -154t45 -223.5q0 -117 -46.5 -211.5t-126 -154t-182 -91t-218.5 -31.5q-81 0 -164 14v-489h-301zM434 1196v-451q82 -12 152 -12q124 0 200 56.5t76 175.5q0 118 -73 174.5t-195 56.5h-160z" />
    <glyph glyph-name="Q" unicode="Q" horiz-adv-x="1679" 
d="M831 -41q-210 0 -381.5 101t-267.5 276.5t-96 388.5q0 160 56 301.5t154.5 245t240.5 163.5t305 60q160 0 300 -58t239 -159.5t155.5 -243.5t56.5 -305q0 -153 -52.5 -292t-154.5 -244l166 -205l-204 -164l-172 213q-162 -78 -345 -78zM840 1214q-132 0 -233.5 -67
t-153.5 -177t-52 -243q0 -132 51.5 -241.5t154.5 -177.5t239 -68q76 0 147 24l-233 291l201 162l235 -291q82 122 82 301q0 78 -18.5 150t-55.5 133t-89 106.5t-122.5 71.5t-152.5 26z" />
    <glyph glyph-name="R" unicode="R" horiz-adv-x="1292" 
d="M133 0v1454h467q91 0 173.5 -15.5t157 -51t129 -88.5t86.5 -133t32 -179q0 -125 -68.5 -234.5t-181.5 -168.5l329 -584h-335l-260 504q-27 -2 -84 -2q-68 0 -144 12v-514h-301zM434 1196v-428q77 -12 160 -12q56 0 103.5 12t86.5 37.5t61.5 69t22.5 102.5
q0 113 -77.5 166t-196.5 53h-160z" />
    <glyph glyph-name="S" unicode="S" horiz-adv-x="1173" 
d="M49 350l285 62q29 -86 95 -132.5t157 -46.5t156 47.5t65 135.5q0 34 -14 62t-34 45.5t-52 32.5t-57 22.5t-60 15.5l-66 14q-91 20 -165 51.5t-138 81.5t-99.5 124.5t-35.5 168.5q0 134 71.5 238.5t186 158.5t248.5 54q181 0 321 -99.5t177 -273.5l-281 -61
q-23 78 -84 127q-61 43 -141 43q-78 0 -136.5 -44.5t-58.5 -121.5q0 -41 20 -72.5t57 -50.5t67.5 -29.5t74.5 -19.5l66 -15q74 -16 135.5 -38t119 -57.5t97 -80.5t63 -109.5t23.5 -142.5q0 -108 -42.5 -197.5t-115.5 -149t-169 -92t-203 -32.5q-122 0 -231.5 43t-191.5 131
t-110 207z" />
    <glyph glyph-name="T" unicode="T" horiz-adv-x="1292" 
d="M84 1184v270h1124v-270h-409v-1184h-305v1184h-410z" />
    <glyph glyph-name="U" unicode="U" horiz-adv-x="1478" 
d="M113 1454h305v-852q0 -158 82 -260t239 -102q153 0 237.5 101t84.5 261v852h305v-866q0 -284 -170 -456.5t-459 -172.5q-282 0 -453 170.5t-171 458.5v866z" />
    <glyph glyph-name="V" unicode="V" horiz-adv-x="1501" 
d="M33 1454h334l391 -1116l389 1116h321l-553 -1454h-329z" />
    <glyph glyph-name="W" unicode="W" horiz-adv-x="2138" 
d="M59 1454h320l266 -1051l289 1051h280l289 -1051l264 1051h312l-428 -1454h-295l-285 1042l-285 -1042h-299z" />
    <glyph glyph-name="X" unicode="X" horiz-adv-x="1411" 
d="M18 0l517 766l-457 688h346l285 -471l284 471h338l-454 -688l516 -766h-361l-332 532l-331 -532h-351z" />
    <glyph glyph-name="Y" unicode="Y" horiz-adv-x="1366" 
d="M23 1454h339l326 -612l324 612h331l-507 -889v-565h-306v565z" />
    <glyph glyph-name="Z" unicode="Z" horiz-adv-x="1310" 
d="M76 0v217l739 979h-709v258h1090v-217l-739 -979h784v-258h-1165z" />
    <glyph glyph-name="bracketleft" unicode="[" horiz-adv-x="757" 
d="M154 1624h522v-221h-268v-1479h268v-221h-522v1921z" />
    <glyph glyph-name="backslash" unicode="\" horiz-adv-x="972" 
d="M694 -236l-678 1799h263l677 -1799h-262z" />
    <glyph glyph-name="bracketright" unicode="]" horiz-adv-x="757" 
d="M350 1403h-268v221h522v-1921h-522v221h268v1479z" />
    <glyph glyph-name="asciicircum" unicode="^" 
d="M135 696l350 717h248l350 -717h-270l-209 443l-211 -443h-258z" />
    <glyph glyph-name="underscore" unicode="_" horiz-adv-x="1214" 
d="M61 -334v213h1092v-213h-1092z" />
    <glyph glyph-name="grave" unicode="`" 
d="M614 1235l-282 293h319l234 -293h-271z" />
    <glyph glyph-name="a" unicode="a" horiz-adv-x="1146" 
d="M449 -31q-101 0 -187.5 38.5t-142.5 117.5t-56 182q0 87 39 155.5t103.5 109t141.5 61t161 20.5q119 0 246 -47v64q0 93 -51.5 150t-143.5 57q-69 0 -124 -33.5t-77 -95.5l-256 51q23 99 96 172t167.5 107t197.5 34q206 0 337.5 -124t131.5 -333v-655h-256l-8 127
q-47 -78 -134 -118t-185 -40zM346 322q0 -64 52 -98t120 -34q97 0 166.5 61.5t69.5 158.5v10q-56 22 -97 31q-58 10 -102 10q-50 0 -94 -11t-79.5 -44t-35.5 -84z" />
    <glyph glyph-name="b" unicode="b" horiz-adv-x="1308" 
d="M115 1528h286v-584q61 82 148 125t188 43q112 0 207 -47t158 -125.5t98 -180.5t35 -212t-36.5 -214t-101 -185t-163 -130t-213.5 -49q-104 0 -191 43.5t-143 128.5l-8 -141h-264v1528zM670 854q-123 0 -198 -93t-75 -220q0 -126 75 -220t198 -94q82 0 145 45t95 116
t32 153q0 127 -73.5 220t-198.5 93z" />
    <glyph glyph-name="c" unicode="c" horiz-adv-x="1169" 
d="M74 532q0 156 68.5 288t195.5 212t287 80q173 0 304 -94.5t173 -259.5l-273 -53q-30 70 -84 109.5t-127 39.5q-81 0 -139.5 -48.5t-85 -118.5t-26.5 -150q0 -79 26.5 -147.5t85 -115.5t139.5 -47q75 0 134.5 40t87.5 110l272 -53q-43 -166 -181 -260.5t-315 -94.5
q-155 0 -279.5 74.5t-193.5 203t-69 285.5z" />
    <glyph glyph-name="d" unicode="d" horiz-adv-x="1308" 
d="M569 -31q-146 0 -261 81.5t-174.5 210t-59.5 274.5q0 110 36 213.5t100.5 184.5t162.5 130t213 49q202 0 321 -151v567h287v-1528h-264l-8 158q-60 -91 -152 -140t-201 -49zM367 541q0 -126 74.5 -220t197.5 -94q82 0 145 45t95 116t32 153q0 127 -73.5 220t-198.5 93
q-82 0 -145 -45t-95 -115.5t-32 -152.5z" />
    <glyph glyph-name="e" unicode="e" horiz-adv-x="1204" 
d="M74 543q0 154 66 283t190 207.5t282 78.5q161 0 282.5 -74.5t184 -203.5t62.5 -293v-72h-776q18 -115 85.5 -186.5t178.5 -71.5q150 0 233 135l256 -82q-56 -140 -193.5 -217.5t-297.5 -77.5t-287 75t-196.5 205.5t-69.5 293.5zM612 891q-98 0 -160.5 -64t-82.5 -165h477
q-14 101 -75 165t-159 64z" />
    <glyph glyph-name="f" unicode="f" horiz-adv-x="839" 
d="M37 1081h184v62q0 176 113 290.5t293 114.5q115 0 215 -53l-58 -219q-67 31 -116 31q-160 0 -160 -183v-43h287v-231h-287v-850h-287v850h-184v231z" />
    <glyph glyph-name="g" unicode="g" horiz-adv-x="1288" 
d="M74 565q0 107 36 206t99.5 174.5t159 121t206.5 45.5q215 0 328 -164l6 133h265v-952q0 -247 -151 -402t-402 -155q-165 0 -298.5 77.5t-199.5 223.5l274 68q79 -127 228 -127q123 0 192.5 79t69.5 207v88q-58 -75 -144.5 -116t-183.5 -41q-141 0 -253.5 75t-172 196.5
t-59.5 262.5zM629 858q-116 0 -189 -84t-73 -203q0 -117 73.5 -201.5t188.5 -84.5q116 0 189 83.5t73 202.5t-72 203t-190 84z" />
    <glyph glyph-name="h" unicode="h" 
d="M115 0v1528h286v-565q103 149 306 149q97 0 173.5 -36.5t124 -100.5t72.5 -147t25 -179v-649h-287v612q0 104 -46.5 173t-145.5 69t-160.5 -66t-61.5 -167v-621h-286z" />
    <glyph glyph-name="i" unicode="i" horiz-adv-x="516" 
d="M115 0v1081h286v-1081h-286zM258 1210q-68 0 -116 47.5t-48 116.5t47 116.5t117 47.5q71 0 117.5 -46t46.5 -118q0 -69 -47 -116.5t-117 -47.5z" />
    <glyph glyph-name="j" unicode="j" horiz-adv-x="526" 
d="M-150 -367l58 222q40 -17 45 -19q27 -6 49 -6q65 0 94 41t29 109v1101h287v-1120q0 -167 -96.5 -273t-264.5 -106q-53 0 -106 12q-50 14 -95 39zM104 1374q0 69 47 116.5t117 47.5q71 0 117.5 -46t46.5 -118q0 -69 -47 -116.5t-117 -47.5q-68 0 -116 47.5t-48 116.5z" />
    <glyph glyph-name="k" unicode="k" horiz-adv-x="1189" 
d="M115 1528h280v-887l402 440h336l-451 -479l500 -602h-363l-424 539v-539h-280v1528z" />
    <glyph glyph-name="l" unicode="l" horiz-adv-x="516" 
d="M115 0v1528h286v-1528h-286z" />
    <glyph glyph-name="m" unicode="m" horiz-adv-x="1884" 
d="M115 1081h264l8 -137q49 82 129.5 125t177.5 43q107 0 194 -52.5t132 -148.5q53 96 148 148.5t208 52.5q98 0 174 -36.5t123.5 -100t71.5 -146.5t24 -180v-649h-286v612q0 48 -10 89.5t-31 76.5t-58.5 55.5t-87.5 20.5q-97 0 -154 -66.5t-57 -166.5v-621h-286v612
q0 48 -10 89.5t-31 76.5t-58.5 55.5t-87.5 20.5q-97 0 -154 -66.5t-57 -166.5v-621h-286v1081z" />
    <glyph glyph-name="n" unicode="n" 
d="M115 1081h264l8 -139q50 84 134 127t186 43q97 0 173.5 -36.5t124 -100.5t72.5 -147t25 -179v-649h-287v612q0 104 -46.5 173t-145.5 69t-160.5 -66t-61.5 -167v-621h-286v1081z" />
    <glyph glyph-name="o" unicode="o" horiz-adv-x="1277" 
d="M74 541q0 119 43 224.5t118 182t181 120.5t227 44q159 0 287.5 -73.5t201 -203.5t72.5 -292q0 -161 -72.5 -292t-203 -206.5t-293.5 -75.5q-159 0 -287.5 74.5t-201 205.5t-72.5 292zM639 854q-82 0 -145 -45t-95 -115.5t-32 -152.5q0 -126 74.5 -220t197.5 -94
q82 0 145 45t95 116t32 153q0 127 -73.5 220t-198.5 93z" />
    <glyph glyph-name="p" unicode="p" horiz-adv-x="1308" 
d="M115 1081h264l8 -157q56 91 148.5 139.5t201.5 48.5q112 0 207 -47t158 -125.5t98 -180.5t35 -212t-36.5 -214t-101 -185t-163 -130t-213.5 -49q-96 0 -179 39t-141 113v-518h-286v1478zM670 854q-123 0 -198 -93t-75 -220q0 -126 75 -220t198 -94q82 0 145 45t95 116
t32 153q0 127 -73.5 220t-198.5 93z" />
    <glyph glyph-name="q" unicode="q" horiz-adv-x="1308" 
d="M571 -31q-147 0 -262.5 81.5t-175 209.5t-59.5 275q0 111 36 214.5t100.5 184.5t163 129.5t214.5 48.5q104 0 191 -43.5t143 -128.5l8 141h264v-1478h-287v534q-126 -168 -336 -168zM367 541q0 -126 74.5 -220t197.5 -94q82 0 145 45t95 116t32 153q0 127 -73.5 220
t-198.5 93q-82 0 -145 -45t-95 -115.5t-32 -152.5z" />
    <glyph glyph-name="r" unicode="r" horiz-adv-x="813" 
d="M115 1081h264l10 -163q82 178 275 178q21 0 57 -4q33 -7 51 -15l-31 -282q-31 14 -94 14q-125 0 -185.5 -75.5t-60.5 -203.5v-530h-286v1081z" />
    <glyph glyph-name="s" unicode="s" horiz-adv-x="1005" 
d="M49 270l258 56q23 -66 76.5 -102t124.5 -36q64 0 112 28t48 87q0 96 -172 121l-58 10q-72 12 -132.5 35.5t-113 61.5t-82.5 97.5t-30 133.5q0 84 35 152t93.5 110.5t133 65t156.5 22.5q100 0 186.5 -30.5t152.5 -98.5t89 -166l-256 -53q-47 131 -174 131q-56 0 -101 -28
t-45 -81q0 -81 176 -112l58 -10q73 -13 133.5 -37t113 -62.5t82 -98t29.5 -134.5q0 -115 -64.5 -199.5t-162 -124t-211.5 -39.5q-102 0 -193 31.5t-163.5 101.5t-98.5 168z" />
    <glyph glyph-name="t" unicode="t" horiz-adv-x="897" 
d="M37 1081h184v369h287v-369h295v-231h-295v-469q0 -162 133 -162q61 0 152 37l51 -215q-115 -72 -260 -72q-171 0 -267 100.5t-96 276.5v504h-184v231z" />
    <glyph glyph-name="u" unicode="u" horiz-adv-x="1212" 
d="M115 1081h286v-604q0 -106 51.5 -178t153.5 -72t153.5 72t51.5 178v604h287v-598q0 -148 -58 -264t-171.5 -183t-266.5 -67q-225 0 -356 141.5t-131 372.5v598z" />
    <glyph glyph-name="v" unicode="v" horiz-adv-x="1148" 
d="M23 1081h313l242 -778l245 778h303l-405 -1081h-293z" />
    <glyph glyph-name="w" unicode="w" horiz-adv-x="1720" 
d="M381 0l-358 1081h294l203 -731l219 731h248l219 -733l207 733h285l-359 -1081h-264l-217 731l-217 -731h-260z" />
    <glyph glyph-name="x" unicode="x" horiz-adv-x="1177" 
d="M25 0l405 571l-360 510h323l199 -325l203 325h313l-358 -512l403 -569h-338l-227 373l-234 -373h-329z" />
    <glyph glyph-name="y" unicode="y" horiz-adv-x="1148" 
d="M23 1081h313l256 -766l231 766h303l-444 -1183q-58 -152 -148.5 -234t-238.5 -82q-50 0 -105 10q-44 11 -92 37l56 226q24 -10 53 -19q30 -6 57 -6q57 0 105 31q46 36 71 102l19 47z" />
    <glyph glyph-name="z" unicode="z" horiz-adv-x="1075" 
d="M80 0v190l524 660h-510v231h867v-190l-527 -660h561v-231h-915z" />
    <glyph glyph-name="braceleft" unicode="{" horiz-adv-x="784" 
d="M61 559v209h31q66 0 101.5 35.5t35.5 101.5q0 44 -8 96q-22 129 -22 250q0 188 112.5 280.5t304.5 92.5h86v-221h-65q-92 0 -135 -46.5t-43 -139.5q0 -71 24 -211q6 -53 6 -97q0 -78 -37 -148.5t-104 -96.5q35 -13 72 -50q69 -81 69 -196q0 -44 -6 -96q-24 -140 -24 -211
q0 -187 178 -187h65v-221h-86q-192 0 -304.5 92.5t-112.5 280.5q0 102 22 252q8 49 8 94q0 137 -137 137h-31z" />
    <glyph glyph-name="bar" unicode="|" horiz-adv-x="559" 
d="M154 -236v1799h252v-1799h-252z" />
    <glyph glyph-name="braceright" unicode="}" horiz-adv-x="784" 
d="M168 -297h-86v221h65q91 0 136 45q43 49 43 142q0 39 -7 104q-3 17 -8 53t-8 54q-8 47 -8 96q0 76 38 148.5t103 97.5q-40 15 -69 51q-34 34 -53 88t-19 106q0 50 8 97q23 134 23 211q0 94 -42.5 140t-136.5 46h-65v221h86q192 0 305 -92.5t113 -280.5q0 -72 -8 -129
q-9 -61 -15 -121q-8 -52 -8 -96q0 -66 35.5 -101.5t101.5 -35.5h31v-209h-31q-137 0 -137 -137q0 -45 8 -94q6 -58 15 -123q8 -57 8 -129q0 -188 -113 -280.5t-305 -92.5z" />
    <glyph glyph-name="asciitilde" unicode="~" 
d="M121 373q6 72 25 137t54 123.5t94 93.5t134 35q64 0 115.5 -23.5t113.5 -70.5q31 -25 54 -37q31 -17 53 -17q73 0 94 134h238q-4 -56 -16.5 -109t-37 -105t-58.5 -90.5t-84.5 -62t-111.5 -23.5q-103 0 -227 97q-63 51 -108 51q-74 0 -95 -133h-237z" />
    <glyph glyph-name="uni00A0" unicode="&#xa0;" horiz-adv-x="428" 
 />
    <glyph glyph-name="exclamdown" unicode="&#xa1;" horiz-adv-x="540" 
d="M426 -373h-311l18 1002h275zM96 915q0 49 25 91q21 40 61.5 62t87.5 22t87 -22t65 -62q22 -42 22 -91q0 -46 -22 -88q-55 -86 -152 -86q-47 0 -86.5 22.5t-62.5 63.5q-25 42 -25 88z" />
    <glyph glyph-name="cent" unicode="&#xa2;" 
d="M537 -23q-134 26 -235 104.5t-154.5 195t-53.5 255.5q0 135 53 254.5t155 204.5t235 111v227h206v-225q138 -22 242.5 -116.5t136.5 -229.5l-272 -53q-30 70 -84 109.5t-127 39.5q-81 0 -140 -48.5t-85.5 -118.5t-26.5 -150q0 -78 26.5 -147t85.5 -116t140 -47
q75 0 134 40t87 110l273 -53q-32 -134 -141 -228t-249 -116v-261h-206v258z" />
    <glyph glyph-name="sterling" unicode="&#xa3;" 
d="M53 791h164l16 196q18 206 138 331.5t325 125.5q180 0 304.5 -101.5t156.5 -281.5l-276 -47q-34 174 -181 174q-84 0 -127 -57.5t-51 -147.5l-16 -192h344v-218h-361l-26 -323h690v-250h-1098v250h117l27 323h-146v218z" />
    <glyph glyph-name="currency" unicode="&#xa4;" 
d="M86 1118l150 150l157 -162q104 59 215 59q109 0 215 -59l158 162l149 -150l-159 -162q59 -101 59 -213q0 -115 -59 -213l159 -161l-149 -150l-158 162q-105 -59 -215 -59q-109 0 -215 59l-157 -162l-150 150l160 161q-60 99 -60 213t60 213zM608 932q-76 0 -124 -55
t-48 -134q0 -78 47.5 -133t124.5 -55t124.5 54.5t47.5 133.5t-46.5 134t-125.5 55z" />
    <glyph glyph-name="yen" unicode="&#xa5;" 
d="M25 1413h321l268 -588l265 588h311l-367 -690h226v-162h-297v-153h297v-162h-297v-246h-289v246h-297v162h297v153h-297v162h225z" />
    <glyph glyph-name="section" unicode="&#xa7;" horiz-adv-x="1052" 
d="M55 96l269 54q56 -115 200 -115q36 0 70.5 9t63 34.5t28.5 62.5q0 22 -7 39t-22.5 29t-29.5 20.5t-38 14.5t-37 9t-38 7l-92 16q-71 11 -131.5 35.5t-110.5 63.5t-79 98.5t-29 132.5q0 92 45 164t127 115q-146 90 -146 250q0 85 37 153.5t99 110.5t137.5 64t158.5 22
q102 0 187.5 -28.5t152.5 -94.5t95 -164l-267 -53q-46 108 -176 108q-31 0 -62.5 -9.5t-56 -32.5t-24.5 -56q0 -87 172 -115l104 -16q72 -12 130 -34t107.5 -59t77 -94.5t27.5 -131.5q0 -96 -46 -170t-132 -117q152 -90 152 -256q0 -88 -39.5 -158t-105 -112.5t-144.5 -64.5
t-164 -22q-163 0 -287 72t-176 219zM338 657q0 -103 149 -133l37 -8q20 -4 29 -4q8 -2 22 -2q68 0 111 34.5t43 100.5q0 100 -149 133l-37 8q-5 1 -14.5 3.5t-14.5 3.5q-176 0 -176 -136z" />
    <glyph glyph-name="dieresis" unicode="&#xa8;" 
d="M750 1249q-35 19 -55.5 53t-20.5 74q0 79 76 129q36 19 77 19q42 0 78 -19q76 -50 76 -129q0 -40 -20.5 -74t-55.5 -53q-33 -20 -78 -20q-44 0 -77 20zM311 1249q-35 19 -55 53t-20 74q0 80 75 129q36 19 78 19t78 -19q76 -50 76 -129q0 -40 -20.5 -74t-55.5 -53
q-33 -20 -78 -20t-78 20z" />
    <glyph glyph-name="copyright" unicode="&#xa9;" horiz-adv-x="1732" 
d="M866 -43q-213 0 -389.5 100t-278.5 277t-102 393q0 213 100 389t277 277.5t393 101.5q214 0 390 -99t278 -275.5t102 -393.5q0 -214 -99.5 -390t-276.5 -278t-394 -102zM866 1321q-120 0 -228 -47t-186 -126.5t-123.5 -189.5t-45.5 -231q0 -159 76 -296t211 -218.5
t296 -81.5q160 0 294.5 80t212 217t77.5 299q0 160 -76 296.5t-210.5 217t-297.5 80.5zM590 436q-56 56 -85.5 133.5t-29.5 159.5q0 177 114 300.5t292 123.5q133 0 225.5 -74t126.5 -205l-217 -40q-46 106 -135 106q-78 0 -122 -62.5t-44 -144.5q0 -51 20.5 -100.5
t59.5 -75.5q38 -27 86 -27t86.5 30t56.5 77l217 -41q-32 -124 -134.5 -201.5t-232.5 -77.5q-81 0 -156.5 30.5t-127.5 88.5z" />
    <glyph glyph-name="ordfeminine" unicode="&#xaa;" horiz-adv-x="851" 
d="M332 631q-112 0 -190.5 64t-78.5 175q0 82 47.5 138.5t116 80t150.5 23.5q45 0 82 -6q39 -9 76 -23v39q0 56 -32 93.5t-87 37.5q-40 0 -72 -19.5t-45 -55.5l-209 36q25 103 122 161.5t210 58.5q146 0 242 -88.5t96 -235.5v-459h-207l-6 82q-34 -50 -92 -76t-123 -26z
M416 969q-52 0 -88.5 -21t-36.5 -69q0 -39 30 -60.5t70 -21.5q64 0 104 40t40 103v4q-29 11 -56 19q-34 6 -63 6z" />
    <glyph glyph-name="guillemotleft" unicode="&#xab;" horiz-adv-x="1093" 
d="M772 190l-274 394l274 393h250l-266 -393l266 -394h-250zM41 584l274 393h250l-266 -393l266 -394h-250z" />
    <glyph glyph-name="logicalnot" unicode="&#xac;" 
d="M156 539v239h864v-579h-246v340h-618z" />
    <glyph glyph-name="registered" unicode="&#xae;" horiz-adv-x="1097" 
d="M82 1014q0 197 133 329t334 132q130 0 236.5 -58.5t168.5 -164.5t62 -238q0 -197 -134 -329t-333 -132q-197 0 -332 131t-135 330zM549 1360q-145 0 -245.5 -99.5t-100.5 -246.5q0 -145 99.5 -245.5t246.5 -100.5q145 0 245.5 99.5t100.5 246.5q0 145 -99.5 245.5
t-246.5 100.5zM369 778v479h178q86 0 142 -39.5t56 -121.5q0 -40 -20.5 -76.5t-54.5 -58.5l100 -183h-141l-70 148h-18q-29 0 -43 2v-150h-129zM543 1147h-45v-113h22q6 -2 25 -2q30 0 49.5 15.5t19.5 44.5q0 55 -71 55z" />
    <glyph glyph-name="macron" unicode="&#xaf;" 
d="M283 1247v193h651v-193h-651z" />
    <glyph glyph-name="degree" unicode="&#xb0;" horiz-adv-x="772" 
d="M43 1204q0 140 101 238t243 98q141 0 241.5 -96.5t100.5 -237.5q0 -139 -102 -237.5t-242 -98.5q-139 0 -240.5 97t-101.5 237zM246 1206q0 -62 39 -107.5t100 -45.5q75 0 123 75q18 34 18 78t-18 78q-48 74 -123 74q-60 0 -99.5 -45t-39.5 -107z" />
    <glyph glyph-name="plusminus" unicode="&#xb1;" 
d="M492 664h-318v225h318v311h233v-311h317v-225h-317v-322h-233v322zM195 0v236h827v-236h-827z" />
    <glyph glyph-name="acute" unicode="&#xb4;" 
d="M332 1235l233 293h320l-283 -293h-270z" />
    <glyph glyph-name="paragraph" unicode="&#xb6;" horiz-adv-x="1208" 
d="M76 967q0 99 29 180t80.5 137.5t124 95t157.5 56.5t182 18h76v-1642h-184v669q-207 26 -336 153t-129 333zM1063 -188h-184v1642h184v-1642z" />
    <glyph glyph-name="periodcentered" unicode="&#xb7;" horiz-adv-x="552" 
d="M96 563q0 73 53 126.5t127 53.5t127.5 -52.5t53.5 -127.5q0 -74 -53 -127t-128 -53q-74 0 -127 53.5t-53 126.5z" />
    <glyph glyph-name="cedilla" unicode="&#xb8;" 
d="M551 -463q-86 0 -168 31l29 151q37 -11 59 -16q36 -4 47 -4q39 0 68 16q24 18 24 47q0 68 -129 68l68 193h178l-35 -107q64 -21 103 -66t39 -108q0 -54 -25.5 -95.5t-68 -64.5t-90.5 -34t-99 -11z" />
    <glyph glyph-name="ordmasculine" unicode="&#xba;" horiz-adv-x="927" 
d="M463 631q-172 0 -289 114t-117 287q0 171 116.5 286.5t289.5 115.5q172 0 289.5 -114.5t117.5 -287.5q0 -172 -117 -286.5t-290 -114.5zM293 1032q0 -79 46 -134.5t124 -55.5q77 0 124.5 55.5t47.5 134.5t-46.5 135t-125.5 56q-77 0 -123.5 -55.5t-46.5 -135.5z" />
    <glyph glyph-name="guillemotright" unicode="&#xbb;" horiz-adv-x="1093" 
d="M795 584l-267 393h250l275 -393l-275 -394h-250zM72 190l266 394l-266 393h250l274 -393l-274 -394h-250z" />
    <glyph glyph-name="onequarter" unicode="&#xbc;" horiz-adv-x="1658" 
d="M963 303l317 475h229v-471h80v-160h-80v-147h-196v147h-350v156zM506 0h-217l897 1413h217zM104 1284l242 129h176v-778h-200v571l-158 -84zM1147 307h166v248z" />
    <glyph glyph-name="onehalf" unicode="&#xbd;" horiz-adv-x="1658" 
d="M471 0h-217l897 1413h217zM1184 532l-185 29q18 106 102 171t193 65q114 0 194.5 -69.5t80.5 -182.5q0 -57 -24.5 -112t-69.5 -103.5t-86 -83t-95 -72.5h289v-174h-573v141q14 10 73 60q13 11 39.5 32t40.5 33q203 172 203 269q0 38 -23 62t-61 24q-40 0 -65 -24.5
t-33 -64.5zM164 1122l-60 162l242 129h176v-778h-200v571z" />
    <glyph glyph-name="threequarters" unicode="&#xbe;" horiz-adv-x="1658" 
d="M963 303l317 475h229v-471h80v-160h-80v-147h-196v147h-350v156zM516 0h-217l897 1413h217zM356 616q-110 0 -192.5 58t-106.5 162l181 28q9 -34 42 -55t70 -21q42 0 72.5 22t30.5 62q0 37 -30 57.5t-69 20.5h-80v164h66q40 0 69 19t29 57q0 30 -24 51q-28 19 -64 19
q-75 0 -96 -70l-182 31q22 101 102.5 156t187.5 55q70 0 130 -22t101.5 -73.5t41.5 -124.5q0 -112 -111 -172q62 -25 96.5 -72.5t34.5 -111.5q0 -58 -26.5 -105t-69.5 -75.5t-95.5 -44t-107.5 -15.5zM1147 307h166v248z" />
    <glyph glyph-name="questiondown" unicode="&#xbf;" horiz-adv-x="1050" 
d="M549 -403q-95 0 -183 28.5t-157.5 81.5t-111.5 135.5t-42 182.5q0 158 104.5 272.5t266.5 163.5v168h274v-318q-346 -82 -346 -276q0 -82 56 -130t141 -48q79 0 143 43q63 48 86 120l271 -59q-39 -168 -180.5 -266t-321.5 -98zM389 915q0 49 25 91q21 40 61.5 62t87.5 22
t87 -22t65 -62q22 -42 22 -91q0 -46 -22 -88q-55 -86 -152 -86q-47 0 -86.5 22.5t-62.5 63.5q-25 42 -25 88z" />
    <glyph glyph-name="Agrave" unicode="&#xc0;" horiz-adv-x="1546" 
d="M33 0l577 1454h324l579 -1454h-313l-119 319h-628l-119 -319h-301zM549 578h436l-219 579zM707 1606l-347 272h361l283 -272h-297z" />
    <glyph glyph-name="Aacute" unicode="&#xc1;" horiz-adv-x="1546" 
d="M33 0l577 1454h324l579 -1454h-313l-119 319h-628l-119 -319h-301zM549 578h436l-219 579zM838 1606h-297l282 272h361z" />
    <glyph glyph-name="Acircumflex" unicode="&#xc2;" horiz-adv-x="1546" 
d="M334 0h-301l577 1454h324l579 -1454h-313l-119 319h-628zM616 1606h-282l301 272h276l301 -272h-290l-152 120zM766 1157l-217 -579h436z" />
    <glyph glyph-name="Atilde" unicode="&#xc3;" horiz-adv-x="1546" 
d="M33 0l577 1454h324l579 -1454h-313l-119 319h-628l-119 -319h-301zM369 1610q6 56 23.5 107t48 94.5t78.5 69.5t108 26q82 0 161 -52q79 -51 119 -51q32 0 54 25q18 18 28 65h189q-6 -57 -23 -107.5t-47 -94t-78 -69.5t-108 -26q-85 0 -164 52q-48 29 -62 37
q-25 14 -57 14q-30 0 -53 -23q-20 -23 -29 -67h-188zM549 578h436l-219 579z" />
    <glyph glyph-name="Adieresis" unicode="&#xc4;" horiz-adv-x="1546" 
d="M334 0h-301l577 1454h324l579 -1454h-313l-119 319h-628zM766 1157l-217 -579h436zM524 1583q-64 0 -111.5 46t-47.5 110t47 109.5t112 45.5q67 0 113.5 -44t46.5 -111q0 -66 -47 -111t-113 -45zM860 1739q0 64 47.5 109.5t112.5 45.5q67 0 113.5 -44t46.5 -111
q0 -66 -47 -111t-113 -45q-64 0 -112 46t-48 110z" />
    <glyph glyph-name="Aring" unicode="&#xc5;" horiz-adv-x="1546" 
d="M33 0l577 1454h324l579 -1454h-313l-119 319h-628l-119 -319h-301zM772 1538q-97 0 -168.5 65.5t-71.5 163.5q0 97 70.5 163.5t169.5 66.5q100 0 170 -65t70 -165q0 -98 -70 -163.5t-170 -65.5zM549 578h436l-219 579zM684 1767q0 -39 27 -63q27 -27 61 -27q35 0 62 27
q26 23 26 63t-26 66q-28 25 -62 25q-33 0 -61 -25q-27 -27 -27 -66z" />
    <glyph glyph-name="AE" unicode="&#xc6;" horiz-adv-x="2101" 
d="M33 0l913 1454h1024v-260h-596v-317h531v-261h-531v-356h617v-260h-912v319h-516l-190 -319h-340zM1079 1186l-362 -608h362v608z" />
    <glyph glyph-name="Ccedilla" unicode="&#xc7;" horiz-adv-x="1517" 
d="M717 -35q-190 24 -334.5 129.5t-220.5 267.5t-76 355q0 123 33 239.5t97 213.5t151 170t201.5 114t242.5 41q142 0 268.5 -50t223 -150t137.5 -236l-295 -74q-48 108 -135 168.5t-203 60.5q-95 0 -174 -42.5t-128.5 -113.5t-76.5 -158t-27 -179q0 -93 26.5 -178.5
t76 -153.5t129.5 -108.5t178 -40.5q118 0 208 60t140 169l295 -74q-61 -183 -207.5 -295.5t-343.5 -136.5l-18 -59q63 -21 102 -68.5t39 -111.5q0 -61 -35 -111q-80 -100 -252 -100q-87 0 -178 32l31 158q30 -10 57 -16q36 -4 51 -4q42 0 68 16q25 19 25 47q0 35 -33 49
q-36 19 -96 19z" />
    <glyph glyph-name="Egrave" unicode="&#xc8;" horiz-adv-x="1175" 
d="M133 1454h911v-260h-616v-317h551v-261h-551v-356h637v-260h-932v1454zM176 1878h361l282 -272h-297z" />
    <glyph glyph-name="Eacute" unicode="&#xc9;" horiz-adv-x="1175" 
d="M133 1454h911v-260h-616v-317h551v-261h-551v-356h637v-260h-932v1454zM653 1606h-297l283 272h360z" />
    <glyph glyph-name="Ecircumflex" unicode="&#xca;" horiz-adv-x="1175" 
d="M133 1454h911v-260h-616v-317h551v-261h-551v-356h637v-260h-932v1454zM432 1606h-282l301 272h276l301 -272h-291l-151 120z" />
    <glyph glyph-name="Edieresis" unicode="&#xcb;" horiz-adv-x="1175" 
d="M133 1454h911v-260h-616v-317h551v-261h-551v-356h637v-260h-932v1454zM340 1583q-64 0 -112 46t-48 110t47.5 109.5t112.5 45.5q67 0 113.5 -44t46.5 -111q0 -66 -47 -111t-113 -45zM836 1583q-64 0 -112 46t-48 110t47.5 109.5t112.5 45.5q67 0 113 -44t46 -111
q0 -66 -46.5 -111t-112.5 -45z" />
    <glyph glyph-name="Igrave" unicode="&#xcc;" horiz-adv-x="571" 
d="M133 0v1454h305v-1454h-305zM219 1606l-346 272h360l283 -272h-297z" />
    <glyph glyph-name="Iacute" unicode="&#xcd;" horiz-adv-x="571" 
d="M133 0v1454h305v-1454h-305zM53 1606l283 272h360l-346 -272h-297z" />
    <glyph glyph-name="Icircumflex" unicode="&#xce;" horiz-adv-x="571" 
d="M438 0h-305v1454h305v-1454zM-154 1606l301 272h277l301 -272h-291l-151 120l-154 -120h-283z" />
    <glyph glyph-name="Idieresis" unicode="&#xcf;" horiz-adv-x="571" 
d="M438 0h-305v1454h305v-1454zM532 1583q-64 0 -111.5 46t-47.5 110t47 109.5t112 45.5q67 0 113.5 -44t46.5 -111q0 -66 -47 -111t-113 -45zM-123 1739q0 66 46 110.5t114 44.5q67 0 113.5 -44t46.5 -111q0 -66 -47 -111t-113 -45q-65 0 -112.5 45.5t-47.5 110.5z" />
    <glyph glyph-name="Eth" unicode="&#xd0;" horiz-adv-x="1574" 
d="M154 631h-160v233h160v590h565q162 0 302 -49t244 -140t164 -229t60 -307q0 -218 -101 -385t-276.5 -255.5t-396.5 -88.5h-561v631zM700 1184h-241v-320h291v-233h-291v-361h241q215 0 344.5 120t129.5 337q0 213 -128 335t-346 122z" />
    <glyph glyph-name="Ntilde" unicode="&#xd1;" horiz-adv-x="1499" 
d="M428 0h-295v1454h264l674 -962v962h295v-1454h-264l-674 963v-963zM346 1610q6 56 23.5 107t48 94.5t78.5 69.5t108 26q83 0 162 -52q79 -51 119 -51q31 0 53 25q20 20 29 65h188q-6 -57 -23 -107.5t-47 -94t-78 -69.5t-108 -26q-85 0 -164 52q-59 36 -61 37
q-25 14 -58 14q-30 0 -53 -23q-19 -21 -28 -67h-189z" />
    <glyph glyph-name="Ograve" unicode="&#xd2;" horiz-adv-x="1679" 
d="M838 -41q-160 0 -299.5 58.5t-239 160t-156.5 243.5t-57 304q0 160 56 301.5t154.5 245t240.5 163.5t305 60q160 0 300 -58t239 -159.5t155.5 -243.5t56.5 -305q0 -160 -56 -301.5t-154.5 -245t-240 -163.5t-304.5 -60zM840 1214q-132 0 -233.5 -67t-153.5 -177t-52 -243
q0 -129 51 -238.5t153 -179t235 -69.5q132 0 233 67t153 177t52 243q0 78 -18.5 150t-55.5 133t-89 106.5t-122.5 71.5t-152.5 26zM774 1606l-346 272h360l283 -272h-297z" />
    <glyph glyph-name="Oacute" unicode="&#xd3;" horiz-adv-x="1679" 
d="M838 -41q-160 0 -299.5 58.5t-239 160t-156.5 243.5t-57 304q0 160 56 301.5t154.5 245t240.5 163.5t305 60q160 0 300 -58t239 -159.5t155.5 -243.5t56.5 -305q0 -160 -56 -301.5t-154.5 -245t-240 -163.5t-304.5 -60zM401 727q0 -129 51 -238.5t153 -179t235 -69.5
q132 0 233 67t153 177t52 243q0 78 -18.5 150t-55.5 133t-89 106.5t-122.5 71.5t-152.5 26q-132 0 -233.5 -67t-153.5 -177t-52 -243zM608 1606l283 272h360l-346 -272h-297z" />
    <glyph glyph-name="Ocircumflex" unicode="&#xd4;" horiz-adv-x="1679" 
d="M838 -41q-160 0 -299.5 58.5t-239 160t-156.5 243.5t-57 304q0 160 56 301.5t154.5 245t240.5 163.5t305 60q160 0 300 -58t239 -159.5t155.5 -243.5t56.5 -305q0 -160 -56 -301.5t-154.5 -245t-240 -163.5t-304.5 -60zM840 1214q-132 0 -233.5 -67t-153.5 -177t-52 -243
q0 -129 51 -238.5t153 -179t235 -69.5q132 0 233 67t153 177t52 243q0 78 -18.5 150t-55.5 133t-89 106.5t-122.5 71.5t-152.5 26zM684 1606h-283l301 272h277l301 -272h-291l-151 120z" />
    <glyph glyph-name="Otilde" unicode="&#xd5;" horiz-adv-x="1679" 
d="M838 -41q-160 0 -299.5 58.5t-239 160t-156.5 243.5t-57 304q0 160 56 301.5t154.5 245t240.5 163.5t305 60q160 0 300 -58t239 -159.5t155.5 -243.5t56.5 -305q0 -160 -56 -301.5t-154.5 -245t-240 -163.5t-304.5 -60zM840 1214q-132 0 -233.5 -67t-153.5 -177t-52 -243
q0 -129 51 -238.5t153 -179t235 -69.5q132 0 233 67t153 177t52 243q0 78 -18.5 150t-55.5 133t-89 106.5t-122.5 71.5t-152.5 26zM625 1610h-189q6 56 23.5 107t48 94.5t78.5 69.5t108 26q83 0 162 -52q79 -51 119 -51q31 0 53 25q20 20 29 65h188q-6 -57 -23 -107.5
t-47 -94t-78 -69.5t-108 -26q-85 0 -164 52q-59 36 -61 37q-25 14 -57 14q-31 0 -54 -23q-19 -21 -28 -67z" />
    <glyph glyph-name="Odieresis" unicode="&#xd6;" horiz-adv-x="1679" 
d="M86 725q0 160 56 301.5t154.5 245t240.5 163.5t305 60q160 0 300 -58t239 -159.5t155.5 -243.5t56.5 -305q0 -160 -56 -301.5t-154.5 -245t-240 -163.5t-304.5 -60q-160 0 -299.5 58.5t-239 160t-156.5 243.5t-57 304zM840 1214q-132 0 -233.5 -67t-153.5 -177t-52 -243
q0 -129 51 -238.5t153 -179t235 -69.5q132 0 233 67t153 177t52 243q0 78 -18.5 150t-55.5 133t-89 106.5t-122.5 71.5t-152.5 26zM432 1739q0 64 47.5 109.5t112.5 45.5q67 0 113.5 -44t46.5 -111q0 -66 -47 -111t-113 -45q-64 0 -112 46t-48 110zM1087 1583
q-64 0 -111.5 46t-47.5 110t47 109.5t112 45.5q67 0 113.5 -44t46.5 -111q0 -66 -47 -111t-113 -45z" />
    <glyph glyph-name="multiply" unicode="&#xd7;" 
d="M334 135l-158 158l275 276l-261 260l158 158l260 -260l260 260l158 -158l-260 -260l274 -276l-157 -158l-275 275z" />
    <glyph glyph-name="Oslash" unicode="&#xd8;" horiz-adv-x="1679" 
d="M86 725q0 160 56 301.5t154.5 245t240.5 163.5t305 60q194 0 360 -88l88 119h283l-191 -256q104 -107 157.5 -247t53.5 -294q0 -160 -56 -301.5t-154.5 -245t-240 -163.5t-304.5 -60q-195 0 -361 88l-88 -119h-283l191 256q-102 105 -156.5 247.5t-54.5 293.5zM840 1225
q-135 0 -239 -68.5t-157 -181t-53 -248.5q0 -173 84 -303l559 758q-87 43 -194 43zM645 272q87 -43 195 -43q135 0 238.5 68.5t156.5 181t53 248.5q0 175 -82 303z" />
    <glyph glyph-name="Ugrave" unicode="&#xd9;" horiz-adv-x="1478" 
d="M113 588v866h305v-852q0 -158 82 -260t239 -102q153 0 237.5 101t84.5 261v852h305v-866q0 -284 -170 -456.5t-459 -172.5q-282 0 -453 170.5t-171 458.5zM328 1878h360l283 -272h-297z" />
    <glyph glyph-name="Uacute" unicode="&#xda;" horiz-adv-x="1478" 
d="M737 -41q-282 0 -453 170.5t-171 458.5v866h305v-852q0 -158 82 -260t239 -102q153 0 237.5 101t84.5 261v852h305v-866q0 -284 -170 -456.5t-459 -172.5zM805 1606h-297l283 272h360z" />
    <glyph glyph-name="Ucircumflex" unicode="&#xdb;" horiz-adv-x="1478" 
d="M737 -41q-282 0 -453 170.5t-171 458.5v866h305v-852q0 -158 82 -260t239 -102q153 0 237.5 101t84.5 261v852h305v-866q0 -284 -170 -456.5t-459 -172.5zM301 1606l301 272h277l301 -272h-291l-152 120l-153 -120h-283z" />
    <glyph glyph-name="Udieresis" unicode="&#xdc;" horiz-adv-x="1478" 
d="M113 1454h305v-852q0 -158 82 -260t239 -102q153 0 237.5 101t84.5 261v852h305v-866q0 -284 -170 -456.5t-459 -172.5q-282 0 -453 170.5t-171 458.5v866zM492 1583q-64 0 -112 46t-48 110t47.5 109.5t112.5 45.5q67 0 113 -44t46 -111q0 -66 -46.5 -111t-112.5 -45z
M987 1583q-64 0 -112 46t-48 110t47.5 109.5t112.5 45.5q67 0 113.5 -44t46.5 -111q0 -66 -47 -111t-113 -45z" />
    <glyph glyph-name="Yacute" unicode="&#xdd;" horiz-adv-x="1366" 
d="M530 565l-507 889h339l326 -612l324 612h331l-507 -889v-565h-306v565zM748 1606h-297l282 272h361z" />
    <glyph glyph-name="Thorn" unicode="&#xde;" horiz-adv-x="1226" 
d="M133 1454h301v-233h166q120 0 221 -28.5t180.5 -86t124.5 -154t45 -223.5q0 -117 -46.5 -211.5t-126 -153.5t-182 -90.5t-218.5 -31.5q-81 0 -164 14v-256h-301v1454zM434 963v-451q82 -12 152 -12q125 0 200.5 56t75.5 175q0 118 -73 175t-195 57h-160z" />
    <glyph glyph-name="germandbls" unicode="&#xdf;" horiz-adv-x="1253" 
d="M115 0v1051q0 221 137 362t362 141q92 0 178 -27t156 -77.5t112 -130t42 -176.5q0 -100 -44.5 -183.5t-127.5 -138.5q119 -43 184.5 -150t65.5 -239t-65.5 -236t-175.5 -160t-243 -56q-117 0 -186 28l39 244q45 -19 110 -19q99 0 163.5 62t64.5 162q0 110 -70 167.5
t-182 57.5h-64v238h43q84 0 141.5 52.5t57.5 135.5q0 82 -58 135t-141 53q-100 0 -156.5 -69.5t-56.5 -173.5v-1053h-286z" />
    <glyph glyph-name="agrave" unicode="&#xe0;" horiz-adv-x="1146" 
d="M449 -31q-101 0 -187.5 38.5t-142.5 117.5t-56 182q0 87 39 155.5t103.5 109t141.5 61t161 20.5q119 0 246 -47v64q0 93 -51.5 150t-143.5 57q-69 0 -124 -33.5t-77 -95.5l-256 51q23 99 96 172t167.5 107t197.5 34q206 0 337.5 -124t131.5 -333v-655h-256l-8 127
q-47 -78 -134 -118t-185 -40zM555 461q-50 0 -94 -11t-79.5 -44t-35.5 -84q0 -64 52 -98t120 -34q97 0 166.5 61.5t69.5 158.5v10q-56 22 -97 31q-58 10 -102 10zM211 1528h319l234 -293h-270z" />
    <glyph glyph-name="aacute" unicode="&#xe1;" horiz-adv-x="1146" 
d="M63 307q0 87 39 155.5t103.5 109t141.5 61t161 20.5q119 0 246 -47v64q0 93 -51.5 150t-143.5 57q-69 0 -124 -33.5t-77 -95.5l-256 51q23 99 96 172t167.5 107t197.5 34q206 0 337.5 -124t131.5 -333v-655h-256l-8 127q-47 -78 -134 -118t-185 -40q-101 0 -187.5 38.5
t-142.5 117.5t-56 182zM346 322q0 -64 52 -98t120 -34q97 0 166.5 61.5t69.5 158.5v10q-56 22 -97 31q-58 10 -102 10q-50 0 -94 -11t-79.5 -44t-35.5 -84zM645 1235h-270l233 293h320z" />
    <glyph glyph-name="acircumflex" unicode="&#xe2;" horiz-adv-x="1146" 
d="M63 307q0 87 39 155.5t103.5 109t141.5 61t161 20.5q119 0 246 -47v64q0 93 -51.5 150t-143.5 57q-69 0 -124 -33.5t-77 -95.5l-256 51q23 99 96 172t167.5 107t197.5 34q206 0 337.5 -124t131.5 -333v-655h-256l-8 127q-47 -78 -134 -118t-185 -40q-101 0 -187.5 38.5
t-142.5 117.5t-56 182zM184 1235l273 293h227l272 -293h-254l-135 127l-137 -127h-246zM346 322q0 -64 52 -98t120 -34q97 0 166.5 61.5t69.5 158.5v10q-56 22 -97 31q-58 10 -102 10q-50 0 -94 -11t-79.5 -44t-35.5 -84z" />
    <glyph glyph-name="atilde" unicode="&#xe3;" horiz-adv-x="1146" 
d="M63 307q0 87 39 155.5t103.5 109t141.5 61t161 20.5q119 0 246 -47v64q0 93 -51.5 150t-143.5 57q-69 0 -124 -33.5t-77 -95.5l-256 51q23 99 96 172t167.5 107t197.5 34q206 0 337.5 -124t131.5 -333v-655h-256l-8 127q-47 -78 -134 -118t-185 -40q-101 0 -187.5 38.5
t-142.5 117.5t-56 182zM391 1237h-178q5 41 14 79t26.5 77t41.5 67t60.5 46t80.5 18q70 0 146 -47q62 -50 100 -50q29 0 45.5 26.5t22.5 59.5h178q-6 -53 -20 -99.5t-38.5 -90.5t-67 -70t-97.5 -26q-79 0 -144 49q-7 4 -18.5 11t-20.5 12.5t-16 9.5q-22 14 -47 14
q-29 0 -45.5 -26.5t-22.5 -59.5zM555 461q-50 0 -94 -11t-79.5 -44t-35.5 -84q0 -64 52 -98t120 -34q97 0 166.5 61.5t69.5 158.5v10q-56 22 -97 31q-58 10 -102 10z" />
    <glyph glyph-name="adieresis" unicode="&#xe4;" horiz-adv-x="1146" 
d="M449 -31q-101 0 -187.5 38.5t-142.5 117.5t-56 182q0 87 39 155.5t103.5 109t141.5 61t161 20.5q119 0 246 -47v64q0 93 -51.5 150t-143.5 57q-69 0 -124 -33.5t-77 -95.5l-256 51q23 99 96 172t167.5 107t197.5 34q206 0 337.5 -124t131.5 -333v-655h-256l-8 127
q-47 -78 -134 -118t-185 -40zM555 461q-50 0 -94 -11t-79.5 -44t-35.5 -84q0 -64 52 -98t120 -34q97 0 166.5 61.5t69.5 158.5v10q-56 22 -97 31q-58 10 -102 10zM711 1249q-35 19 -55.5 53t-20.5 74q0 79 76 129q36 19 77 19q42 0 78 -19q76 -50 76 -129q0 -40 -20.5 -74
t-55.5 -53q-33 -20 -78 -20q-44 0 -77 20zM272 1249q-35 19 -55 53t-20 74q0 80 75 129q36 19 78 19t78 -19q76 -50 76 -129q0 -40 -20.5 -74t-55.5 -53q-33 -20 -78 -20t-78 20z" />
    <glyph glyph-name="aring" unicode="&#xe5;" horiz-adv-x="1146" 
d="M449 -31q-101 0 -187.5 38.5t-142.5 117.5t-56 182q0 87 39 155.5t103.5 109t141.5 61t161 20.5q119 0 246 -47v64q0 93 -51.5 150t-143.5 57q-69 0 -124 -33.5t-77 -95.5l-256 51q23 99 96 172t167.5 107t197.5 34q206 0 337.5 -124t131.5 -333v-655h-256l-8 127
q-47 -78 -134 -118t-185 -40zM569 1180q-96 0 -164.5 63.5t-68.5 159.5q0 97 67.5 160t165.5 63q97 0 165.5 -62.5t68.5 -160.5q0 -95 -68.5 -159t-165.5 -64zM555 461q-50 0 -94 -11t-79.5 -44t-35.5 -84q0 -64 52 -98t120 -34q97 0 166.5 61.5t69.5 158.5v10
q-56 22 -97 31q-58 10 -102 10zM569 1495q-38 0 -64 -27t-26 -65t26 -65t64 -27t64 27t26 65t-26 65t-64 27z" />
    <glyph glyph-name="ae" unicode="&#xe6;" horiz-adv-x="1828" 
d="M63 311q0 85 38 152.5t101 107.5t138.5 61t157.5 21q114 0 235 -47v64q0 91 -47.5 149t-136.5 58q-67 0 -118.5 -33.5t-72.5 -95.5l-256 51q34 148 162.5 230.5t288.5 82.5q104 0 191 -43t145 -127q131 170 368 170q118 0 215 -45.5t160.5 -123.5t98 -181.5t34.5 -220.5
v-72h-755q16 -111 81 -184.5t173 -73.5q141 0 223 135l256 -82q-55 -138 -188.5 -216.5t-288.5 -78.5q-126 0 -233 53.5t-177 155.5q-50 -102 -154.5 -155.5t-226.5 -53.5q-77 0 -149.5 22.5t-131.5 64t-95 108t-36 147.5zM346 322q0 -65 47.5 -98.5t114.5 -33.5
q96 0 160.5 61.5t64.5 158.5v10q-51 21 -92 31q-55 10 -96 10q-36 0 -68.5 -6.5t-63.5 -21.5t-49 -43.5t-18 -67.5zM1247 891q-96 0 -154 -64t-79 -165h456q-15 100 -71 164.5t-152 64.5z" />
    <glyph glyph-name="ccedilla" unicode="&#xe7;" horiz-adv-x="1169" 
d="M401 12q-154 60 -240.5 204t-86.5 316q0 156 68.5 288t195.5 212t287 80q173 0 304 -94.5t173 -259.5l-273 -53q-30 70 -84 109.5t-127 39.5q-81 0 -139.5 -48.5t-85 -118.5t-26.5 -150q0 -79 26.5 -147.5t85 -115.5t139.5 -47q75 0 134.5 40t87.5 110l272 -53
q-37 -144 -143 -232t-260 -117l-21 -59q63 -21 102 -66t39 -108q0 -72 -45 -120t-106 -66.5t-131 -18.5q-86 0 -168 31l29 151q37 -11 59 -16q36 -4 47 -4q39 0 68 16q24 18 24 47q0 68 -129 68l51 145q-66 9 -127 37z" />
    <glyph glyph-name="egrave" unicode="&#xe8;" horiz-adv-x="1204" 
d="M627 -31q-160 0 -287 75t-196.5 205.5t-69.5 293.5q0 154 66 283t190 207.5t282 78.5q161 0 282.5 -74.5t184 -203.5t62.5 -293v-72h-776q18 -115 85.5 -186.5t178.5 -71.5q150 0 233 135l256 -82q-56 -140 -193.5 -217.5t-297.5 -77.5zM254 1528h319l234 -293h-270z
M612 891q-98 0 -160.5 -64t-82.5 -165h477q-14 101 -75 165t-159 64z" />
    <glyph glyph-name="eacute" unicode="&#xe9;" horiz-adv-x="1204" 
d="M74 543q0 154 66 283t190 207.5t282 78.5q161 0 282.5 -74.5t184 -203.5t62.5 -293v-72h-776q18 -115 85.5 -186.5t178.5 -71.5q150 0 233 135l256 -82q-56 -140 -193.5 -217.5t-297.5 -77.5t-287 75t-196.5 205.5t-69.5 293.5zM688 1235h-270l233 293h320zM369 662h477
q-14 101 -75 165t-159 64t-160.5 -64t-82.5 -165z" />
    <glyph glyph-name="ecircumflex" unicode="&#xea;" horiz-adv-x="1204" 
d="M74 543q0 154 66 283t190 207.5t282 78.5q161 0 282.5 -74.5t184 -203.5t62.5 -293v-72h-776q18 -115 85.5 -186.5t178.5 -71.5q150 0 233 135l256 -82q-56 -140 -193.5 -217.5t-297.5 -77.5t-287 75t-196.5 205.5t-69.5 293.5zM227 1235l273 293h227l272 -293h-254
l-135 127l-137 -127h-246zM612 891q-98 0 -160.5 -64t-82.5 -165h477q-14 101 -75 165t-159 64z" />
    <glyph glyph-name="edieresis" unicode="&#xeb;" horiz-adv-x="1204" 
d="M627 -31q-160 0 -287 75t-196.5 205.5t-69.5 293.5q0 154 66 283t190 207.5t282 78.5q161 0 282.5 -74.5t184 -203.5t62.5 -293v-72h-776q18 -115 85.5 -186.5t178.5 -71.5q150 0 233 135l256 -82q-56 -140 -193.5 -217.5t-297.5 -77.5zM612 891q-98 0 -160.5 -64
t-82.5 -165h477q-14 101 -75 165t-159 64zM240 1376q0 80 75 129q36 19 78 19t78 -19q76 -50 76 -129q0 -40 -20.5 -74t-55.5 -53q-33 -20 -78 -20t-78 20q-35 19 -55 53t-20 74zM678 1376q0 79 76 129q36 19 77 19q42 0 78 -19q76 -50 76 -129q0 -40 -20.5 -74t-55.5 -53
q-33 -20 -78 -20q-44 0 -77 20q-35 19 -55.5 53t-20.5 74z" />
    <glyph glyph-name="igrave" unicode="&#xec;" horiz-adv-x="516" 
d="M115 0v1081h286v-1081h-286zM180 1235l-282 293h319l234 -293h-271z" />
    <glyph glyph-name="iacute" unicode="&#xed;" horiz-adv-x="516" 
d="M115 0v1081h286v-1081h-286zM61 1235l234 293h319l-282 -293h-271z" />
    <glyph glyph-name="icircumflex" unicode="&#xee;" horiz-adv-x="516" 
d="M115 0v1081h286v-1081h-286zM-129 1235l272 293h228l272 -293h-254l-135 127l-137 -127h-246z" />
    <glyph glyph-name="idieresis" unicode="&#xef;" horiz-adv-x="516" 
d="M115 1081h286v-1081h-286v1081zM-41 1249q-35 19 -55.5 53t-20.5 74q0 79 76 129q36 19 78 19t78 -19q75 -49 75 -129q0 -40 -20 -74t-55 -53q-33 -20 -78 -20t-78 20zM322 1376q0 80 75 129q36 19 78 19t78 -19q76 -50 76 -129q0 -40 -20.5 -74t-55.5 -53
q-33 -20 -78 -20t-78 20q-35 19 -55 53t-20 74z" />
    <glyph glyph-name="eth" unicode="&#xf0;" horiz-adv-x="1304" 
d="M74 520q0 86 23.5 168t69 151t107 121.5t141.5 82.5t169 30q173 0 284 -117q-66 145 -172 277l-194 -90l-76 160l147 69q-71 68 -137 117l281 70q32 -24 92 -76l182 84l76 -160l-131 -61q126 -164 198 -354.5t72 -385.5q0 -103 -23 -197.5t-70.5 -174.5t-114.5 -139
t-160 -92.5t-203 -33.5q-157 0 -284.5 68.5t-202 195t-74.5 287.5zM367 532q0 -90 36 -155q32 -69 96.5 -109.5t141.5 -40.5q122 0 197 89.5t75 215.5t-74 214t-198 88q-123 0 -198.5 -87.5t-75.5 -214.5z" />
    <glyph glyph-name="ntilde" unicode="&#xf1;" 
d="M115 1081h264l8 -139q50 84 134 127t186 43q97 0 173.5 -36.5t124 -100.5t72.5 -147t25 -179v-649h-287v612q0 104 -46.5 173t-145.5 69t-160.5 -66t-61.5 -167v-621h-286v1081zM430 1237h-178q5 41 14 79t26.5 77t41.5 67t60.5 46t80.5 18q70 0 146 -47q62 -50 100 -50
q52 0 67 86h179q-6 -52 -20 -99t-39 -91t-67.5 -70t-97.5 -26q-78 0 -143 49q-7 4 -18.5 11t-20.5 12.5t-16 9.5q-22 14 -47 14q-29 0 -45.5 -26.5t-22.5 -59.5z" />
    <glyph glyph-name="ograve" unicode="&#xf2;" horiz-adv-x="1277" 
d="M635 -31q-159 0 -287.5 74.5t-201 205.5t-72.5 292q0 119 43 224.5t118 182t181 120.5t227 44q159 0 287.5 -73.5t201 -203.5t72.5 -292q0 -161 -72.5 -292t-203 -206.5t-293.5 -75.5zM639 854q-82 0 -145 -45t-95 -115.5t-32 -152.5q0 -126 74.5 -220t197.5 -94
q82 0 145 45t95 116t32 153q0 127 -73.5 220t-198.5 93zM563 1235l-282 293h319l234 -293h-271z" />
    <glyph glyph-name="oacute" unicode="&#xf3;" horiz-adv-x="1277" 
d="M635 -31q-159 0 -287.5 74.5t-201 205.5t-72.5 292q0 119 43 224.5t118 182t181 120.5t227 44q159 0 287.5 -73.5t201 -203.5t72.5 -292q0 -161 -72.5 -292t-203 -206.5t-293.5 -75.5zM367 541q0 -126 74.5 -220t197.5 -94q82 0 145 45t95 116t32 153q0 127 -73.5 220
t-198.5 93q-82 0 -145 -45t-95 -115.5t-32 -152.5zM444 1235l234 293h319l-282 -293h-271z" />
    <glyph glyph-name="ocircumflex" unicode="&#xf4;" horiz-adv-x="1277" 
d="M635 -31q-159 0 -287.5 74.5t-201 205.5t-72.5 292q0 119 43 224.5t118 182t181 120.5t227 44q159 0 287.5 -73.5t201 -203.5t72.5 -292q0 -161 -72.5 -292t-203 -206.5t-293.5 -75.5zM639 854q-82 0 -145 -45t-95 -115.5t-32 -152.5q0 -126 74.5 -220t197.5 -94
q82 0 145 45t95 116t32 153q0 127 -73.5 220t-198.5 93zM500 1235h-246l272 293h228l272 -293h-254l-135 127z" />
    <glyph glyph-name="otilde" unicode="&#xf5;" horiz-adv-x="1277" 
d="M74 541q0 119 43 224.5t118 182t181 120.5t227 44q159 0 287.5 -73.5t201 -203.5t72.5 -292q0 -161 -72.5 -292t-203 -206.5t-293.5 -75.5q-159 0 -287.5 74.5t-201 205.5t-72.5 292zM639 854q-82 0 -145 -45t-95 -115.5t-32 -152.5q0 -126 74.5 -220t197.5 -94
q82 0 145 45t95 116t32 153q0 127 -73.5 220t-198.5 93zM461 1237h-178q5 41 14 79t26.5 77t41.5 67t60.5 46t80.5 18q69 0 145 -47q63 -50 101 -50q52 0 67 86h178q-6 -53 -20 -99.5t-38.5 -90.5t-67 -70t-97.5 -26q-78 0 -143 49q-8 5 -27.5 16t-28.5 17q-22 14 -47 14
q-52 0 -67 -86z" />
    <glyph glyph-name="odieresis" unicode="&#xf6;" horiz-adv-x="1277" 
d="M635 -31q-159 0 -287.5 74.5t-201 205.5t-72.5 292q0 119 43 224.5t118 182t181 120.5t227 44q159 0 287.5 -73.5t201 -203.5t72.5 -292q0 -161 -72.5 -292t-203 -206.5t-293.5 -75.5zM639 854q-82 0 -145 -45t-95 -115.5t-32 -152.5q0 -126 74.5 -220t197.5 -94
q82 0 145 45t95 116t32 153q0 127 -73.5 220t-198.5 93zM780 1249q-35 19 -55 53t-20 74q0 80 75 129q36 19 78 19t78 -19q76 -50 76 -129q0 -40 -20.5 -74t-55.5 -53q-33 -20 -78 -20t-78 20zM266 1376q0 79 76 129q36 19 78 19t78 -19q75 -49 75 -129q0 -40 -20 -74
t-55 -53q-33 -20 -78 -20t-78 20q-35 19 -55.5 53t-20.5 74z" />
    <glyph glyph-name="divide" unicode="&#xf7;" 
d="M166 684h885v-240h-885v240zM539 799q-32 19 -51 51.5t-19 69.5q0 59 40 100t99 41q36 0 72 -19q68 -49 68 -122q0 -58 -41 -100t-99 -42q-39 0 -69 21zM469 209q0 59 40 100t99 41q38 0 72 -18q68 -49 68 -123q0 -57 -41 -99t-99 -42q-40 0 -69 20q-32 19 -51 51.5
t-19 69.5z" />
    <glyph glyph-name="oslash" unicode="&#xf8;" horiz-adv-x="1277" 
d="M229 141q-74 82 -114.5 186t-40.5 214q0 119 43 224.5t118 182t181 120.5t227 44q73 0 130.5 -13.5t123.5 -45.5l59 80h234l-141 -193q155 -166 155 -397q0 -161 -72.5 -292t-203 -206.5t-293.5 -75.5q-73 0 -130 13.5t-124 46.5l-59 -80h-234zM356 541q0 -95 39 -172
l348 475q-47 20 -104 20q-130 0 -206.5 -94.5t-76.5 -228.5zM883 713l-348 -475q49 -21 104 -21q128 0 205.5 95.5t77.5 228.5q0 95 -39 172z" />
    <glyph glyph-name="ugrave" unicode="&#xf9;" horiz-adv-x="1212" 
d="M115 483v598h286v-604q0 -106 51.5 -178t153.5 -72t153.5 72t51.5 178v604h287v-598q0 -148 -58 -264t-171.5 -183t-266.5 -67q-225 0 -356 141.5t-131 372.5zM246 1528h319l234 -293h-271z" />
    <glyph glyph-name="uacute" unicode="&#xfa;" horiz-adv-x="1212" 
d="M602 -31q-225 0 -356 141.5t-131 372.5v598h286v-604q0 -106 51.5 -178t153.5 -72t153.5 72t51.5 178v604h287v-598q0 -148 -58 -264t-171.5 -183t-266.5 -67zM680 1235h-270l233 293h320z" />
    <glyph glyph-name="ucircumflex" unicode="&#xfb;" horiz-adv-x="1212" 
d="M115 483v598h286v-604q0 -106 51.5 -178t153.5 -72t153.5 72t51.5 178v604h287v-598q0 -148 -58 -264t-171.5 -183t-266.5 -67q-225 0 -356 141.5t-131 372.5zM219 1235l273 293h227l272 -293h-254l-135 127l-137 -127h-246z" />
    <glyph glyph-name="udieresis" unicode="&#xfc;" horiz-adv-x="1212" 
d="M115 1081h286v-604q0 -106 51.5 -178t153.5 -72t153.5 72t51.5 178v604h287v-598q0 -148 -58 -264t-171.5 -183t-266.5 -67q-225 0 -356 141.5t-131 372.5v598zM670 1376q0 80 75 129q36 19 78 19t78 -19q76 -50 76 -129q0 -40 -20.5 -74t-55.5 -53q-33 -20 -78 -20
t-78 20q-35 19 -55 53t-20 74zM231 1376q0 79 76 129q36 19 78 19t78 -19q76 -50 76 -129q0 -40 -20.5 -74t-55.5 -53q-33 -20 -78 -20t-78 20q-35 19 -55.5 53t-20.5 74z" />
    <glyph glyph-name="yacute" unicode="&#xfd;" horiz-adv-x="1148" 
d="M459 10l-436 1071h313l256 -766l231 766h303l-444 -1183q-58 -152 -148.5 -234t-238.5 -82q-50 0 -105 10q-44 11 -92 37l56 226q24 -10 53 -19q30 -6 57 -6q57 0 105 31q46 36 71 102zM649 1235h-270l233 293h320z" />
    <glyph glyph-name="thorn" unicode="&#xfe;" horiz-adv-x="1308" 
d="M115 1528h286v-584q61 82 148 125t188 43q112 0 207 -47t158 -125.5t98 -180.5t35 -212t-36.5 -214t-101 -185t-163 -130t-213.5 -49q-96 0 -179 39t-141 113v-518h-286v1925zM670 854q-123 0 -198 -93t-75 -220q0 -126 75 -220t198 -94q82 0 145 45t95 116t32 153
q0 127 -73.5 220t-198.5 93z" />
    <glyph glyph-name="ydieresis" unicode="&#xff;" horiz-adv-x="1148" 
d="M23 1081h313l256 -766l231 766h303l-444 -1183q-58 -152 -148.5 -234t-238.5 -82q-50 0 -105 10q-44 11 -92 37l56 226q24 -10 53 -19q30 -6 57 -6q57 0 105 31q46 36 71 102l19 47zM715 1249q-35 19 -55.5 53t-20.5 74q0 79 76 129q36 19 78 19q41 0 77 -19
q76 -50 76 -129q0 -40 -20.5 -74t-55.5 -53q-33 -20 -77 -20q-45 0 -78 20zM276 1249q-35 19 -55 53t-20 74q0 80 75 129q36 19 78 19t78 -19q76 -50 76 -129q0 -40 -20.5 -74t-55.5 -53q-33 -20 -78 -20t-78 20z" />
    <glyph glyph-name="Amacron" unicode="&#x100;" horiz-adv-x="1546" 
d="M33 0l577 1454h324l579 -1454h-313l-119 319h-628l-119 -319h-301zM1145 1616h-746v205h746v-205zM549 578h436l-219 579z" />
    <glyph glyph-name="amacron" unicode="&#x101;" horiz-adv-x="1146" 
d="M63 307q0 87 39 155.5t103.5 109t141.5 61t161 20.5q119 0 246 -47v64q0 93 -51.5 150t-143.5 57q-69 0 -124 -33.5t-77 -95.5l-256 51q23 99 96 172t167.5 107t197.5 34q206 0 337.5 -124t131.5 -333v-655h-256l-8 127q-47 -78 -134 -118t-185 -40q-101 0 -187.5 38.5
t-142.5 117.5t-56 182zM244 1440h651v-193h-651v193zM555 461q-50 0 -94 -11t-79.5 -44t-35.5 -84q0 -64 52 -98t120 -34q97 0 166.5 61.5t69.5 158.5v10q-56 22 -97 31q-58 10 -102 10z" />
    <glyph glyph-name="Abreve" unicode="&#x102;" horiz-adv-x="1546" 
d="M33 0l577 1454h324l579 -1454h-313l-119 319h-628l-119 -319h-301zM772 1595q-145 0 -250 78.5t-129 218.5h225q15 -56 55.5 -88t98.5 -32t98.5 32t55.5 88h225q-24 -141 -127 -219t-252 -78zM549 578h436l-219 579z" />
    <glyph glyph-name="abreve" unicode="&#x103;" horiz-adv-x="1146" 
d="M63 307q0 87 39 155.5t103.5 109t141.5 61t161 20.5q119 0 246 -47v64q0 93 -51.5 150t-143.5 57q-69 0 -124 -33.5t-77 -95.5l-256 51q23 99 96 172t167.5 107t197.5 34q206 0 337.5 -124t131.5 -333v-655h-256l-8 127q-47 -78 -134 -118t-185 -40q-101 0 -187.5 38.5
t-142.5 117.5t-56 182zM217 1513h213q25 -112 139 -112q109 0 140 112h213q-24 -133 -119.5 -207.5t-233.5 -74.5q-136 0 -232 74t-120 208zM346 322q0 -64 52 -98t120 -34q97 0 166.5 61.5t69.5 158.5v10q-56 22 -97 31q-58 10 -102 10q-50 0 -94 -11t-79.5 -44t-35.5 -84z
" />
    <glyph glyph-name="Aogonek" unicode="&#x104;" horiz-adv-x="1546" 
d="M33 0l577 1454h324l579 -1454q-98 -73 -135 -121q-43 -49 -43 -84q0 -27 23 -47q22 -16 55 -16q13 0 49 4q31 7 45 14l25 -178q-103 -30 -152 -34q-16 -1 -34 -1q-63 0 -115.5 17.5t-89.5 61.5t-37 108q0 78 50 144t132 132h-86l-119 319h-628l-119 -319h-301zM766 1157
l-217 -579h436z" />
    <glyph glyph-name="aogonek" unicode="&#x105;" horiz-adv-x="1146" 
d="M449 -31q-101 0 -187.5 38.5t-142.5 117.5t-56 182q0 87 39 155.5t103.5 109t141.5 61t161 20.5q119 0 246 -47v64q0 93 -51.5 150t-143.5 57q-69 0 -124 -33.5t-77 -95.5l-256 51q23 99 96 172t167.5 107t197.5 34q206 0 337.5 -124t131.5 -333v-655q-98 -73 -135 -121
q-43 -49 -43 -84q0 -27 23 -47q22 -16 55 -16q15 0 51 4q31 7 43 14l25 -170q-84 -37 -183 -37q-61 0 -112.5 17.5t-88 61t-36.5 106.5q0 40 16 79.5t45.5 75t56.5 62t64 55.5h-37l-8 127q-47 -78 -134 -118t-185 -40zM346 322q0 -64 52 -98t120 -34q97 0 166.5 61.5
t69.5 158.5v10q-56 22 -97 31q-58 10 -102 10q-50 0 -94 -11t-79.5 -44t-35.5 -84z" />
    <glyph glyph-name="Cacute" unicode="&#x106;" horiz-adv-x="1517" 
d="M86 717q0 123 33 239.5t97 213.5t151 170t201.5 114t242.5 41q142 0 268.5 -50t223 -150t137.5 -236l-295 -74q-48 108 -135 168.5t-203 60.5q-95 0 -174 -42.5t-128.5 -113.5t-76.5 -158t-27 -179q0 -93 26.5 -178.5t76 -153.5t129.5 -108.5t178 -40.5q118 0 208 60
t140 169l295 -74q-67 -207 -242 -321.5t-401 -114.5q-209 0 -375.5 100t-258 273t-91.5 385zM874 1606h-296l282 272h361z" />
    <glyph glyph-name="cacute" unicode="&#x107;" horiz-adv-x="1169" 
d="M616 -31q-155 0 -279.5 74.5t-193.5 203t-69 285.5q0 156 68.5 288t195.5 212t287 80q173 0 304 -94.5t173 -259.5l-273 -53q-30 70 -84 109.5t-127 39.5q-81 0 -139.5 -48.5t-85 -118.5t-26.5 -150q0 -79 26.5 -147.5t85 -115.5t139.5 -47q75 0 134.5 40t87.5 110
l272 -53q-43 -166 -181 -260.5t-315 -94.5zM698 1235h-270l234 293h319z" />
    <glyph glyph-name="Cdotaccent" unicode="&#x10a;" horiz-adv-x="1517" 
d="M811 -41q-209 0 -375.5 100t-258 273t-91.5 385q0 123 33 239.5t97 213.5t151 170t201.5 114t242.5 41q142 0 268.5 -50t223 -150t137.5 -236l-295 -74q-48 108 -135 168.5t-203 60.5q-95 0 -174 -42.5t-128.5 -113.5t-76.5 -158t-27 -179q0 -93 26.5 -178.5t76 -153.5
t129.5 -108.5t178 -40.5q118 0 208 60t140 169l295 -74q-67 -207 -242 -321.5t-401 -114.5zM809 1583q-71 0 -120.5 48.5t-49.5 119.5t49 119.5t121 48.5q71 0 120.5 -48.5t49.5 -119.5t-49 -119.5t-121 -48.5z" />
    <glyph glyph-name="cdotaccent" unicode="&#x10b;" horiz-adv-x="1169" 
d="M616 -31q-155 0 -279.5 74.5t-193.5 203t-69 285.5q0 156 68.5 288t195.5 212t287 80q173 0 304 -94.5t173 -259.5l-273 -53q-30 70 -84 109.5t-127 39.5q-81 0 -139.5 -48.5t-85 -118.5t-26.5 -150q0 -79 26.5 -147.5t85 -115.5t139.5 -47q75 0 134.5 40t87.5 110
l272 -53q-43 -166 -181 -260.5t-315 -94.5zM623 1210q-68 0 -116 47.5t-48 116.5t47 116.5t117 47.5q71 0 117 -46t46 -118q0 -69 -46.5 -116.5t-116.5 -47.5z" />
    <glyph glyph-name="Ccaron" unicode="&#x10c;" horiz-adv-x="1517" 
d="M811 -41q-209 0 -375.5 100t-258 273t-91.5 385q0 123 33 239.5t97 213.5t151 170t201.5 114t242.5 41q142 0 268.5 -50t223 -150t137.5 -236l-295 -74q-48 108 -135 168.5t-203 60.5q-95 0 -174 -42.5t-128.5 -113.5t-76.5 -158t-27 -179q0 -93 26.5 -178.5t76 -153.5
t129.5 -108.5t178 -40.5q118 0 208 60t140 169l295 -74q-67 -207 -242 -321.5t-401 -114.5zM371 1878h291l151 -121l154 121h282l-301 -272h-276z" />
    <glyph glyph-name="ccaron" unicode="&#x10d;" horiz-adv-x="1169" 
d="M74 532q0 156 68.5 288t195.5 212t287 80q173 0 304 -94.5t173 -259.5l-273 -53q-30 70 -84 109.5t-127 39.5q-81 0 -139.5 -48.5t-85 -118.5t-26.5 -150q0 -79 26.5 -147.5t85 -115.5t139.5 -47q75 0 134.5 40t87.5 110l272 -53q-43 -166 -181 -260.5t-315 -94.5
q-155 0 -279.5 74.5t-193.5 203t-69 285.5zM510 1235l-272 293h254l135 -127l137 127h246l-273 -293h-227z" />
    <glyph glyph-name="Dcaron" unicode="&#x10e;" horiz-adv-x="1554" 
d="M694 0h-561v1454h565q162 0 302 -49t244 -140t164 -229t60 -307q0 -218 -101 -385t-276.5 -255.5t-396.5 -88.5zM438 1184v-914h242q215 0 344 120t129 337q0 213 -127.5 335t-345.5 122h-242zM586 1606l-301 272h290l152 -121l154 121h282l-301 -272h-276z" />
    <glyph glyph-name="dcaron" unicode="&#x10f;" horiz-adv-x="1390" 
d="M74 535q0 110 36 213.5t100.5 184.5t162.5 130t213 49q202 0 321 -151v567h287v-1528h-264l-8 158q-60 -91 -152 -140t-201 -49q-146 0 -261 81.5t-174.5 210t-59.5 274.5zM367 541q0 -126 74.5 -220t197.5 -94q82 0 145 45t95 116t32 153q0 127 -73.5 220t-198.5 93
q-82 0 -145 -45t-95 -115.5t-32 -152.5zM1499 1135h-168l31 393h233z" />
    <glyph glyph-name="Dcroat" unicode="&#x110;" horiz-adv-x="1574" 
d="M154 631h-160v233h160v590h565q162 0 302 -49t244 -140t164 -229t60 -307q0 -218 -101 -385t-276.5 -255.5t-396.5 -88.5h-561v631zM700 1184h-241v-320h291v-233h-291v-361h241q215 0 344.5 120t129.5 337q0 213 -128 335t-346 122z" />
    <glyph glyph-name="dcroat" unicode="&#x111;" horiz-adv-x="1308" 
d="M74 530q0 148 61.5 277.5t180.5 212t270 82.5q207 0 321 -152v254h-274v189h274v135h287v-135h143v-189h-143v-1204h-264l-8 158q-56 -89 -151 -139t-202 -50q-146 0 -261 80.5t-174.5 207.5t-59.5 273zM639 844q-123 0 -197.5 -90.5t-74.5 -218.5q0 -125 75 -216.5
t197 -91.5q121 0 196.5 91.5t75.5 216.5q0 127 -73.5 218t-198.5 91z" />
    <glyph glyph-name="Emacron" unicode="&#x112;" horiz-adv-x="1175" 
d="M133 0v1454h911v-260h-616v-317h551v-261h-551v-356h637v-260h-932zM961 1616h-746v205h746v-205z" />
    <glyph glyph-name="emacron" unicode="&#x113;" horiz-adv-x="1204" 
d="M627 -31q-160 0 -287 75t-196.5 205.5t-69.5 293.5q0 154 66 283t190 207.5t282 78.5q161 0 282.5 -74.5t184 -203.5t62.5 -293v-72h-776q18 -115 85.5 -186.5t178.5 -71.5q150 0 233 135l256 -82q-56 -140 -193.5 -217.5t-297.5 -77.5zM287 1440h651v-193h-651v193z
M369 662h477q-14 101 -75 165t-159 64t-160.5 -64t-82.5 -165z" />
    <glyph glyph-name="Edotaccent" unicode="&#x116;" horiz-adv-x="1175" 
d="M133 1454h911v-260h-616v-317h551v-261h-551v-356h637v-260h-932v1454zM418 1751q0 71 49 119.5t121 48.5q71 0 120.5 -48.5t49.5 -119.5t-49 -119.5t-121 -48.5q-71 0 -120.5 48.5t-49.5 119.5z" />
    <glyph glyph-name="edotaccent" unicode="&#x117;" horiz-adv-x="1204" 
d="M627 -31q-160 0 -287 75t-196.5 205.5t-69.5 293.5q0 154 66 283t190 207.5t282 78.5q161 0 282.5 -74.5t184 -203.5t62.5 -293v-72h-776q18 -115 85.5 -186.5t178.5 -71.5q150 0 233 135l256 -82q-56 -140 -193.5 -217.5t-297.5 -77.5zM612 1210q-68 0 -115.5 47.5
t-47.5 116.5t46.5 116.5t116.5 47.5q71 0 117.5 -46t46.5 -118q0 -69 -47 -116.5t-117 -47.5zM612 891q-98 0 -160.5 -64t-82.5 -165h477q-14 101 -75 165t-159 64z" />
    <glyph glyph-name="Eogonek" unicode="&#x118;" horiz-adv-x="1175" 
d="M133 0v1454h911v-260h-616v-317h551v-261h-551v-356h637v-260h2q-98 -73 -135 -121q-43 -49 -43 -84q0 -28 22 -47q22 -16 56 -16q13 0 49 4q31 7 45 14l24 -178q-103 -30 -152 -34q-16 -1 -34 -1q-63 0 -115.5 17.5t-89.5 61.5t-37 108q0 42 15.5 82t45.5 76t57 61.5
t65 56.5h-707z" />
    <glyph glyph-name="eogonek" unicode="&#x119;" horiz-adv-x="1204" 
d="M74 543q0 154 66 283t190 207.5t282 78.5q161 0 282.5 -74.5t184 -203.5t62.5 -293v-72h-776q18 -115 85.5 -186.5t178.5 -71.5q150 0 233 135l256 -82q-39 -96 -110 -158q-10 -9 -41 -32q-81 -84 -121 -142q-49 -70 -49 -122q0 -38 23.5 -58t62.5 -20q15 0 47 4
q30 9 39 14l24 -170q-84 -37 -176 -37q-47 0 -89.5 10.5t-77.5 32.5t-56 60t-21 88q0 114 125 239q-50 -4 -71 -4q-160 0 -287 75t-196.5 205.5t-69.5 293.5zM369 662h477q-14 101 -75 165t-159 64t-160.5 -64t-82.5 -165z" />
    <glyph glyph-name="Ecaron" unicode="&#x11a;" horiz-adv-x="1175" 
d="M133 1454h911v-260h-616v-317h551v-261h-551v-356h637v-260h-932v1454zM150 1878h290l152 -121l153 121h283l-301 -272h-276z" />
    <glyph glyph-name="ecaron" unicode="&#x11b;" horiz-adv-x="1204" 
d="M74 543q0 154 66 283t190 207.5t282 78.5q161 0 282.5 -74.5t184 -203.5t62.5 -293v-72h-776q18 -115 85.5 -186.5t178.5 -71.5q150 0 233 135l256 -82q-56 -140 -193.5 -217.5t-297.5 -77.5t-287 75t-196.5 205.5t-69.5 293.5zM500 1235l-273 293h254l135 -127l138 127
h245l-272 -293h-227zM369 662h477q-14 101 -75 165t-159 64t-160.5 -64t-82.5 -165z" />
    <glyph glyph-name="Gbreve" unicode="&#x11e;" horiz-adv-x="1626" 
d="M86 723q0 213 95 389t268.5 279.5t390.5 103.5q212 0 386 -102.5t253 -292.5l-295 -90q-114 204 -344 204q-130 0 -231.5 -67.5t-154.5 -177t-53 -240.5q0 -99 31 -187t87 -155.5t142 -107t189 -39.5q150 0 256.5 82t126.5 229h-363v252h676v-154q0 -306 -198.5 -498
t-511.5 -192q-159 0 -298.5 58.5t-238.5 159.5t-156 243t-57 303zM852 1595q-145 0 -250 78.5t-129 218.5h225q15 -56 55.5 -88t98.5 -32t98.5 32t55.5 88h225q-24 -141 -127 -219t-252 -78z" />
    <glyph glyph-name="gbreve" unicode="&#x11f;" horiz-adv-x="1288" 
d="M74 565q0 107 36 206t99.5 174.5t159 121t206.5 45.5q215 0 328 -164l6 133h265v-952q0 -247 -151 -402t-402 -155q-165 0 -298.5 77.5t-199.5 223.5l274 68q79 -127 228 -127q123 0 192.5 79t69.5 207v88q-58 -75 -144.5 -116t-183.5 -41q-141 0 -253.5 75t-172 196.5
t-59.5 262.5zM629 858q-116 0 -189 -84t-73 -203q0 -117 73.5 -201.5t188.5 -84.5q116 0 189 83.5t73 202.5t-72 203t-190 84zM268 1513h213q12 -54 48.5 -83t91.5 -29q108 0 139 112h213q-24 -133 -119 -207.5t-233 -74.5q-137 0 -233 74t-120 208z" />
    <glyph glyph-name="Gdotaccent" unicode="&#x120;" horiz-adv-x="1626" 
d="M86 723q0 213 95 389t268.5 279.5t390.5 103.5q212 0 386 -102.5t253 -292.5l-295 -90q-114 204 -344 204q-130 0 -231.5 -67.5t-154.5 -177t-53 -240.5q0 -99 31 -187t87 -155.5t142 -107t189 -39.5q150 0 256.5 82t126.5 229h-363v252h676v-154q0 -306 -198.5 -498
t-511.5 -192q-159 0 -298.5 58.5t-238.5 159.5t-156 243t-57 303zM682 1751q0 71 49 119.5t121 48.5q71 0 120.5 -48.5t49.5 -119.5t-49 -119.5t-121 -48.5q-71 0 -120.5 48.5t-49.5 119.5z" />
    <glyph glyph-name="gdotaccent" unicode="&#x121;" horiz-adv-x="1288" 
d="M559 31q-141 0 -253.5 75t-172 196.5t-59.5 262.5q0 107 36 206t99.5 174.5t159 121t206.5 45.5q215 0 328 -164l6 133h265v-952q0 -247 -151 -402t-402 -155q-165 0 -298.5 77.5t-199.5 223.5l274 68q79 -127 228 -127q123 0 192.5 79t69.5 207v88q-58 -75 -144.5 -116
t-183.5 -41zM367 571q0 -117 73.5 -201.5t188.5 -84.5q116 0 189 83.5t73 202.5t-72 203t-190 84q-116 0 -189 -84t-73 -203zM621 1210q-68 0 -116 47.5t-48 116.5t47 116.5t117 47.5q71 0 117 -46t46 -118q0 -69 -46.5 -116.5t-116.5 -47.5z" />
    <glyph glyph-name="uni0122" unicode="&#x122;" horiz-adv-x="1626" 
d="M836 -41q-159 0 -298.5 58.5t-238.5 159.5t-156 243t-57 303q0 213 95 389t268.5 279.5t390.5 103.5q212 0 386 -102.5t253 -292.5l-295 -90q-114 204 -344 204q-130 0 -231.5 -67.5t-154.5 -177t-53 -240.5q0 -99 31 -187t87 -155.5t142 -107t189 -39.5q150 0 256.5 82
t126.5 229h-363v252h676v-154q0 -306 -198.5 -498t-511.5 -192zM694 -248q0 56 42.5 89.5t99.5 33.5q47 0 86 -25q79 -47 79 -151q0 -98 -62.5 -167.5t-162.5 -100.5l-47 116q97 37 117 101q-13 -8 -39 -8q-47 0 -80 32.5t-33 79.5z" />
    <glyph glyph-name="uni0123" unicode="&#x123;" horiz-adv-x="1288" 
d="M559 31q-141 0 -253.5 75t-172 196.5t-59.5 262.5q0 107 36 206t99.5 174.5t159 121t206.5 45.5q215 0 328 -164l6 133h265v-952q0 -247 -151 -402t-402 -155q-165 0 -298.5 77.5t-199.5 223.5l274 68q79 -127 228 -127q123 0 192.5 79t69.5 207v88q-58 -75 -144.5 -116
t-183.5 -41zM367 571q0 -117 73.5 -201.5t188.5 -84.5q116 0 189 83.5t73 202.5t-72 203t-190 84q-116 0 -189 -84t-73 -203zM473 1364q0 95 60 163t157 101l47 -117q-43 -15 -71 -43q-33 -29 -41 -57q13 8 37 8q42 0 77 -30q31 -36 31 -80q0 -55 -40 -87t-95 -32
q-72 0 -117 50t-45 124z" />
    <glyph glyph-name="Hbar" unicode="&#x126;" horiz-adv-x="1562" 
d="M-6 1075v209h160v170h305v-170h643v170h305v-170h162v-209h-162v-1075h-305v596h-643v-596h-305v1075h-160zM459 866h643v209h-643v-209z" />
    <glyph glyph-name="hbar" unicode="&#x127;" 
d="M115 1204h-144v189h144v135h286v-135h275v-189h-275v-252q104 150 306 150q127 0 218.5 -64.5t134 -167.5t42.5 -231v-639h-287v600q0 104 -46.5 173t-145.5 69t-160.5 -66.5t-61.5 -167.5v-608h-286v1204z" />
    <glyph glyph-name="Itilde" unicode="&#x128;" horiz-adv-x="571" 
d="M133 0v1454h305v-1454h-305zM70 1610h-189q6 56 23.5 107t48 94.5t78.5 69.5t108 26q83 0 162 -52q79 -51 119 -51q31 0 53 25q20 20 29 65h188q-6 -57 -23 -107.5t-47 -94t-78 -69.5t-108 -26q-85 0 -164 52q-59 36 -61 37q-25 14 -57 14q-31 0 -54 -23q-19 -21 -28 -67
z" />
    <glyph glyph-name="itilde" unicode="&#x129;" horiz-adv-x="516" 
d="M401 0h-286v1081h286v-1081zM-100 1237q5 41 14 79t26.5 77t41.5 67t60.5 46t80.5 18q69 0 145 -47q63 -50 101 -50q52 0 67 86h178q-6 -53 -20 -99.5t-38.5 -90.5t-67 -70t-97.5 -26q-78 0 -143 49q-7 4 -18.5 11t-20.5 12.5t-16 9.5q-22 14 -48 14q-52 0 -67 -86h-178z
" />
    <glyph glyph-name="Imacron" unicode="&#x12a;" horiz-adv-x="571" 
d="M133 0v1454h305v-1454h-305zM-88 1616v205h745v-205h-745z" />
    <glyph glyph-name="imacron" unicode="&#x12b;" horiz-adv-x="516" 
d="M115 0v1081h286v-1081h-286zM-70 1247v193h652v-193h-652z" />
    <glyph glyph-name="Iogonek" unicode="&#x12e;" horiz-adv-x="571" 
d="M29 -276q0 78 50 144t132 132h-78v1454h305v-1454q-98 -73 -135 -121q-43 -49 -43 -84q0 -27 23 -47q22 -16 55 -16q13 0 49 4q31 7 45 14l25 -178q-47 -14 -65.5 -19t-53 -10.5t-68.5 -5.5q-63 0 -115 17.5t-89 61.5t-37 108z" />
    <glyph glyph-name="iogonek" unicode="&#x12f;" horiz-adv-x="516" 
d="M0 -272q0 40 16 79.5t45.5 75t56.5 62t64 55.5h-67v1081h286v-1081q-98 -73 -135 -121q-43 -49 -43 -84q0 -27 23 -47q22 -16 55 -16q15 0 51 4q31 7 43 14l25 -170q-84 -37 -182 -37q-61 0 -113 17.5t-88.5 61t-36.5 106.5zM258 1210q-68 0 -116 47.5t-48 116.5
t47 116.5t117 47.5q71 0 117.5 -46t46.5 -118q0 -69 -47 -116.5t-117 -47.5z" />
    <glyph glyph-name="Idotaccent" unicode="&#x130;" horiz-adv-x="571" 
d="M438 0h-305v1454h305v-1454zM285 1583q-71 0 -120.5 48.5t-49.5 119.5t49 119.5t121 48.5q71 0 120.5 -48.5t49.5 -119.5t-49 -119.5t-121 -48.5z" />
    <glyph glyph-name="dotlessi" unicode="&#x131;" horiz-adv-x="516" 
d="M115 0v1081h286v-1081h-286z" />
    <glyph glyph-name="IJ" unicode="&#x132;" horiz-adv-x="1429" 
d="M117 387l293 53q39 -93 115.5 -146.5t176.5 -53.5q149 0 229.5 101t80.5 257v856h305v-858q0 -182 -68 -324.5t-206 -227.5t-326 -85q-218 0 -378 110.5t-222 317.5zM113 1454h305v-825h-305v825z" />
    <glyph glyph-name="ij" unicode="&#x133;" 
d="M115 1081h286v-549q0 -104 47 -172.5t146 -68.5q97 0 159 66.5t62 166.5v557h287v-981q0 -232 -138.5 -380t-373.5 -148q-155 0 -278.5 74.5t-186.5 214.5l264 69q33 -54 85 -85t112 -31q110 0 169.5 73t59.5 187v106q-50 -72 -130.5 -110.5t-172.5 -38.5
q-97 0 -174 36.5t-125 100.5t-73 147t-25 179v587zM94 1374q0 69 47 116.5t117 47.5q71 0 117.5 -46t46.5 -118q0 -69 -47 -116.5t-117 -47.5q-68 0 -116 47.5t-48 116.5zM958 1210q-68 0 -115.5 47.5t-47.5 116.5t46.5 116.5t116.5 47.5q71 0 117.5 -46t46.5 -118
q0 -69 -47 -116.5t-117 -47.5z" />
    <glyph glyph-name="uni0136" unicode="&#x136;" horiz-adv-x="1425" 
d="M133 0v1454h305v-645l539 645h356l-581 -678l655 -776h-395l-574 705v-705h-305zM668 -360q-47 0 -80 32.5t-33 79.5q0 56 42 89.5t99 33.5q47 0 86 -25q80 -48 80 -151q0 -98 -62.5 -167.5t-162.5 -100.5l-47 116q97 37 117 101q-13 -8 -39 -8z" />
    <glyph glyph-name="uni0137" unicode="&#x137;" horiz-adv-x="1189" 
d="M115 0v1528h280v-887l402 440h336l-451 -479l500 -602h-363l-424 539v-539h-280zM555 -338q-47 0 -78 32t-31 79q0 53 40.5 85.5t95.5 32.5q72 0 116.5 -50t44.5 -124q0 -95 -60 -163t-157 -101l-47 117q43 15 74 43q31 31 39 57q-13 -8 -37 -8z" />
    <glyph glyph-name="kgreenlandic" unicode="&#x138;" horiz-adv-x="1189" 
d="M115 0v1081h280v-458l402 458h336l-451 -495l500 -586h-363l-424 520v-520h-280z" />
    <glyph glyph-name="Lacute" unicode="&#x139;" horiz-adv-x="1114" 
d="M133 0v1454h305v-1184h594v-270h-899zM53 1606l283 272h360l-346 -272h-297z" />
    <glyph glyph-name="lacute" unicode="&#x13a;" horiz-adv-x="516" 
d="M115 0v1528h286v-1528h-286zM61 1653l234 293h319l-282 -293h-271z" />
    <glyph glyph-name="uni013B" unicode="&#x13b;" horiz-adv-x="1114" 
d="M133 0v1454h305v-1184h594v-270h-899zM428 -248q0 56 42 89.5t99 33.5q47 0 86 -25q80 -48 80 -151q0 -98 -62.5 -167.5t-162.5 -100.5l-47 116q97 37 117 101q-13 -8 -39 -8q-47 0 -80 32.5t-33 79.5z" />
    <glyph glyph-name="uni013C" unicode="&#x13c;" horiz-adv-x="516" 
d="M401 0h-286v1528h286v-1528zM109 -227q0 53 40 85.5t95 32.5q72 0 117 -50t45 -124q0 -95 -60.5 -163t-157.5 -101l-47 117q43 15 74 43q31 31 39 57q-13 -8 -37 -8q-47 0 -77.5 31.5t-30.5 79.5z" />
    <glyph glyph-name="Lcaron" unicode="&#x13d;" horiz-adv-x="1114" 
d="M133 0v1454h305v-1184h594v-270h-899zM575 1135l31 393h234l-97 -393h-168z" />
    <glyph glyph-name="lcaron" unicode="&#x13e;" horiz-adv-x="598" 
d="M115 1528h286v-1528h-286v1528zM707 1135h-168l30 393h234z" />
    <glyph glyph-name="Lslash" unicode="&#x141;" horiz-adv-x="1134" 
d="M-6 324v272l160 117v741h305v-518l254 184v-272l-254 -184v-394h594v-270h-899v440z" />
    <glyph glyph-name="lslash" unicode="&#x142;" horiz-adv-x="604" 
d="M12 420v246l148 110v752h286v-537l146 109v-246l-146 -109v-745h-286v530z" />
    <glyph glyph-name="Nacute" unicode="&#x143;" horiz-adv-x="1499" 
d="M133 0v1454h264l674 -962v962h295v-1454h-264l-674 963v-963h-295zM815 1606h-297l283 272h360z" />
    <glyph glyph-name="nacute" unicode="&#x144;" 
d="M401 0h-286v1081h264l8 -139q50 84 134 127t186 43q97 0 173.5 -36.5t124 -100.5t72.5 -147t25 -179v-649h-287v612q0 104 -46.5 173t-145.5 69t-160.5 -66t-61.5 -167v-621zM684 1235h-270l233 293h320z" />
    <glyph glyph-name="uni0145" unicode="&#x145;" horiz-adv-x="1499" 
d="M428 0h-295v1454h264l674 -962v962h295v-1454h-264l-674 963v-963zM709 -360q-47 0 -80 32.5t-33 79.5q0 56 42 89.5t99 33.5q47 0 86 -25q80 -48 80 -151q0 -98 -62.5 -167.5t-162.5 -100.5l-47 116q97 37 117 101q-13 -8 -39 -8z" />
    <glyph glyph-name="uni0146" unicode="&#x146;" 
d="M115 1081h264l8 -139q50 84 134 127t186 43q97 0 173.5 -36.5t124 -100.5t72.5 -147t25 -179v-649h-287v612q0 104 -46.5 173t-145.5 69t-160.5 -66t-61.5 -167v-621h-286v1081zM569 -338q-47 0 -77.5 31.5t-30.5 79.5q0 53 40 85.5t95 32.5q72 0 117 -50t45 -124
q0 -95 -60 -163t-157 -101l-47 117q41 14 73 43q31 31 39 57q-13 -8 -37 -8z" />
    <glyph glyph-name="Ncaron" unicode="&#x147;" horiz-adv-x="1499" 
d="M133 1454h264l674 -962v962h295v-1454h-264l-674 963v-963h-295v1454zM311 1878h291l152 -121l153 121h283l-301 -272h-277z" />
    <glyph glyph-name="ncaron" unicode="&#x148;" 
d="M115 1081h264l8 -139q50 84 134 127t186 43q97 0 173.5 -36.5t124 -100.5t72.5 -147t25 -179v-649h-287v612q0 104 -46.5 173t-145.5 69t-160.5 -66t-61.5 -167v-621h-286v1081zM496 1235l-273 293h254l135 -127l138 127h245l-272 -293h-227z" />
    <glyph glyph-name="Eng" unicode="&#x14a;" horiz-adv-x="1499" 
d="M428 0h-295v1454h264l674 -962v962h295v-1448q0 -190 -109 -312t-299 -122q-147 0 -260 76l74 221q32 -18 70 -29q45 -10 73 -10q75 0 115.5 48.5t40.5 125.5v39l-643 920v-963z" />
    <glyph glyph-name="eng" unicode="&#x14b;" 
d="M115 1081h264l8 -139q50 84 134 127t186 43q97 0 173.5 -36.5t124 -100.5t72.5 -147t25 -179v-688q0 -166 -93.5 -272.5t-258.5 -106.5q-54 0 -107 12q-46 13 -92 37l57 222q12 -6 45 -17q24 -6 47 -6q60 0 87.5 43.5t27.5 106.5v630q0 104 -46.5 173t-145.5 69
q-98 0 -160 -67t-62 -167v-618h-286v1081z" />
    <glyph glyph-name="Ohungarumlaut" unicode="&#x150;" horiz-adv-x="1679" 
d="M86 725q0 160 56 301.5t154.5 245t240.5 163.5t305 60q160 0 300 -58t239 -159.5t155.5 -243.5t56.5 -305q0 -160 -56 -301.5t-154.5 -245t-240 -163.5t-304.5 -60q-160 0 -299.5 58.5t-239 160t-156.5 243.5t-57 304zM401 727q0 -129 51 -238.5t153 -179t235 -69.5
q132 0 233 67t153 177t52 243q0 78 -18.5 150t-55.5 133t-89 106.5t-122.5 71.5t-152.5 26q-132 0 -233.5 -67t-153.5 -177t-52 -243zM1141 1606h-269l277 272h332zM408 1606l276 272h332l-340 -272h-268z" />
    <glyph glyph-name="ohungarumlaut" unicode="&#x151;" horiz-adv-x="1277" 
d="M635 -31q-159 0 -287.5 74.5t-201 205.5t-72.5 292q0 119 43 224.5t118 182t181 120.5t227 44q159 0 287.5 -73.5t201 -203.5t72.5 -292q0 -161 -72.5 -292t-203 -206.5t-293.5 -75.5zM367 541q0 -126 74.5 -220t197.5 -94q82 0 145 45t95 116t32 153q0 127 -73.5 220
t-198.5 93q-82 0 -145 -45t-95 -115.5t-32 -152.5zM911 1235h-221l199 293h270zM311 1235l199 293h270l-248 -293h-221z" />
    <glyph glyph-name="OE" unicode="&#x152;" horiz-adv-x="2107" 
d="M86 725q0 219 100.5 385.5t275.5 255t398 88.5h1116v-260h-596v-317h531v-261h-531v-356h617v-260h-1141q-161 0 -301 49.5t-244.5 141t-164.5 229.5t-60 305zM874 1184q-215 0 -344 -120t-129 -337q0 -213 127.5 -335t345.5 -122h211v914h-211z" />
    <glyph glyph-name="oe" unicode="&#x153;" horiz-adv-x="2007" 
d="M621 -31q-153 0 -279.5 77t-197 207.5t-70.5 285.5t69.5 285.5t196.5 209t285 78.5q122 0 224.5 -51.5t174.5 -149.5q72 98 179.5 149.5t232.5 51.5q118 0 215 -45.5t160.5 -123.5t98 -181.5t34.5 -220.5v-72h-756q16 -111 81 -184.5t173 -73.5q141 0 223 135l256 -82
q-55 -138 -188.5 -216.5t-288.5 -78.5q-130 0 -238.5 51t-183.5 152q-72 -97 -176 -150t-225 -53zM629 854q-80 0 -141.5 -46.5t-91 -116.5t-29.5 -150q0 -79 29 -149t90.5 -117.5t142.5 -47.5q80 0 141.5 46.5t91 117t29.5 150.5t-28.5 149.5t-90 116.5t-143.5 47z
M1425 891q-96 0 -154 -64t-79 -165h457q-15 100 -71.5 164.5t-152.5 64.5z" />
    <glyph glyph-name="Racute" unicode="&#x154;" horiz-adv-x="1292" 
d="M133 1454h467q91 0 173.5 -15.5t157 -51t129 -88.5t86.5 -133t32 -179q0 -125 -68.5 -234.5t-181.5 -168.5l329 -584h-335l-260 504q-27 -2 -84 -2q-68 0 -144 12v-514h-301v1454zM594 1196h-160v-428q77 -12 160 -12q56 0 103.5 12t86.5 37.5t61.5 69t22.5 102.5
q0 113 -77.5 166t-196.5 53zM358 1606l283 272h360l-346 -272h-297z" />
    <glyph glyph-name="racute" unicode="&#x155;" horiz-adv-x="813" 
d="M115 1081h264l10 -163q82 178 275 178q21 0 57 -4q33 -7 51 -15l-31 -282q-31 14 -94 14q-125 0 -185.5 -75.5t-60.5 -203.5v-530h-286v1081zM252 1235l233 293h320l-283 -293h-270z" />
    <glyph glyph-name="Rcaron" unicode="&#x158;" horiz-adv-x="1292" 
d="M133 1454h467q91 0 173.5 -15.5t157 -51t129 -88.5t86.5 -133t32 -179q0 -125 -68.5 -234.5t-181.5 -168.5l329 -584h-335l-260 504q-27 -2 -84 -2q-68 0 -144 12v-514h-301v1454zM594 1196h-160v-428q77 -12 160 -12q56 0 103.5 12t86.5 37.5t61.5 69t22.5 102.5
q0 113 -77.5 166t-196.5 53zM453 1606l-301 272h290l152 -121l154 121h282l-301 -272h-276z" />
    <glyph glyph-name="rcaron" unicode="&#x159;" horiz-adv-x="813" 
d="M401 0h-286v1081h264l10 -163q82 178 275 178q21 0 57 -4q33 -7 51 -15l-31 -282q-31 14 -94 14q-125 0 -185.5 -75.5t-60.5 -203.5v-530zM61 1528h254l136 -127l137 127h246l-273 -293h-227z" />
    <glyph glyph-name="Sacute" unicode="&#x15a;" horiz-adv-x="1173" 
d="M582 -31q-122 0 -231.5 43t-191.5 131t-110 207l285 62q29 -86 95 -132.5t157 -46.5t156 47.5t65 135.5q0 34 -14 62t-34 45.5t-52 32.5t-57 22.5t-60 15.5l-66 14q-91 20 -165 51.5t-138 81.5t-99.5 124.5t-35.5 168.5q0 134 71.5 238.5t186 158.5t248.5 54
q181 0 321 -99.5t177 -273.5l-281 -61q-23 78 -84 127q-61 43 -141 43q-78 0 -136.5 -44.5t-58.5 -121.5q0 -41 20 -72.5t57 -50.5t67.5 -29.5t74.5 -19.5l66 -15q74 -16 135.5 -38t119 -57.5t97 -80.5t63 -109.5t23.5 -142.5q0 -108 -42.5 -197.5t-115.5 -149t-169 -92
t-203 -32.5zM655 1606h-297l283 272h360z" />
    <glyph glyph-name="sacute" unicode="&#x15b;" horiz-adv-x="1005" 
d="M504 -31q-102 0 -193 31.5t-163.5 101.5t-98.5 168l258 56q23 -66 76.5 -102t124.5 -36q64 0 112 28t48 87q0 96 -172 121l-58 10q-72 12 -132.5 35.5t-113 61.5t-82.5 97.5t-30 133.5q0 84 35 152t93.5 110.5t133 65t156.5 22.5q100 0 186.5 -30.5t152.5 -98.5t89 -166
l-256 -53q-47 131 -174 131q-56 0 -101 -28t-45 -81q0 -81 176 -112l58 -10q73 -13 133.5 -37t113 -62.5t82 -98t29.5 -134.5q0 -115 -64.5 -199.5t-162 -124t-211.5 -39.5zM573 1235h-270l234 293h319z" />
    <glyph glyph-name="Scedilla" unicode="&#x15e;" horiz-adv-x="1173" 
d="M492 -25q-158 19 -283.5 122t-159.5 253l285 62q29 -86 95 -132.5t157 -46.5t156 47.5t65 135.5q0 34 -14 62t-34 45.5t-52 32.5t-57 22.5t-60 15.5l-66 14q-91 20 -165 51.5t-138 81.5t-99.5 124.5t-35.5 168.5q0 134 71.5 238.5t186 158.5t248.5 54q181 0 321 -99.5
t177 -273.5l-281 -61q-23 78 -84 127q-61 43 -141 43q-78 0 -136.5 -44.5t-58.5 -121.5q0 -41 20 -72.5t57 -50.5t67.5 -29.5t74.5 -19.5l66 -15q74 -16 135.5 -38t119 -57.5t97 -80.5t63 -109.5t23.5 -142.5q0 -187 -121.5 -311.5t-312.5 -153.5l-23 -71
q63 -21 102.5 -68.5t39.5 -111.5q0 -61 -35 -111q-80 -100 -252 -100q-87 0 -178 32l30 158q28 -9 58 -16q36 -4 51 -4q42 0 68 16q24 18 24 47q0 35 -33 49q-36 19 -96 19z" />
    <glyph glyph-name="scedilla" unicode="&#x15f;" horiz-adv-x="1005" 
d="M49 270l258 56q23 -66 76.5 -102t124.5 -36q64 0 112 28t48 87q0 96 -172 121l-58 10q-72 12 -132.5 35.5t-113 61.5t-82.5 97.5t-30 133.5q0 84 35 152t93.5 110.5t133 65t156.5 22.5q100 0 186.5 -30.5t152.5 -98.5t89 -166l-256 -53q-47 131 -174 131q-56 0 -101 -28
t-45 -81q0 -81 176 -112l58 -10q73 -13 133.5 -37t113 -62.5t82 -98t29.5 -134.5q0 -145 -101.5 -241t-250.5 -116l-19 -59q64 -21 103 -66t39 -108q0 -54 -25.5 -95.5t-68 -64.5t-90.5 -34t-99 -11q-86 0 -168 31l29 151q37 -11 59 -16q36 -4 47 -4q39 0 68 16q24 18 24 47
q0 68 -129 68l52 145q-131 20 -231 97t-132 198z" />
    <glyph glyph-name="Scaron" unicode="&#x160;" horiz-adv-x="1173" 
d="M49 350l285 62q29 -86 95 -132.5t157 -46.5t156 47.5t65 135.5q0 34 -14 62t-34 45.5t-52 32.5t-57 22.5t-60 15.5l-66 14q-91 20 -165 51.5t-138 81.5t-99.5 124.5t-35.5 168.5q0 134 71.5 238.5t186 158.5t248.5 54q181 0 321 -99.5t177 -273.5l-281 -61
q-23 78 -84 127q-61 43 -141 43q-78 0 -136.5 -44.5t-58.5 -121.5q0 -41 20 -72.5t57 -50.5t67.5 -29.5t74.5 -19.5l66 -15q74 -16 135.5 -38t119 -57.5t97 -80.5t63 -109.5t23.5 -142.5q0 -108 -42.5 -197.5t-115.5 -149t-169 -92t-203 -32.5q-122 0 -231.5 43t-191.5 131
t-110 207zM453 1606l-301 272h290l152 -121l154 121h282l-301 -272h-276z" />
    <glyph glyph-name="scaron" unicode="&#x161;" horiz-adv-x="1005" 
d="M504 -31q-102 0 -193 31.5t-163.5 101.5t-98.5 168l258 56q23 -66 76.5 -102t124.5 -36q64 0 112 28t48 87q0 96 -172 121l-58 10q-72 12 -132.5 35.5t-113 61.5t-82.5 97.5t-30 133.5q0 84 35 152t93.5 110.5t133 65t156.5 22.5q100 0 186.5 -30.5t152.5 -98.5t89 -166
l-256 -53q-47 131 -174 131q-56 0 -101 -28t-45 -81q0 -81 176 -112l58 -10q73 -13 133.5 -37t113 -62.5t82 -98t29.5 -134.5q0 -115 -64.5 -199.5t-162 -124t-211.5 -39.5zM385 1235l-272 293h254l135 -127l137 127h246l-273 -293h-227z" />
    <glyph glyph-name="Tcaron" unicode="&#x164;" horiz-adv-x="1292" 
d="M84 1454h1124v-270h-409v-1184h-305v1184h-410v270zM508 1606l-301 272h291l151 -121l154 121h282l-301 -272h-276z" />
    <glyph glyph-name="tcaron" unicode="&#x165;" horiz-adv-x="897" 
d="M37 850v231h184v369h287v-369h295v-231h-295v-469q0 -162 133 -162q61 0 152 37l51 -215q-115 -72 -260 -72q-171 0 -267 100.5t-96 276.5v504h-184zM834 1214h-168l24 314h234z" />
    <glyph glyph-name="Tbar" unicode="&#x166;" horiz-adv-x="1292" 
d="M84 1184v270h1124v-270h-409v-398h252v-233h-252v-553h-305v553h-252v233h252v398h-410z" />
    <glyph glyph-name="tbar" unicode="&#x167;" horiz-adv-x="897" 
d="M37 850v231h184v369h287v-369h295v-231h-295v-188h274v-189h-274v-92q0 -162 133 -162q61 0 152 37l51 -215q-115 -72 -260 -72q-171 0 -267 100.5t-96 276.5v127h-164v189h164v188h-184z" />
    <glyph glyph-name="Utilde" unicode="&#x168;" horiz-adv-x="1478" 
d="M113 588v866h305v-852q0 -158 82 -260t239 -102q153 0 237.5 101t84.5 261v852h305v-866q0 -284 -170 -456.5t-459 -172.5q-282 0 -453 170.5t-171 458.5zM336 1610q6 56 23.5 107t48 94.5t78.5 69.5t108 26q83 0 162 -52q79 -51 118 -51q32 0 54 25q18 18 28 65h189
q-6 -57 -23 -107.5t-47 -94t-78 -69.5t-108 -26q-85 0 -164 52q-59 36 -61 37q-25 14 -58 14q-30 0 -53 -23q-20 -23 -29 -67h-188z" />
    <glyph glyph-name="utilde" unicode="&#x169;" horiz-adv-x="1212" 
d="M602 -31q-225 0 -356 141.5t-131 372.5v598h286v-604q0 -106 51.5 -178t153.5 -72t153.5 72t51.5 178v604h287v-598q0 -148 -58 -264t-171.5 -183t-266.5 -67zM248 1237q5 41 14 79t26.5 77t41.5 67t60.5 46t80.5 18q69 0 145 -47q62 -50 101 -50q52 0 67 86h179
q-6 -52 -20 -99t-39 -91t-67.5 -70t-97.5 -26q-78 0 -143 49q-7 4 -18.5 11t-20.5 12.5t-16 9.5q-22 14 -47 14q-29 0 -45.5 -26.5t-22.5 -59.5h-178z" />
    <glyph glyph-name="Umacron" unicode="&#x16a;" horiz-adv-x="1478" 
d="M113 1454h305v-852q0 -158 82 -260t239 -102q153 0 237.5 101t84.5 261v852h305v-866q0 -284 -170 -456.5t-459 -172.5q-282 0 -453 170.5t-171 458.5v866zM1112 1616h-745v205h745v-205z" />
    <glyph glyph-name="umacron" unicode="&#x16b;" horiz-adv-x="1212" 
d="M115 1081h286v-604q0 -106 51.5 -178t153.5 -72t153.5 72t51.5 178v604h287v-598q0 -148 -58 -264t-171.5 -183t-266.5 -67q-225 0 -356 141.5t-131 372.5v598zM930 1247h-651v193h651v-193z" />
    <glyph glyph-name="Uring" unicode="&#x16e;" horiz-adv-x="1478" 
d="M113 1454h305v-852q0 -158 82 -260t239 -102q153 0 237.5 101t84.5 261v852h305v-866q0 -284 -170 -456.5t-459 -172.5q-282 0 -453 170.5t-171 458.5v866zM739 1538q-97 0 -168 65.5t-71 163.5q0 97 70 163.5t169 66.5q100 0 170 -65t70 -165q0 -98 -70 -163.5
t-170 -65.5zM651 1767q0 -39 27 -63q27 -27 61 -27q35 0 62 27q26 23 26 63t-26 66q-28 25 -62 25q-33 0 -61 -25q-27 -27 -27 -66z" />
    <glyph glyph-name="uring" unicode="&#x16f;" horiz-adv-x="1212" 
d="M115 1081h286v-604q0 -106 51.5 -178t153.5 -72t153.5 72t51.5 178v604h287v-598q0 -148 -58 -264t-171.5 -183t-266.5 -67q-225 0 -356 141.5t-131 372.5v598zM371 1403q0 97 67.5 160t165.5 63q97 0 165.5 -62.5t68.5 -160.5q0 -95 -68.5 -159t-165.5 -64
q-96 0 -164.5 63.5t-68.5 159.5zM514 1403q0 -38 26 -65t64 -27t64 27t26 65t-26 65t-64 27t-64 -27t-26 -65z" />
    <glyph glyph-name="Uhungarumlaut" unicode="&#x170;" horiz-adv-x="1478" 
d="M737 -41q-282 0 -453 170.5t-171 458.5v866h305v-852q0 -158 82 -260t239 -102q153 0 237.5 101t84.5 261v852h305v-866q0 -284 -170 -456.5t-459 -172.5zM1040 1606h-268l277 272h331zM307 1606l277 272h331l-340 -272h-268z" />
    <glyph glyph-name="uhungarumlaut" unicode="&#x171;" horiz-adv-x="1212" 
d="M115 483v598h286v-604q0 -106 51.5 -178t153.5 -72t153.5 72t51.5 178v604h287v-598q0 -148 -58 -264t-171.5 -183t-266.5 -67q-225 0 -356 141.5t-131 372.5zM877 1235h-222l199 293h270zM276 1235l199 293h270l-247 -293h-222z" />
    <glyph glyph-name="Uogonek" unicode="&#x172;" horiz-adv-x="1478" 
d="M737 -41q-282 0 -453 170.5t-171 458.5v866h305v-852q0 -158 82 -260t239 -102q153 0 237.5 101t84.5 261v852h305v-866q0 -153 -57 -289.5t-172 -218.5q-168 -174 -168 -270q0 -36 22 -57t58 -21q13 0 49 4q30 8 43 14l24 -178q-103 -35 -184 -35q-102 0 -173 49
t-71 146q0 85 64 170q16 26 55 65q-52 -8 -119 -8z" />
    <glyph glyph-name="uogonek" unicode="&#x173;" horiz-adv-x="1212" 
d="M115 483v598h286v-604q0 -106 51.5 -178t153.5 -72t153.5 72t51.5 178v604h287v-598q0 -264 -168 -403q-84 -87 -127 -148q-49 -70 -49 -122q0 -38 23.5 -58t62.5 -20q15 0 47 4q30 9 39 14l24 -170q-84 -37 -176 -37q-47 0 -89.5 10.5t-77.5 32.5t-56 60t-21 88
q0 114 123 237q-16 -2 -51 -2q-225 0 -356 141.5t-131 372.5z" />
    <glyph glyph-name="Wcircumflex" unicode="&#x174;" horiz-adv-x="2138" 
d="M59 1454h320l266 -1051l289 1051h280l289 -1051l264 1051h312l-428 -1454h-295l-285 1042l-285 -1042h-299zM913 1606h-282l301 272h276l301 -272h-290l-152 120z" />
    <glyph glyph-name="wcircumflex" unicode="&#x175;" horiz-adv-x="1720" 
d="M381 0l-358 1081h294l203 -731l219 731h248l219 -733l207 733h285l-359 -1081h-264l-217 731l-217 -731h-260zM721 1235h-246l273 293h227l272 -293h-254l-135 127z" />
    <glyph glyph-name="Ycircumflex" unicode="&#x176;" horiz-adv-x="1366" 
d="M23 1454h339l326 -612l324 612h331l-507 -889v-565h-306v565zM526 1606h-282l301 272h276l301 -272h-291l-151 120z" />
    <glyph glyph-name="ycircumflex" unicode="&#x177;" horiz-adv-x="1148" 
d="M23 1081h313l256 -766l231 766h303l-444 -1183q-58 -152 -148.5 -234t-238.5 -82q-50 0 -105 10q-44 11 -92 37l56 226q24 -10 53 -19q30 -6 57 -6q57 0 105 31q46 36 71 102l19 47zM188 1235l273 293h227l273 -293h-254l-136 127l-137 -127h-246z" />
    <glyph glyph-name="Ydieresis" unicode="&#x178;" horiz-adv-x="1366" 
d="M530 565l-507 889h339l326 -612l324 612h331l-507 -889v-565h-306v565zM434 1583q-64 0 -112 46t-48 110t47.5 109.5t112.5 45.5q67 0 113.5 -44t46.5 -111q0 -66 -47 -111t-113 -45zM770 1739q0 64 47.5 109.5t112.5 45.5q67 0 113.5 -44t46.5 -111q0 -66 -47 -111
t-113 -45q-64 0 -112 46t-48 110z" />
    <glyph glyph-name="Zacute" unicode="&#x179;" horiz-adv-x="1310" 
d="M76 0v217l739 979h-709v258h1090v-217l-739 -979h784v-258h-1165zM420 1606l282 272h361l-346 -272h-297z" />
    <glyph glyph-name="zacute" unicode="&#x17a;" horiz-adv-x="1075" 
d="M80 0v190l524 660h-510v231h867v-190l-527 -660h561v-231h-915zM332 1235l233 293h320l-283 -293h-270z" />
    <glyph glyph-name="Zdotaccent" unicode="&#x17b;" horiz-adv-x="1310" 
d="M76 217l739 979h-709v258h1090v-217l-739 -979h784v-258h-1165v217zM651 1583q-71 0 -120.5 48.5t-49.5 119.5t49 119.5t121 48.5q71 0 120.5 -48.5t49.5 -119.5t-49 -119.5t-121 -48.5z" />
    <glyph glyph-name="zdotaccent" unicode="&#x17c;" horiz-adv-x="1075" 
d="M995 0h-915v190l524 660h-510v231h867v-190l-527 -660h561v-231zM362 1374q0 69 47 116.5t117 47.5q71 0 117.5 -46t46.5 -118q0 -69 -47 -116.5t-117 -47.5q-68 0 -116 47.5t-48 116.5z" />
    <glyph glyph-name="Zcaron" unicode="&#x17d;" horiz-adv-x="1310" 
d="M76 0v217l739 979h-709v258h1090v-217l-739 -979h784v-258h-1165zM213 1878h291l151 -121l154 121h283l-301 -272h-277z" />
    <glyph glyph-name="zcaron" unicode="&#x17e;" horiz-adv-x="1075" 
d="M80 0v190l524 660h-510v231h867v-190l-527 -660h561v-231h-915zM414 1235l-273 293h254l135 -127l138 127h245l-272 -293h-227z" />
    <glyph glyph-name="uni0218" unicode="&#x218;" horiz-adv-x="1173" 
d="M582 -31q-122 0 -231.5 43t-191.5 131t-110 207l285 62q29 -86 95 -132.5t157 -46.5t156 47.5t65 135.5q0 34 -14 62t-34 45.5t-52 32.5t-57 22.5t-60 15.5l-66 14q-91 20 -165 51.5t-138 81.5t-99.5 124.5t-35.5 168.5q0 134 71.5 238.5t186 158.5t248.5 54
q181 0 321 -99.5t177 -273.5l-281 -61q-23 78 -84 127q-61 43 -141 43q-78 0 -136.5 -44.5t-58.5 -121.5q0 -41 20 -72.5t57 -50.5t67.5 -29.5t74.5 -19.5l66 -15q74 -16 135.5 -38t119 -57.5t97 -80.5t63 -109.5t23.5 -142.5q0 -108 -42.5 -197.5t-115.5 -149t-169 -92
t-203 -32.5zM428 -248q0 56 42 89.5t99 33.5q47 0 86 -25q80 -48 80 -151q0 -98 -62.5 -167.5t-162.5 -100.5l-47 116q97 37 117 101q-13 -8 -39 -8q-47 0 -80 32.5t-33 79.5z" />
    <glyph glyph-name="uni0219" unicode="&#x219;" horiz-adv-x="1005" 
d="M504 -31q-102 0 -193 31.5t-163.5 101.5t-98.5 168l258 56q23 -66 76.5 -102t124.5 -36q64 0 112 28t48 87q0 96 -172 121l-58 10q-72 12 -132.5 35.5t-113 61.5t-82.5 97.5t-30 133.5q0 84 35 152t93.5 110.5t133 65t156.5 22.5q100 0 186.5 -30.5t152.5 -98.5t89 -166
l-256 -53q-47 131 -174 131q-56 0 -101 -28t-45 -81q0 -81 176 -112l58 -10q73 -13 133.5 -37t113 -62.5t82 -98t29.5 -134.5q0 -115 -64.5 -199.5t-162 -124t-211.5 -39.5zM465 -338q-47 0 -78 32t-31 79q0 53 40.5 85.5t95.5 32.5q72 0 116.5 -50t44.5 -124
q0 -95 -60 -163t-157 -101l-47 117q43 15 74 43q31 31 39 57q-13 -8 -37 -8z" />
    <glyph glyph-name="uni021A" unicode="&#x21a;" horiz-adv-x="1292" 
d="M84 1454h1124v-270h-409v-1184h-305v1184h-410v270zM492 -248q0 56 42 89.5t99 33.5q47 0 86 -25q80 -48 80 -151q0 -98 -63 -167.5t-163 -100.5l-47 116q97 37 117 101q-13 -8 -39 -8q-47 0 -79.5 32.5t-32.5 79.5z" />
    <glyph glyph-name="uni021B" unicode="&#x21b;" horiz-adv-x="897" 
d="M37 850v231h184v369h287v-369h295v-231h-295v-469q0 -162 133 -162q61 0 152 37l51 -215q-115 -72 -260 -72q-171 0 -267 100.5t-96 276.5v504h-184zM475 -338q-47 0 -77.5 31.5t-30.5 79.5q0 53 40 85.5t95 32.5q72 0 117 -50t45 -124q0 -95 -60.5 -163t-157.5 -101
l-47 117q43 15 74 43q31 31 39 57q-13 -8 -37 -8z" />
    <glyph glyph-name="uni0237" unicode="&#x237;" horiz-adv-x="526" 
d="M-150 -367l58 222q40 -17 45 -19q27 -6 49 -6q65 0 94 41t29 109v1101h287v-1120q0 -167 -96.5 -273t-264.5 -106q-53 0 -106 12q-50 14 -95 39z" />
    <glyph glyph-name="circumflex" unicode="&#x2c6;" 
d="M221 1235l273 293h227l272 -293h-254l-135 127l-137 -127h-246z" />
    <glyph glyph-name="caron" unicode="&#x2c7;" 
d="M221 1528h254l135 -127l138 127h245l-272 -293h-227z" />
    <glyph glyph-name="uni02C9" unicode="&#x2c9;" 
d="M283 1247v193h651v-193h-651z" />
    <glyph glyph-name="uni02CB" unicode="&#x2cb;" 
d="M614 1235l-282 293h319l234 -293h-271z" />
    <glyph glyph-name="breve" unicode="&#x2d8;" 
d="M608 1231q-136 0 -232 74t-120 208h213q25 -112 139 -112q109 0 140 112h213q-24 -133 -119.5 -207.5t-233.5 -74.5z" />
    <glyph glyph-name="dotaccent" unicode="&#x2d9;" 
d="M444 1374q0 69 47 116.5t117 47.5q71 0 117.5 -46t46.5 -118q0 -69 -47 -116.5t-117 -47.5q-68 0 -116 47.5t-48 116.5z" />
    <glyph glyph-name="ring" unicode="&#x2da;" 
d="M375 1403q0 97 67.5 160t165.5 63q97 0 165.5 -62.5t68.5 -160.5q0 -95 -68.5 -159t-165.5 -64q-96 0 -164.5 63.5t-68.5 159.5zM518 1403q0 -38 26 -65t64 -27t64 27t26 65t-26 65t-64 27t-64 -27t-26 -65z" />
    <glyph glyph-name="ogonek" unicode="&#x2db;" 
d="M635 -457q-61 0 -113 17.5t-88.5 61t-36.5 106.5q0 48 24 96.5t66.5 91.5t79 72.5t84.5 62.5l148 -51q-98 -73 -135 -121q-43 -49 -43 -84q0 -28 22 -47q22 -16 55 -16q16 0 52 4q31 7 43 14l24 -170q-84 -37 -182 -37z" />
    <glyph glyph-name="tilde" unicode="&#x2dc;" 
d="M250 1237q5 41 14 79t26.5 77t41.5 67t60.5 46t80.5 18q69 0 145 -47q63 -50 101 -50q52 0 67 86h179q-6 -52 -20 -99t-39 -91t-67.5 -70t-97.5 -26q-78 0 -143 49q-7 4 -18.5 11t-20.5 12.5t-16 9.5q-22 14 -47 14q-29 0 -45.5 -26.5t-22.5 -59.5h-178z" />
    <glyph glyph-name="hungarumlaut" unicode="&#x2dd;" 
d="M784 1235h-221l199 293h270zM406 1235h-222l199 293h270z" />
    <glyph glyph-name="gravecomb" unicode="&#x300;" horiz-adv-x="0" 
d="M-76 1235l-282 293h319l234 -293h-271z" />
    <glyph glyph-name="acutecomb" unicode="&#x301;" horiz-adv-x="0" 
d="M-195 1235l234 293h319l-282 -293h-271z" />
    <glyph glyph-name="uni0302" unicode="&#x302;" horiz-adv-x="0" 
d="M-385 1235l272 293h228l272 -293h-254l-135 127l-137 -127h-246z" />
    <glyph glyph-name="tildecomb" unicode="&#x303;" horiz-adv-x="0" 
d="M-356 1237q5 41 14 79t26.5 77t41.5 67t60.5 46t80.5 18q69 0 145 -47q62 -50 101 -50q52 0 67 86h178q-6 -53 -20 -99.5t-38.5 -90.5t-67 -70t-97.5 -26q-77 0 -145 49q-11 7 -31.5 19.5t-21.5 13.5q-22 14 -48 14q-52 0 -67 -86h-178z" />
    <glyph glyph-name="uni0304" unicode="&#x304;" horiz-adv-x="0" 
d="M-326 1247v193h652v-193h-652z" />
    <glyph glyph-name="uni0306" unicode="&#x306;" horiz-adv-x="0" 
d="M0 1231q-137 0 -232.5 73.5t-119.5 208.5h213q25 -112 139 -112q108 0 139 112h213q-24 -133 -119 -207.5t-233 -74.5z" />
    <glyph glyph-name="uni0307" unicode="&#x307;" horiz-adv-x="0" 
d="M-164 1374q0 71 46 117.5t118 46.5q71 0 117.5 -46t46.5 -118q0 -69 -47 -116.5t-117 -47.5q-69 0 -116.5 47t-47.5 117z" />
    <glyph glyph-name="uni0308" unicode="&#x308;" horiz-adv-x="0" 
d="M141 1249q-35 19 -55 53t-20 74q0 80 75 129q36 19 78 19t78 -19q76 -50 76 -129q0 -40 -20.5 -74t-55.5 -53q-33 -20 -78 -20t-78 20zM-297 1249q-35 19 -55.5 53t-20.5 74q0 79 76 129q36 19 78 19t78 -19q75 -49 75 -129q0 -40 -20 -74t-55 -53q-33 -20 -78 -20
t-78 20z" />
    <glyph glyph-name="uni030A" unicode="&#x30a;" horiz-adv-x="0" 
d="M-233 1403q0 97 67.5 160t165.5 63q97 0 165 -62.5t68 -160.5q0 -95 -68 -159t-165 -64q-96 0 -164.5 63.5t-68.5 159.5zM-90 1403q0 -38 26 -65t64 -27t64 27t26 65t-26 65t-64 27t-64 -27t-26 -65z" />
    <glyph glyph-name="uni030B" unicode="&#x30b;" horiz-adv-x="0" 
d="M272 1235h-221l199 293h270zM-106 1235h-222l199 293h270z" />
    <glyph glyph-name="uni030C" unicode="&#x30c;" horiz-adv-x="0" 
d="M-385 1528h254l135 -127l137 127h246l-272 -293h-228z" />
    <glyph glyph-name="uni0312" unicode="&#x312;" horiz-adv-x="0" 
d="M14 1190q-72 0 -116.5 50t-44.5 124q0 95 60 163t157 101l47 -117q-44 -15 -72 -43q-33 -29 -41 -57q13 8 37 8q43 0 78 -30q31 -36 31 -80q0 -55 -40 -87t-96 -32z" />
    <glyph glyph-name="uni0315" unicode="&#x315;" horiz-adv-x="0" 
d="M137 1135l31 393h233l-96 -393h-168z" />
    <glyph glyph-name="dotbelowcomb" unicode="&#x323;" horiz-adv-x="0" 
d="M-164 -299q0 69 47 116.5t117 47.5q69 0 116.5 -47.5t47.5 -116.5q0 -71 -46 -117.5t-118 -46.5q-71 0 -117.5 46t-46.5 118z" />
    <glyph glyph-name="uni0326" unicode="&#x326;" horiz-adv-x="0" 
d="M-39 -338q-47 0 -77.5 31.5t-30.5 79.5q0 53 40 85.5t95 32.5q72 0 117 -50t45 -124q0 -95 -60.5 -163t-157.5 -101l-47 117q44 15 72 43q33 29 41 57q-13 -8 -37 -8z" />
    <glyph glyph-name="uni0327" unicode="&#x327;" horiz-adv-x="0" 
d="M-74 -463q-86 0 -168 31l29 151q43 -13 57 -16q36 -4 50 -4q35 0 63.5 15.5t28.5 47.5q0 68 -129 68l67 193h178l-34 -107q63 -21 102 -66t39 -108q0 -54 -25.5 -95.5t-68 -64.5t-90.5 -34t-99 -11z" />
    <glyph glyph-name="uni0328" unicode="&#x328;" horiz-adv-x="0" 
d="M-164 -457q-46 0 -87 10.5t-75.5 31.5t-54.5 57.5t-20 85.5q0 48 24 96.5t66.5 91.5t79 72.5t84.5 62.5l147 -51q-178 -134 -178 -205q0 -30 20 -47q22 -16 58 -16q15 0 51 4q31 7 43 14l24 -170q-84 -37 -182 -37z" />
    <glyph glyph-name="uni0E3F" unicode="&#xe3f;" 
d="M127 1413h360v256h207v-260q81 -8 149.5 -32.5t124 -67t87.5 -109.5t32 -151q0 -94 -41 -172.5t-120 -122.5q111 -41 167 -134t56 -217q0 -94 -37 -169t-101.5 -122t-144.5 -74.5t-172 -35.5v-289h-207v287h-360v1413zM403 242h228q101 0 166 44t65 140q0 91 -59 141
q-62 47 -172 47h-228v-372zM602 1171h-199v-325h199q87 0 144 38.5t57 121.5q0 85 -56 125t-145 40z" />
    <glyph glyph-name="uni1E24" unicode="&#x1e24;" horiz-adv-x="1519" 
d="M133 1454h305v-567h643v567h305v-1454h-305v616h-643v-616h-305v1454zM590 -313q0 70 49.5 119t120.5 49t120.5 -48.5t49.5 -119.5q0 -72 -49 -120t-121 -48q-71 0 -120.5 48.5t-49.5 119.5z" />
    <glyph glyph-name="uni1E25" unicode="&#x1e25;" 
d="M115 0v1528h286v-565q103 149 306 149q97 0 173.5 -36.5t124 -100.5t72.5 -147t25 -179v-649h-287v612q0 104 -46.5 173t-145.5 69t-160.5 -66t-61.5 -167v-621h-286zM608 -463q-69 0 -116.5 47t-47.5 117q0 67 48 115.5t116 48.5q69 0 116.5 -47.5t47.5 -116.5
q0 -71 -46 -117.5t-118 -46.5z" />
    <glyph glyph-name="uni1E36" unicode="&#x1e36;" horiz-adv-x="1114" 
d="M133 1454h305v-1184h594v-270h-899v1454zM412 -313q0 70 49.5 119t120.5 49t120.5 -48.5t49.5 -119.5q0 -72 -49 -120t-121 -48q-71 0 -120.5 48.5t-49.5 119.5z" />
    <glyph glyph-name="uni1E37" unicode="&#x1e37;" horiz-adv-x="516" 
d="M401 0h-286v1528h286v-1528zM256 -463q-69 0 -116.5 47t-47.5 117q0 67 48 115.5t116 48.5q69 0 116.5 -47.5t47.5 -116.5q0 -71 -46 -117.5t-118 -46.5z" />
    <glyph glyph-name="Wgrave" unicode="&#x1e80;" horiz-adv-x="2138" 
d="M487 0l-428 1454h320l266 -1051l289 1051h280l289 -1051l264 1051h312l-428 -1454h-295l-285 1042l-285 -1042h-299zM657 1878h361l282 -272h-296z" />
    <glyph glyph-name="wgrave" unicode="&#x1e81;" horiz-adv-x="1720" 
d="M381 0l-358 1081h294l203 -731l219 731h248l219 -733l207 733h285l-359 -1081h-264l-217 731l-217 -731h-260zM502 1528h319l234 -293h-271z" />
    <glyph glyph-name="Wacute" unicode="&#x1e82;" horiz-adv-x="2138" 
d="M59 1454h320l266 -1051l289 1051h280l289 -1051l264 1051h312l-428 -1454h-295l-285 1042l-285 -1042h-299zM1135 1606h-297l282 272h361z" />
    <glyph glyph-name="wacute" unicode="&#x1e83;" horiz-adv-x="1720" 
d="M381 0l-358 1081h294l203 -731l219 731h248l219 -733l207 733h285l-359 -1081h-264l-217 731l-217 -731h-260zM936 1235h-270l233 293h320z" />
    <glyph glyph-name="Wdieresis" unicode="&#x1e84;" horiz-adv-x="2138" 
d="M59 1454h320l266 -1051l289 1051h280l289 -1051l264 1051h312l-428 -1454h-295l-285 1042l-285 -1042h-299zM1157 1739q0 64 47.5 109.5t112.5 45.5q67 0 113.5 -44t46.5 -111q0 -66 -47 -111t-113 -45q-64 0 -112 46t-48 110zM821 1583q-64 0 -111.5 46t-47.5 110
t47 109.5t112 45.5q67 0 113.5 -44t46.5 -111q0 -66 -47 -111t-113 -45z" />
    <glyph glyph-name="wdieresis" unicode="&#x1e85;" horiz-adv-x="1720" 
d="M381 0l-358 1081h294l203 -731l219 731h248l219 -733l207 733h285l-359 -1081h-264l-217 731l-217 -731h-260zM1001 1249q-35 19 -55 53t-20 74q0 80 75 129q36 19 78 19t78 -19q76 -50 76 -129q0 -40 -20.5 -74t-55.5 -53q-33 -20 -78 -20t-78 20zM563 1249
q-35 19 -55.5 53t-20.5 74q0 79 76 129q36 19 78 19t78 -19q76 -50 76 -129q0 -40 -20.5 -74t-55.5 -53q-33 -20 -78 -20t-78 20z" />
    <glyph glyph-name="Germandbls" unicode="&#x1e9e;" horiz-adv-x="1349" 
d="M119 0v866q0 177 66 315.5t199 221t316 82.5q166 0 316.5 -73t238.5 -206l-254 -350q136 -42 215.5 -156.5t79.5 -259.5q0 -136 -67.5 -244.5t-181.5 -167.5t-252 -59q-134 0 -252 56l53 249q44 -19 80 -26q44 -12 84 -12q94 0 158.5 59t64.5 154q0 45 -15 81t-40 60
t-59.5 40.5t-72 24.5t-79.5 9l-25 180l219 299q-87 74 -200 74q-93 0 -159.5 -48t-97 -123.5t-30.5 -168.5v-877h-305z" />
    <glyph glyph-name="Ygrave" unicode="&#x1ef2;" horiz-adv-x="1366" 
d="M530 565l-507 889h339l326 -612l324 612h331l-507 -889v-565h-306v565zM616 1606l-346 272h361l282 -272h-297z" />
    <glyph glyph-name="ygrave" unicode="&#x1ef3;" horiz-adv-x="1148" 
d="M23 1081h313l256 -766l231 766h303l-444 -1183q-58 -152 -148.5 -234t-238.5 -82q-50 0 -105 10q-44 11 -92 37l56 226q24 -10 53 -19q30 -6 57 -6q57 0 105 31q46 36 71 102l19 47zM215 1528h320l233 -293h-270z" />
    <glyph glyph-name="uni2000" unicode="&#x2000;" horiz-adv-x="1024" 
 />
    <glyph glyph-name="uni2001" unicode="&#x2001;" horiz-adv-x="2048" 
 />
    <glyph glyph-name="uni2002" unicode="&#x2002;" horiz-adv-x="1024" 
 />
    <glyph glyph-name="uni2003" unicode="&#x2003;" horiz-adv-x="2048" 
 />
    <glyph glyph-name="uni2004" unicode="&#x2004;" horiz-adv-x="681" 
 />
    <glyph glyph-name="uni2005" unicode="&#x2005;" horiz-adv-x="512" 
 />
    <glyph glyph-name="uni2006" unicode="&#x2006;" horiz-adv-x="339" 
 />
    <glyph glyph-name="uni2007" unicode="&#x2007;" 
 />
    <glyph glyph-name="uni2008" unicode="&#x2008;" horiz-adv-x="552" 
 />
    <glyph glyph-name="uni2009" unicode="&#x2009;" horiz-adv-x="409" 
 />
    <glyph glyph-name="uni200A" unicode="&#x200a;" horiz-adv-x="129" 
 />
    <glyph glyph-name="uni200B" unicode="&#x200b;" horiz-adv-x="0" 
 />
    <glyph glyph-name="endash" unicode="&#x2013;" horiz-adv-x="1024" 
d="M0 457v213h1024v-213h-1024z" />
    <glyph glyph-name="emdash" unicode="&#x2014;" horiz-adv-x="2048" 
d="M0 457v213h2048v-213h-2048z" />
    <glyph glyph-name="quoteleft" unicode="&#x2018;" horiz-adv-x="509" 
d="M68 1108q0 136 85.5 234.5t221.5 134.5l49 -148q-75 -21 -128.5 -70.5t-53.5 -119.5q0 -17 2 -23q20 14 51 14q76 0 117 -67q16 -32 16 -70q0 -60 -46.5 -100.5t-107.5 -40.5q-62 0 -110.5 39.5t-72 97t-23.5 119.5z" />
    <glyph glyph-name="quoteright" unicode="&#x2019;" horiz-adv-x="509" 
d="M100 1251q-18 30 -18 70q0 74 76 123q34 18 78 18q95 0 150.5 -77.5t55.5 -178.5q0 -136 -85 -234.5t-222 -133.5l-49 147q73 21 127.5 71.5t54.5 119.5q0 16 -2 22q-20 -14 -51 -14q-37 0 -68.5 18t-46.5 49z" />
    <glyph glyph-name="quotesinglbase" unicode="&#x201a;" horiz-adv-x="512" 
d="M117 113q-19 32 -19 69q0 74 76 123q36 19 78 19q95 0 151 -78t56 -178q0 -136 -85 -235t-222 -134l-50 147q51 15 97 43q86 68 86 148q0 16 -2 22q-20 -14 -52 -14q-36 0 -67.5 18t-46.5 50z" />
    <glyph glyph-name="quotedblleft" unicode="&#x201c;" horiz-adv-x="954" 
d="M274 852q-62 0 -110.5 39.5t-72 97t-23.5 119.5q0 136 85.5 234.5t221.5 134.5l49 -148q-75 -21 -128.5 -70.5t-53.5 -119.5q0 -17 2 -23q20 14 51 14q76 0 117 -67q16 -32 16 -70q0 -60 -46.5 -100.5t-107.5 -40.5zM719 852q-62 0 -111 39.5t-72.5 97.5t-23.5 119
q0 136 85.5 234.5t221.5 134.5l49 -148q-75 -21 -128.5 -70.5t-53.5 -119.5q0 -17 2 -23q20 14 51 14q76 0 117 -67q16 -32 16 -70q0 -60 -46.5 -100.5t-106.5 -40.5z" />
    <glyph glyph-name="quotedblright" unicode="&#x201d;" horiz-adv-x="954" 
d="M545 1251q-19 32 -19 70q0 74 76 123q34 18 78 18q95 0 151 -78t56 -178q0 -136 -85 -234.5t-222 -133.5l-50 147q74 21 128.5 71.5t54.5 119.5q0 16 -2 22q-20 -14 -52 -14q-36 0 -67.5 18t-46.5 49zM82 1321q0 74 76 123q34 18 78 18q95 0 150.5 -77.5t55.5 -178.5
q0 -136 -85 -234.5t-222 -133.5l-49 147q73 21 127.5 71.5t54.5 119.5q0 16 -2 22q-20 -14 -51 -14q-37 0 -68.5 18t-46.5 49q-18 30 -18 70z" />
    <glyph glyph-name="quotedblbase" unicode="&#x201e;" horiz-adv-x="958" 
d="M98 182q0 74 76 123q36 19 78 19q95 0 151 -78t56 -178q0 -136 -85 -235t-222 -134l-50 147q51 15 97 43q86 68 86 148q0 16 -2 22q-20 -14 -52 -14q-36 0 -67.5 18t-46.5 50q-19 32 -19 69zM563 113q-18 30 -18 69q0 74 76 123q36 19 77 19q95 0 151 -78t56 -178
q0 -136 -85 -235t-222 -134l-49 147q50 14 96 43q86 68 86 148q0 16 -2 22q-20 -14 -51 -14q-36 0 -68 18.5t-47 49.5z" />
    <glyph glyph-name="dagger" unicode="&#x2020;" horiz-adv-x="983" 
d="M61 1106h299v348h263v-348h299v-229h-299v-1045h-263v1045h-299v229z" />
    <glyph glyph-name="daggerdbl" unicode="&#x2021;" horiz-adv-x="1064" 
d="M102 420h299v457h-299v229h299v348h263v-348h299v-229h-299v-457h299v-230h-299v-358h-263v358h-299v230z" />
    <glyph glyph-name="bullet" unicode="&#x2022;" horiz-adv-x="643" 
d="M86 565q0 97 69 166.5t167 69.5t166.5 -68.5t68.5 -167.5q0 -97 -68.5 -166t-166.5 -69q-97 0 -166.5 68.5t-69.5 166.5z" />
    <glyph glyph-name="ellipsis" unicode="&#x2026;" horiz-adv-x="1658" 
d="M649 172q0 74 53.5 127t126.5 53q74 0 127.5 -52.5t53.5 -127.5q0 -74 -53 -127t-128 -53q-73 0 -126.5 53t-53.5 127zM276 -8q-74 0 -127 53t-53 127t53 127t127 53t127.5 -52.5t53.5 -127.5q0 -74 -53 -127t-128 -53zM1382 -8q-74 0 -127 53t-53 127t53 127t127 53
t127.5 -52.5t53.5 -127.5q0 -74 -53 -127t-128 -53z" />
    <glyph glyph-name="perthousand" unicode="&#x2030;" horiz-adv-x="2299" 
d="M393 788q-137 0 -231 91t-94 229q0 139 95 231.5t236 92.5q138 0 233 -91.5t95 -230.5q0 -138 -96.5 -230t-237.5 -92zM1149 -18q-137 0 -231.5 90.5t-94.5 228.5q0 139 95.5 231.5t236.5 92.5q138 0 233 -91.5t95 -230.5q0 -138 -96.5 -229.5t-237.5 -91.5zM1573 301
q0 139 95.5 231.5t236.5 92.5q138 0 232.5 -91.5t94.5 -230.5q0 -138 -96.5 -229.5t-237.5 -91.5q-137 0 -231 90.5t-94 228.5zM446 0h-229l885 1413h229zM1786 303q0 -54 32.5 -94.5t84.5 -40.5q54 0 85 39.5t31 95.5t-31 95.5t-85 39.5q-52 0 -84.5 -40.5t-32.5 -94.5z
M1036 303q0 -54 32.5 -94.5t84.5 -40.5q54 0 85.5 39.5t31.5 95.5t-31.5 95.5t-85.5 39.5q-52 0 -84.5 -40.5t-32.5 -94.5zM281 1110q0 -54 32 -94.5t84 -40.5q54 0 85.5 39.5t31.5 95.5t-31.5 95.5t-85.5 39.5q-52 0 -84 -40.5t-32 -94.5z" />
    <glyph glyph-name="guilsinglleft" unicode="&#x2039;" horiz-adv-x="636" 
d="M315 190l-274 394l274 393h250l-266 -393l266 -394h-250z" />
    <glyph glyph-name="guilsinglright" unicode="&#x203a;" horiz-adv-x="636" 
d="M72 190l266 394l-266 393h250l274 -393l-274 -394h-250z" />
    <glyph glyph-name="fraction" unicode="&#x2044;" horiz-adv-x="188" 
d="M-463 0l897 1413h217l-897 -1413h-217z" />
    <glyph glyph-name="uni2080" unicode="&#x2080;" horiz-adv-x="735" 
d="M362 -18q-65 0 -118 23t-88 62t-58.5 91.5t-34 109.5t-10.5 119q0 78 17.5 148.5t53.5 130.5t99.5 95.5t147.5 35.5q82 0 143.5 -34.5t96.5 -93.5t52 -129t17 -149q0 -78 -17.5 -148.5t-53.5 -130t-99.5 -95t-147.5 -35.5zM256 389q0 -227 111 -227q110 0 110 227
t-110 227q-111 0 -111 -227z" />
    <glyph glyph-name="uni2081" unicode="&#x2081;" horiz-adv-x="735" 
d="M322 0v571l-158 -84l-60 162l242 129h176v-778h-200z" />
    <glyph glyph-name="uni2082" unicode="&#x2082;" horiz-adv-x="735" 
d="M76 561q18 106 102 171t193 65q114 0 194 -69.5t80 -182.5q0 -57 -24.5 -112t-69 -103.5t-86 -83t-94.5 -72.5h288v-174h-573v141q19 14 74 60q14 11 40.5 32t39.5 33q202 171 202 269q0 38 -23 62t-61 24q-40 0 -65 -24.5t-33 -64.5z" />
    <glyph glyph-name="uni2083" unicode="&#x2083;" horiz-adv-x="735" 
d="M356 -18q-110 0 -192.5 57.5t-106.5 161.5l181 28q9 -34 42 -54.5t70 -20.5q42 0 72.5 22t30.5 62q0 37 -30 57t-69 20h-80v164h66q40 0 69 19t29 57q0 30 -24 51q-28 19 -64 19q-75 0 -96 -70l-182 31q22 101 102.5 156t187.5 55q70 0 130 -21.5t101.5 -73t41.5 -124.5
q0 -112 -111 -172q62 -25 96.5 -72.5t34.5 -112.5q0 -112 -90.5 -175.5t-208.5 -63.5z" />
    <glyph glyph-name="uni2084" unicode="&#x2084;" horiz-adv-x="735" 
d="M39 147v156l317 475h230v-471h80v-160h-80v-147h-197v147h-350zM223 307h166v248z" />
    <glyph glyph-name="colonmonetary" unicode="&#x20a1;" 
d="M84 688q0 98 15 192t50.5 187.5t88.5 166.5t136 125.5t187 67.5l41 242h139l-39 -237q51 -6 97 -21l43 258h139l-53 -321q148 -101 207 -330l-271 -47q-52 194 -227 194q-54 0 -97.5 -22t-70.5 -61.5t-46 -84.5t-28 -101t-12.5 -101t-3.5 -93q0 -57 4.5 -110.5
t20.5 -118.5t42 -112.5t73 -80t110 -32.5q88 0 147.5 53t83.5 141l283 -47q-39 -171 -155.5 -282t-289.5 -129l-45 -271h-139l45 271q-53 6 -96 20l-49 -291h-140l60 355q-70 49 -121 121.5t-78 157.5t-39 168.5t-12 172.5z" />
    <glyph glyph-name="uni20A8" unicode="&#x20a8;" horiz-adv-x="2207" 
d="M416 0h-287v1413h436q88 0 166.5 -16t148.5 -51.5t120.5 -87.5t80 -129t29.5 -171q0 -123 -62 -226t-171 -165l313 -567h-322l-245 487q-54 -4 -78 -4q-39 0 -129 11v-494zM1690 -31q-158 0 -284.5 77.5t-170.5 223.5l254 56q21 -64 77.5 -101t125.5 -37q64 0 112.5 28
t48.5 87q0 31 -16 54t-45 36.5t-53.5 20t-57.5 12.5l-57 10q-71 12 -131.5 35.5t-113.5 61.5t-83 96.5t-30 132.5q0 67 22.5 124.5t62 98.5t92.5 70t114 43t126 14q152 0 273 -76.5t155 -218.5l-251 -53q-22 61 -68 96t-109 35q-55 0 -101 -28.5t-46 -80.5q0 -24 13 -43
t30 -30.5t44.5 -20.5t45 -12.5t43.5 -7.5l57 -10q72 -12 133 -36t113.5 -62.5t82.5 -98t30 -133.5q0 -115 -64.5 -199.5t-162 -124t-211.5 -39.5zM565 1159h-149v-411q76 -13 145 -13q113 0 185.5 53t72.5 162q0 107 -71 158t-183 51z" />
    <glyph glyph-name="uni20A9" unicode="&#x20a9;" horiz-adv-x="1949" 
d="M281 733h-224v172h179l-136 508h306l219 -1034l227 1034h258l227 -1030l219 1030h293l-135 -508h178v-172h-223l-37 -141h260v-172h-307l-110 -420h-289l-209 942l-209 -942h-293l-110 420h-308v172h260z" />
    <glyph glyph-name="uni20AA" unicode="&#x20aa;" horiz-adv-x="1896" 
d="M154 0v1413h632q243 0 377.5 -142.5t134.5 -391.5v-433h-249v422q0 129 -72.5 199t-202.5 70h-371v-1137h-249zM1231 0h-633v958h250v-679h371q133 0 203.5 68t70.5 200v866h250v-878q0 -241 -134 -388t-378 -147z" />
    <glyph glyph-name="dong" unicode="&#x20ab;" 
d="M483 -31q-101 0 -188 44t-144.5 117t-89.5 166.5t-32 192.5q0 103 32.5 198.5t91.5 170t149.5 119.5t197.5 45q180 0 284 -137v223h-260v178h260v127h287v-127h129v-178h-129v-1108h-264l-8 139q-54 -83 -135.5 -126.5t-180.5 -43.5zM553 772q-107 0 -170.5 -82.5
t-63.5 -193.5q0 -70 26 -132t80.5 -103.5t127.5 -41.5q107 0 170 83t63 194q0 112 -62 194t-171 82zM43 -324v179h1090v-179h-1090z" />
    <glyph glyph-name="Euro" unicode="&#x20ac;" 
d="M141 766h-153l39 162h135q21 108 62.5 199t105.5 163t157 113t207 41q181 0 307.5 -100t167.5 -279l-272 -49q-24 79 -77 124.5t-132 45.5q-183 0 -242 -258h402l-39 -162h-381q-2 -23 -2 -70q0 -43 2 -61h354l-39 -162h-297q52 -246 240 -246q81 0 138 45.5t81 124.5
l273 -49q-41 -176 -175 -277.5t-319 -101.5q-114 0 -206.5 37.5t-157 106t-105.5 159t-59 201.5h-168l39 162h112v51q0 53 2 80z" />
    <glyph glyph-name="uni20AD" unicode="&#x20ad;" 
d="M4 633v215h148v565h288v-612l402 612h323l-411 -565h331v-215h-315l469 -633h-360l-439 674v-674h-288v633h-148z" />
    <glyph glyph-name="uni20B1" unicode="&#x20b1;" 
d="M25 858h163v141h-163v172h163v242h375q148 0 269 -59.5t184 -182.5h184v-172h-133q4 -46 4 -71q0 -24 -4 -70h133v-172h-186q-65 -120 -184 -182t-263 -62q-33 0 -94 7v-449h-285v686h-163v172zM557 1161h-84v-461q34 -6 66 -6q109 0 178 61.5t69 172.5
q0 108 -60.5 170.5t-168.5 62.5z" />
    <glyph glyph-name="uni20B9" unicode="&#x20b9;" 
d="M152 694q116 -22 221 -22q240 0 295 168h-516v209h512q-56 155 -273 155h-239v209h968l-53 -209h-209q64 -64 92 -155h170l-53 -209h-104q-24 -146 -129 -239t-259 -120l543 -481h-409l-557 500v194z" />
    <glyph glyph-name="uni20BA" unicode="&#x20ba;" 
d="M94 348v180l144 68v158l-142 -68v180l142 68v479h288v-340l254 121v-180l-254 -121v-158l254 121v-180l-254 -121v-279q288 11 342 336l279 -24q-93 -588 -676 -588h-233v416z" />
    <glyph glyph-name="trademark" unicode="&#x2122;" horiz-adv-x="1632" 
d="M754 735v719h200l183 -375l182 375h194v-719h-188v420l-129 -270h-125l-127 268v-418h-190zM248 1280h-197v174h592v-174h-197v-545h-198v545z" />
    <glyph glyph-name="minus" unicode="&#x2212;" 
d="M178 440v248h860v-248h-860z" />
    <glyph glyph-name="uniFEFF" unicode="&#xfeff;" horiz-adv-x="0" 
 />
    <glyph glyph-name="uniFFFD" unicode="&#xfffd;" horiz-adv-x="1654" 
d="M31 727l796 797l797 -797l-797 -797zM827 1153q-114 0 -200 -58.5t-111 -166.5l164 -37q15 50 51 78t88 28q56 0 91.5 -31.5t35.5 -86.5q0 -124 -215 -177v-190h168v109q104 33 166.5 100.5t62.5 169.5q0 121 -88 191.5t-213 70.5zM741 403q-30 -30 -30 -75q0 -46 30 -76
q28 -31 74 -31t76.5 30.5t30.5 76.5t-30.5 76t-76.5 30t-74 -31z" />
    <glyph glyph-name="glyph1" horiz-adv-x="0" 
 />
    <glyph glyph-name="zero.aalt" 
d="M66 705q0 108 16.5 208.5t57.5 198.5t101.5 170.5t156 117t214.5 44.5q116 0 209.5 -43t154 -114.5t101 -168t57.5 -198t17 -211.5q0 -90 -12 -175.5t-37.5 -170t-69 -154.5t-102 -124.5t-142.5 -85t-184 -30.5q-115 0 -208.5 43.5t-154 115t-101 168.5t-57.5 198.5
t-17 210.5zM360 707q0 -56 4.5 -110.5t20.5 -122t41.5 -117.5t72.5 -84.5t109 -34.5q53 0 95 23t68 63.5t44 87t26 103.5t11.5 101t3.5 91q0 58 -4.5 112t-19.5 122t-40.5 117.5t-73 83.5t-110.5 34q-52 0 -94 -23t-68 -63.5t-44 -87t-26.5 -103t-12 -101.5t-3.5 -91z" />
    <glyph glyph-name="one.aalt" 
d="M557 0v1102l-287 -160l-96 242l424 229h248v-1413h-289z" />
    <glyph glyph-name="two.aalt" 
d="M100 1040q37 182 174.5 293t325.5 111q202 0 339.5 -128t137.5 -331q0 -95 -33 -174q-29 -71 -86 -149t-133.5 -155t-136.5 -131t-137 -118h551v-258h-987v213l143 123q92 79 146.5 127.5t129.5 123.5t132 144q54 67 82 124t28 126q0 91 -48.5 147t-137.5 56
q-83 0 -137 -53t-76 -138z" />
    <glyph glyph-name="three.aalt" 
d="M600 -31q-191 0 -333 101t-187 284l270 47q28 -85 91 -131.5t153 -46.5q91 0 157 50.5t66 140.5q0 91 -66.5 138.5t-162.5 47.5h-150v250h135q87 0 151 45.5t64 130.5q0 79 -53.5 121.5t-134.5 42.5q-83 0 -141 -46.5t-82 -127.5l-271 47q22 117 98 205t182 132t226 44
q88 0 170 -25.5t148.5 -73t106.5 -123.5t40 -169q0 -104 -52 -186t-146 -128q110 -41 171.5 -129.5t61.5 -206.5q0 -99 -44 -182.5t-116.5 -137.5t-163.5 -84t-188 -30z" />
    <glyph glyph-name="four.aalt" 
d="M705 291h-642v233l603 889h319v-876h158v-246h-158v-291h-280v291zM340 537h365v532z" />
    <glyph glyph-name="five.aalt" 
d="M606 -31q-183 0 -321.5 99.5t-180.5 275.5l275 43q28 -76 88 -120t141 -44q97 0 161.5 61t64.5 158q0 94 -64 154.5t-160 60.5q-53 0 -108.5 -21.5t-91.5 -57.5l-232 24v811h846v-266h-571v-299q88 61 215 61q195 0 327.5 -130t132.5 -328q0 -141 -71.5 -252t-190 -170.5
t-260.5 -59.5z" />
    <glyph glyph-name="six.aalt" 
d="M72 653q0 121 24.5 234t77.5 215t129 177.5t185.5 120t240.5 44.5q188 0 340 -92l-78 -242q-103 68 -246 68q-86 0 -155 -33.5t-113.5 -92t-71.5 -130t-38 -156.5q53 72 136.5 108.5t178.5 36.5q129 0 236.5 -57.5t171 -163t63.5 -237.5q0 -136 -70 -248t-186.5 -174
t-253.5 -62q-138 0 -249 56.5t-180 152.5t-105.5 217.5t-36.5 257.5zM410 451q0 -95 64 -162.5t159 -67.5t160 65.5t65 162.5q0 96 -62.5 159.5t-160.5 63.5q-96 0 -160.5 -62.5t-64.5 -158.5z" />
    <glyph glyph-name="seven.aalt" 
d="M274 0l492 1145h-664v268h992v-221l-494 -1192h-326z" />
    <glyph glyph-name="eight.aalt" 
d="M391 -2q-139 44 -228 145.5t-89 241.5q0 122 59 214.5t170 139.5q-90 45 -137 126t-47 184q0 76 28 141.5t75.5 111t111 78.5t133.5 48.5t143 15.5q89 0 173.5 -24t155.5 -70t114 -122.5t43 -172.5q0 -102 -47 -185.5t-136 -128.5q111 -42 169.5 -134t58.5 -214
q0 -83 -30.5 -154t-82.5 -120t-121 -83.5t-145.5 -50.5t-155.5 -16q-109 0 -215 29zM367 410q0 -91 72.5 -141t168.5 -50q97 0 168.5 49t71.5 142q0 52 -29 102q-66 92 -211 92q-63 0 -116 -19.5t-89 -65t-36 -109.5zM608 1194q-81 0 -143 -46t-62 -126q0 -104 101 -152
q46 -24 104 -24t105 24q45 22 71.5 62t26.5 90q0 79 -60.5 125.5t-142.5 46.5z" />
    <glyph glyph-name="nine.aalt" 
d="M66 961q0 139 71 250.5t189 172t258 60.5q114 0 209 -39.5t159.5 -106.5t109 -158t65 -192t20.5 -211q0 -124 -24.5 -236t-77.5 -209.5t-130 -169t-187 -112.5t-243 -41q-192 0 -346 92l78 242q103 -67 256 -67q182 0 274 111.5t107 301.5q-53 -74 -137.5 -110.5
t-181.5 -36.5q-196 0 -332.5 131t-136.5 328zM586 1192q-97 0 -161.5 -64.5t-64.5 -162.5q0 -94 64 -159t160 -65t160.5 62.5t64.5 159.5q0 95 -64 162t-159 67z" />
    <glyph glyph-name="hyphen.aalt" horiz-adv-x="759" 
d="M90 627v250h580v-250h-580z" />
    <glyph glyph-name="endash.aalt" horiz-adv-x="1024" 
d="M0 645v213h1024v-213h-1024z" />
    <glyph glyph-name="emdash.aalt" horiz-adv-x="2048" 
d="M0 645v213h2048v-213h-2048z" />
    <glyph glyph-name="parenleft.aalt" horiz-adv-x="729" 
d="M426 -233q-162 210 -249 455.5t-87 504.5t87 505t249 456h274q-346 -456 -346 -961q0 -504 346 -960h-274z" />
    <glyph glyph-name="parenright.aalt" horiz-adv-x="729" 
d="M303 -233h-274q346 456 346 960q0 505 -346 961h274q336 -435 336 -961q0 -525 -336 -960z" />
    <glyph glyph-name="slash.case" horiz-adv-x="972" 
d="M16 -172l678 1798h262l-677 -1798h-263z" />
    <glyph glyph-name="backslash.aalt" horiz-adv-x="972" 
d="M694 -172l-678 1798h263l677 -1798h-262z" />
    <glyph glyph-name="bracketleft.aalt" horiz-adv-x="757" 
d="M154 1688h522v-222h-268v-1478h268v-221h-522v1921z" />
    <glyph glyph-name="bracketright.aalt" horiz-adv-x="757" 
d="M350 1466h-268v222h522v-1921h-522v221h268v1478z" />
    <glyph glyph-name="braceleft.aalt" horiz-adv-x="784" 
d="M61 623v208h31q66 0 101.5 36t35.5 102q0 44 -8 96q-22 129 -22 250q0 188 112.5 280.5t304.5 92.5h86v-222h-65q-92 0 -135 -46.5t-43 -139.5q0 -71 24 -211q6 -53 6 -96q0 -78 -37 -149t-104 -97q37 -14 72 -49q69 -81 69 -197q0 -43 -6 -96q-24 -140 -24 -211
q0 -186 178 -186h65v-221h-86q-192 0 -304.5 92t-112.5 280q0 102 22 252q8 49 8 94q0 138 -137 138h-31z" />
    <glyph glyph-name="braceright.aalt" horiz-adv-x="784" 
d="M168 -233h-86v221h65q179 0 179 186q0 40 -7 105q-3 17 -8 52.5t-8 53.5q-8 47 -8 96q0 76 38 148.5t103 97.5q-40 15 -69 51q-34 34 -53 88.5t-19 106.5q0 49 8 96q23 134 23 211q0 94 -42.5 140t-136.5 46h-65v222h86q192 0 305 -92.5t113 -280.5q0 -72 -8 -129
q-9 -61 -15 -121q-8 -52 -8 -96q0 -66 35.5 -102t101.5 -36h31v-208h-31q-137 0 -137 -138q0 -45 8 -94q6 -59 15 -123q8 -57 8 -129q0 -187 -113 -279.5t-305 -92.5z" />
    <glyph glyph-name="bullet.aalt" horiz-adv-x="643" 
d="M86 748q0 97 69 166t167 69q99 0 167 -68t68 -167q0 -97 -68.5 -166.5t-166.5 -69.5q-97 0 -166.5 69t-69.5 167z" />
    <glyph glyph-name="guilsinglleft.aalt" horiz-adv-x="636" 
d="M315 334l-274 393l274 393h250l-266 -393l266 -393h-250z" />
    <glyph glyph-name="guilsinglright.aalt" horiz-adv-x="636" 
d="M72 334l266 393l-266 393h250l274 -393l-274 -393h-250z" />
    <glyph glyph-name="guillemotleft.aalt" horiz-adv-x="1093" 
d="M772 334l-274 393l274 393h250l-266 -393l266 -393h-250zM41 727l274 393h250l-266 -393l266 -393h-250z" />
    <glyph glyph-name="guillemotright.aalt" horiz-adv-x="1093" 
d="M795 727l-267 393h250l275 -393l-275 -393h-250zM72 334l266 393l-266 393h250l274 -393l-274 -393h-250z" />
    <glyph glyph-name="at.aalt" horiz-adv-x="2078" 
d="M1049 -211q-196 0 -372.5 69t-306.5 189.5t-207 294.5t-77 375q0 161 48.5 307.5t138 261.5t210 200t270 130t312.5 45q150 0 289 -39.5t254.5 -115.5t202 -181t134.5 -243t48 -294q0 -80 -14 -154t-46.5 -143t-80 -119.5t-119 -81t-158.5 -30.5q-101 0 -177.5 43
t-111.5 131q-46 -84 -124 -130t-175 -46q-93 0 -173 38.5t-134.5 103.5t-85.5 150t-31 177q0 90 30 174.5t83 151t133 107t174 40.5q175 0 270 -141l7 119h239v-588q0 -54 27 -88q23 -33 67 -33q47 0 81 35.5t50.5 90t23.5 103t7 90.5q0 143 -52 265.5t-143 207.5
t-217.5 133t-271.5 48q-204 0 -372.5 -91t-267.5 -257t-99 -373q0 -149 55 -281t150 -227t229 -150t285 -55q105 0 218 28.5t204 78.5l92 -195q-228 -131 -516 -131zM1032 969q-92 0 -150.5 -71.5t-58.5 -166.5t58 -165t151 -70q95 0 153 68.5t58 166.5q0 99 -57 168.5
t-154 69.5z" />
    <glyph glyph-name="periodcentered.case" horiz-adv-x="552" 
d="M96 752q0 74 53 127t127 53t127.5 -52.5t53.5 -127.5q0 -74 -53 -127.5t-128 -53.5q-73 0 -126.5 53.5t-53.5 127.5z" />
    <glyph glyph-name="exclamdown.aalt" horiz-adv-x="540" 
d="M426 0h-311l18 1001h275zM96 1288q0 48 25 90q21 40 61.5 62t87.5 22t87 -22t65 -62q22 -42 22 -90q0 -46 -22 -88q-55 -86 -152 -86q-47 0 -86.5 22.5t-62.5 63.5q-25 42 -25 88z" />
    <glyph glyph-name="questiondown.aalt" horiz-adv-x="1105" 
d="M563 -31q-95 0 -183 29t-157.5 82t-111 135.5t-41.5 181.5q0 158 104.5 273.5t265.5 163.5v167h275v-317q-346 -82 -346 -276q0 -82 56 -130.5t140 -48.5q80 0 142.5 44t87.5 120l270 -59q-39 -168 -181 -266.5t-321 -98.5zM403 1288q0 48 25 90q21 40 62 62t88 22
q99 0 151 -84q23 -44 23 -90q0 -44 -23 -88q-55 -86 -151 -86q-48 0 -87.5 22.5t-62.5 63.5q-25 42 -25 88z" />
    <glyph glyph-name="a.ss01" horiz-adv-x="1308" 
d="M571 -31q-147 0 -262.5 81.5t-175 209.5t-59.5 275q0 111 36 214.5t100.5 184.5t163 129.5t214.5 48.5q104 0 191 -43.5t143 -128.5l8 141h264v-1081h-264l-8 158q-56 -90 -150 -139.5t-201 -49.5zM367 541q0 -126 74.5 -220t197.5 -94q82 0 145 45t95 116t32 153
q0 127 -73.5 220t-198.5 93q-82 0 -145 -45t-95 -115.5t-32 -152.5z" />
    <glyph glyph-name="ordfeminine.ss01" horiz-adv-x="956" 
d="M410 631q-103 0 -185 57t-125 147.5t-43 192.5q0 77 25.5 150t70.5 130t114 91.5t149 34.5q143 0 229 -119l6 98h213v-762h-213l-8 105q-40 -59 -101.5 -92t-131.5 -33zM463 1223q-77 0 -123.5 -55.5t-46.5 -135.5q0 -79 46 -134.5t124 -55.5q77 0 124.5 55.5t47.5 134.5
t-46.5 135t-125.5 56z" />
    <glyph glyph-name="glyph199" horiz-adv-x="249" 
d="M-25 774q0 62 44.5 107t105.5 45q62 0 105.5 -44.5t43.5 -107.5q0 -62 -43.5 -106.5t-105.5 -44.5q-61 0 -105.5 44.5t-44.5 106.5z" />
    <glyph glyph-name="glyph200" horiz-adv-x="0" 
d="M-442 819q0 71 45.5 117.5t117.5 46.5q69 0 116.5 -47t47.5 -117q0 -67 -48.5 -115.5t-115.5 -48.5q-69 0 -116 47.5t-47 116.5z" />
    <glyph glyph-name="glyph205" 
d="M115 494v587h286v-549q0 -104 47 -172.5t146 -68.5q97 0 159 66.5t62 166.5v557h287v-981q0 -232 -138.5 -380t-373.5 -148q-155 0 -278.5 74.5t-186.5 214.5l270 69q32 -55 84 -89t111 -34q111 0 168 75.5t57 191.5v106q-50 -72 -130.5 -110.5t-172.5 -38.5
q-97 0 -174 36.5t-125 100.5t-73 147t-25 179z" />
    <glyph glyph-name="ae.ss01" horiz-adv-x="1988" 
d="M74 535q0 108 34 210.5t95.5 184.5t157 132t208.5 50q107 0 193 -47.5t139 -138.5l8 155h215l6 -133q124 164 328 164q113 0 203.5 -48.5t147 -129.5t86.5 -182t30 -211v-72h-756q16 -111 81 -184.5t173 -73.5q142 0 224 135l256 -82q-50 -133 -178.5 -214t-274.5 -81
q-196 0 -320 150l-6 -119h-215l-8 172q-52 -95 -145.5 -149t-202.5 -54q-108 0 -200 49t-152 129t-93.5 181t-33.5 207zM629 854q-80 0 -141.5 -46.5t-91 -116.5t-29.5 -150q0 -79 29 -149t90.5 -117.5t142.5 -47.5q80 0 141.5 46.5t91 117t29.5 150.5t-28.5 149.5
t-90 116.5t-143.5 47zM1174 662h456q-15 100 -71 164.5t-152 64.5t-154 -64t-79 -165z" />
    <glyph glyph-name="glyph234" horiz-adv-x="0" 
d="M-72 -487q-84 0 -178 32l31 158q30 -10 57 -16q36 -4 51 -4q42 0 68 16q25 19 25 47q0 35 -33 49q-36 19 -96 19l71 204h187l-37 -114q63 -21 102 -68.5t39 -111.5q0 -61 -35 -111q-80 -100 -252 -100z" />
    <glyph glyph-name="glyph237" horiz-adv-x="0" 
d="M-41 -360q-47 0 -80 32.5t-33 79.5q0 56 42.5 89.5t99.5 33.5q47 0 86 -25q80 -48 80 -151q0 -98 -63 -167.5t-163 -100.5l-47 116q97 37 117 101q-13 -8 -39 -8z" />
    <glyph glyph-name="glyph240" horiz-adv-x="0" 
d="M-410 -276q0 50 23.5 99t65.5 92t79 73t86 63l156 -51q-178 -134 -178 -205q0 -30 20 -47q22 -16 58 -16q13 0 49 4q31 7 45 14l24 -178q-116 -35 -186 -35q-63 0 -115.5 17.5t-89.5 61.5t-37 108z" />
    <glyph glyph-name="glyph241" horiz-adv-x="0" 
d="M-158 -457q-65 0 -117.5 18t-89 62.5t-36.5 110.5q0 160 256 348l174 29q-109 -108 -158 -179q-49 -70 -49 -122q0 -38 23.5 -58t62.5 -20q17 0 45 4q30 8 41 14l24 -170q-84 -37 -176 -37z" />
    <glyph glyph-name="glyph242" horiz-adv-x="0" 
d="M-410 -268q0 51 24 103.5t67 100.5t80.5 82t86.5 72l181 29q-207 -201 -207 -309q0 -38 21.5 -58t58.5 -20q15 0 47 4q31 7 45 14l24 -178q-103 -35 -184 -35q-102 0 -173 49t-71 146z" />
    <glyph glyph-name="aogonek.ss01" horiz-adv-x="1308" 
d="M571 -31q-147 0 -262.5 81.5t-175 209.5t-59.5 275q0 111 36 214.5t100.5 184.5t163 129.5t214.5 48.5q104 0 191 -43.5t143 -128.5l8 141h264v-1081q-98 -73 -135 -121q-43 -49 -43 -84q0 -28 22 -47q22 -16 56 -16q15 0 51 4q31 7 43 14l24 -170q-84 -37 -182 -37
q-61 0 -112.5 17.5t-88 61t-36.5 106.5q0 40 16 79.5t45.5 75t56.5 62t64 55.5h-45l-8 158q-56 -90 -150 -139.5t-201 -49.5zM367 541q0 -126 74.5 -220t197.5 -94q82 0 145 45t95 116t32 153q0 127 -73.5 220t-198.5 93q-82 0 -145 -45t-95 -115.5t-32 -152.5z" />
    <glyph glyph-name="glyph270" horiz-adv-x="0" 
d="M-231 1606l282 272h361l-346 -272h-297z" />
    <glyph glyph-name="glyph273" horiz-adv-x="0" 
d="M-432 1606l276 272h332l-340 -272h-268zM33 1606l276 272h332l-340 -272h-268z" />
    <glyph glyph-name="Iacute_J_acutecomb.locl" horiz-adv-x="1429" 
d="M717 -41q-218 0 -378 110.5t-222 317.5l293 53q39 -93 115.5 -146.5t176.5 -53.5q149 0 229.5 101t80.5 257v856h305v-858q0 -182 -68 -324.5t-206 -227.5t-326 -85zM113 1454h305v-825h-305v825zM1229 1606h-297l282 272h361zM330 1606h-297l282 272h361z" />
    <glyph glyph-name="iacute_j_acutecomb.locl" 
d="M115 494v587h286v-549q0 -104 47 -172.5t146 -68.5q97 0 159 66.5t62 166.5v557h287v-981q0 -232 -138.5 -380t-373.5 -148q-155 0 -278.5 74.5t-186.5 214.5l270 69q32 -55 84 -89t111 -34q111 0 168 75.5t57 191.5v106q-50 -72 -130.5 -110.5t-172.5 -38.5
q-97 0 -174 36.5t-125 100.5t-73 147t-25 179zM1034 1235h-270l233 293h320zM334 1235h-271l234 293h319z" />
    <glyph glyph-name="aacute.ss01" horiz-adv-x="1308" 
d="M74 535q0 111 36 214.5t100.5 184.5t163 129.5t214.5 48.5q104 0 191 -43.5t143 -128.5l8 141h264v-1081h-264l-8 158q-56 -90 -150 -139.5t-201 -49.5q-147 0 -262.5 81.5t-175 209.5t-59.5 275zM639 854q-82 0 -145 -45t-95 -115.5t-32 -152.5q0 -126 74.5 -220
t197.5 -94q82 0 145 45t95 116t32 153q0 127 -73.5 220t-198.5 93zM725 1235h-270l233 293h320z" />
    <glyph glyph-name="glyph309" horiz-adv-x="0" 
d="M-66 1606l-346 272h361l282 -272h-297z" />
    <glyph glyph-name="agrave.ss01" horiz-adv-x="1308" 
d="M571 -31q-147 0 -262.5 81.5t-175 209.5t-59.5 275q0 111 36 214.5t100.5 184.5t163 129.5t214.5 48.5q104 0 191 -43.5t143 -128.5l8 141h264v-1081h-264l-8 158q-56 -90 -150 -139.5t-201 -49.5zM639 854q-82 0 -145 -45t-95 -115.5t-32 -152.5q0 -126 74.5 -220
t197.5 -94q82 0 145 45t95 116t32 153q0 127 -73.5 220t-198.5 93zM573 1235l-282 293h319l234 -293h-271z" />
    <glyph glyph-name="glyph328" horiz-adv-x="0" 
d="M-438 1606l301 272h276l301 -272h-290l-152 120l-154 -120h-282z" />
    <glyph glyph-name="glyph331" horiz-adv-x="0" 
d="M-215 1610h-188q19 182 133 262q56 35 125 35q81 0 161 -52q79 -51 119 -51q31 0 53 25q20 20 29 65h189q-6 -57 -23 -107.5t-47 -94t-78 -69.5t-108 -26q-85 0 -164 52q-48 29 -62 37q-25 14 -57 14q-30 0 -53 -23q-20 -23 -29 -67z" />
    <glyph glyph-name="acircumflex.ss01" horiz-adv-x="1308" 
d="M74 535q0 111 36 214.5t100.5 184.5t163 129.5t214.5 48.5q104 0 191 -43.5t143 -128.5l8 141h264v-1081h-264l-8 158q-56 -90 -150 -139.5t-201 -49.5q-147 0 -262.5 81.5t-175 209.5t-59.5 275zM367 541q0 -126 74.5 -220t197.5 -94q82 0 145 45t95 116t32 153
q0 127 -73.5 220t-198.5 93q-82 0 -145 -45t-95 -115.5t-32 -152.5zM264 1235l273 293h227l272 -293h-254l-135 127l-137 -127h-246z" />
    <glyph glyph-name="atilde.ss01" horiz-adv-x="1308" 
d="M571 -31q-147 0 -262.5 81.5t-175 209.5t-59.5 275q0 111 36 214.5t100.5 184.5t163 129.5t214.5 48.5q104 0 191 -43.5t143 -128.5l8 141h264v-1081h-264l-8 158q-56 -90 -150 -139.5t-201 -49.5zM639 854q-82 0 -145 -45t-95 -115.5t-32 -152.5q0 -126 74.5 -220
t197.5 -94q82 0 145 45t95 116t32 153q0 127 -73.5 220t-198.5 93zM293 1237q5 41 14 79t26.5 77t41.5 67t60.5 46t80.5 18q70 0 146 -47q62 -50 100 -50q52 0 67 86h179q-6 -52 -20 -99t-39 -91t-67.5 -70t-97.5 -26q-78 0 -143 49q-7 4 -18.5 11t-20.5 12.5t-16 9.5
q-22 14 -47 14q-29 0 -45.5 -26.5t-22.5 -59.5h-178z" />
    <glyph glyph-name="glyph360" horiz-adv-x="0" 
d="M-438 1878h291l151 -121l154 121h282l-301 -272h-276z" />
    <glyph glyph-name="glyph363" horiz-adv-x="0" 
d="M143 1214l25 314h233l-90 -314h-168z" />
    <glyph glyph-name="glyph365" horiz-adv-x="0" 
d="M-373 1616v205h746v-205h-746z" />
    <glyph glyph-name="amacron.ss01" horiz-adv-x="1308" 
d="M571 -31q-147 0 -262.5 81.5t-175 209.5t-59.5 275q0 111 36 214.5t100.5 184.5t163 129.5t214.5 48.5q104 0 191 -43.5t143 -128.5l8 141h264v-1081h-264l-8 158q-56 -90 -150 -139.5t-201 -49.5zM367 541q0 -126 74.5 -220t197.5 -94q82 0 145 45t95 116t32 153
q0 127 -73.5 220t-198.5 93q-82 0 -145 -45t-95 -115.5t-32 -152.5zM324 1247v193h651v-193h-651z" />
    <glyph glyph-name="glyph396" horiz-adv-x="0" 
d="M248 1583q-64 0 -112 46t-48 110t47.5 109.5t112.5 45.5q67 0 113.5 -44t46.5 -111q0 -66 -47 -111t-113 -45zM-248 1583q-65 0 -112.5 45.5t-47.5 110.5q0 66 46 110.5t114 44.5q65 0 112.5 -45t47.5 -110q0 -63 -48.5 -109.5t-111.5 -46.5z" />
    <glyph glyph-name="glyph399" horiz-adv-x="0" 
d="M0 1595q-147 0 -251 77t-128 220h225q15 -56 55.5 -88t98.5 -32t98.5 32t55.5 88h225q-24 -141 -127 -219t-252 -78z" />
    <glyph glyph-name="adieresis.ss01" horiz-adv-x="1308" 
d="M571 -31q-147 0 -262.5 81.5t-175 209.5t-59.5 275q0 111 36 214.5t100.5 184.5t163 129.5t214.5 48.5q104 0 191 -43.5t143 -128.5l8 141h264v-1081h-264l-8 158q-56 -90 -150 -139.5t-201 -49.5zM367 541q0 -126 74.5 -220t197.5 -94q82 0 145 45t95 116t32 153
q0 127 -73.5 220t-198.5 93q-82 0 -145 -45t-95 -115.5t-32 -152.5zM791 1249q-35 19 -55.5 53t-20.5 74q0 79 76 129q36 19 77 19q42 0 78 -19q76 -50 76 -129q0 -40 -20.5 -74t-55.5 -53q-33 -20 -78 -20q-44 0 -77 20zM276 1376q0 79 76 129q36 19 78 19t78 -19
q76 -50 76 -129q0 -40 -20.5 -74t-55.5 -53q-33 -20 -78 -20t-78 20q-35 19 -55.5 53t-20.5 74z" />
    <glyph glyph-name="abreve.ss01" horiz-adv-x="1308" 
d="M571 -31q-147 0 -262.5 81.5t-175 209.5t-59.5 275q0 111 36 214.5t100.5 184.5t163 129.5t214.5 48.5q104 0 191 -43.5t143 -128.5l8 141h264v-1081h-264l-8 158q-56 -90 -150 -139.5t-201 -49.5zM367 541q0 -126 74.5 -220t197.5 -94q82 0 145 45t95 116t32 153
q0 127 -73.5 220t-198.5 93q-82 0 -145 -45t-95 -115.5t-32 -152.5zM297 1513h213q25 -112 139 -112q108 0 139 112h213q-24 -133 -119 -207.5t-233 -74.5q-136 0 -232 74t-120 208z" />
    <glyph glyph-name="glyph422" horiz-adv-x="0" 
d="M-170 1751q0 72 49 120t121 48q71 0 120.5 -48.5t49.5 -119.5t-49 -119.5t-121 -48.5q-71 0 -120.5 48.5t-49.5 119.5z" />
    <glyph glyph-name="glyph425" horiz-adv-x="0" 
d="M-170 -313q0 71 49 119.5t121 48.5q71 0 120.5 -48.5t49.5 -119.5q0 -72 -49 -120t-121 -48q-71 0 -120.5 48.5t-49.5 119.5z" />
    <glyph glyph-name="glyph440" horiz-adv-x="0" 
d="M-240 1767q0 99 69.5 164.5t170.5 65.5q100 0 170 -65t70 -165q0 -98 -70 -163.5t-170 -65.5q-99 0 -169.5 65t-70.5 164zM-88 1767q0 -39 27 -63q27 -27 61 -27t61 27q27 24 27 63t-27 66q-28 25 -61 25t-61 -25q-27 -27 -27 -66z" />
    <glyph glyph-name="aring.ss01" horiz-adv-x="1308" 
d="M571 -31q-147 0 -262.5 81.5t-175 209.5t-59.5 275q0 111 36 214.5t100.5 184.5t163 129.5t214.5 48.5q104 0 191 -43.5t143 -128.5l8 141h264v-1081h-264l-8 158q-56 -90 -150 -139.5t-201 -49.5zM367 541q0 -126 74.5 -220t197.5 -94q82 0 145 45t95 116t32 153
q0 127 -73.5 220t-198.5 93q-82 0 -145 -45t-95 -115.5t-32 -152.5zM416 1403q0 97 67.5 160t165.5 63q97 0 165.5 -62.5t68.5 -160.5q0 -95 -68.5 -159t-165.5 -64q-96 0 -164.5 63.5t-68.5 159.5zM649 1495q-38 0 -64 -27t-26 -65t26 -65t64 -27t64 27t26 65t-26 65
t-64 27z" />
    <glyph glyph-name="colon_B_e_l_o_colon.dlig" horiz-adv-x="1599" 
d="M424 -20q-131 0 -227.5 91.5t-96.5 223.5q0 41 15 88q9 35 43 115q17 42 55 120q11 22 34.5 71.5t37.5 76.5q12 25 37.5 78.5t39.5 81.5q24 48 72.5 145.5t73.5 145.5l30 57.5t21 40.5q89 160 240 160q83 0 139 -40.5t100 -119.5q6 -11 23.5 -43.5t28.5 -54.5
q46 -94 69 -136q25 -50 78 -155q5 -11 33.5 -70.5t44.5 -89.5q7 -15 31.5 -68.5t37.5 -79.5q71 -145 101 -235q12 -47 12 -88q0 -132 -94.5 -223.5t-228.5 -91.5q-185 0 -375 208q-190 -208 -375 -208zM207 362q-10 -38 -10 -67q0 -90 67 -155.5t158 -65.5q146 0 313 188
q-192 235 -192 410q0 110 72.5 184t183.5 74t183.5 -72.5t72.5 -185.5q0 -174 -193 -410q167 -188 314 -188q90 0 157.5 65.5t67.5 155.5q0 29 -10 67q-3 10 -39 97q-2 3 -21 44.5t-31 69.5q-11 22 -34 71.5t-37 76.5q-15 29 -41 85t-37 79q-13 27 -39 79.5t-39 77.5
q-32 58 -67 134q-9 17 -18.5 34t-18 32t-11.5 20q-23 40 -40.5 62t-48 39t-70.5 17q-58 0 -92 -29t-68 -89q-68 -123 -190 -377q-7 -14 -35.5 -73.5t-44.5 -90.5q-33 -65 -70 -148q-20 -40 -53 -114q-36 -87 -39 -97zM799 834q-71 0 -115.5 -44t-44.5 -114q0 -76 48.5 -169
t111.5 -171q63 78 111 170.5t48 169.5q0 70 -44 114t-115 44z" />
    </font>
</defs>
</svg>
