<?xml version="1.0" standalone="no"?>
<!DOCTYPE svg PUBLIC "-//W3C//DTD SVG 1.1//EN" "http://www.w3.org/Graphics/SVG/1.1/DTD/svg11.dtd" >
<svg xmlns="http://www.w3.org/2000/svg" xmlns:xlink="http://www.w3.org/1999/xlink" version="1.1">
<metadata>
Created by FontForge 20201107 at Mon Jun  3 13:20:51 2024
 By 
Copyright 2018 Airbnb. All rights reserved.
</metadata>
<defs>
<font id="AirbnbCerealWBlk" horiz-adv-x="1236" >
  <font-face 
    font-family="AirbnbCereal_W_Blk Black"
    font-weight="900"
    font-stretch="normal"
    units-per-em="2048"
    panose-1="2 11 9 2 2 2 3 2 2 4"
    ascent="1638"
    descent="-410"
    x-height="1102"
    cap-height="1454"
    bbox="-500 -596 2308 2040"
    underline-thickness="129"
    underline-position="-394"
    unicode-range="U+000D-FFFD"
  />
<missing-glyph horiz-adv-x="1024" 
d="M922 0h-820v1536h820v-1536zM205 102h614v1332h-614v-1332z" />
    <glyph glyph-name="f_i.liga" unicode="fi" horiz-adv-x="1406" 
d="M217 815h-176v287h176v33q0 191 113.5 306t306.5 115q107 0 197 -43l-60 -266q-26 17 -76 17q-47 0 -71 -35q-27 -35 -27 -99v-28h715v-1102h-383v815h-332v-815h-383v815zM920 1386q0 86 57.5 141.5t144.5 55.5q86 0 145.5 -55.5t59.5 -141.5q0 -85 -59 -140.5
t-146 -55.5q-85 0 -143.5 55.5t-58.5 140.5z" />
    <glyph glyph-name="f_f.liga" unicode="ff" horiz-adv-x="1605" 
d="M41 1102h176v33q0 189 121.5 305t314.5 116q131 0 232 -53l-60 -266q-18 10 -47 20q-31 7 -53 7q-59 0 -92 -37t-33 -97v-28h332v33q0 191 123 306t319 115q130 0 236 -53l-60 -266q-13 7 -51 20q-31 7 -53 7q-62 0 -96.5 -36t-34.5 -98v-28h250v-287h-250v-815h-383v815
h-332v-815h-383v815h-176v287z" />
    <glyph glyph-name="f_f_i.liga" unicode="ffi" horiz-adv-x="2121" 
d="M41 1102h176v33q0 189 121.5 305t314.5 116q131 0 232 -53l-60 -266q-18 10 -47 20q-31 7 -53 7q-59 0 -92 -37t-33 -97v-28h332v33q0 190 116.5 305.5t309.5 115.5q108 0 201 -43l-60 -266q-31 17 -80 17q-53 0 -78.5 -38.5t-25.5 -95.5v-28h715v-1102h-383v815h-332
v-815h-383v815h-332v-815h-383v815h-176v287zM1837 1190q-85 0 -144 55.5t-59 140.5q0 86 58 141.5t145 55.5q88 0 146.5 -54.5t58.5 -142.5q0 -85 -59 -140.5t-146 -55.5z" />
    <glyph glyph-name=".notdef" horiz-adv-x="1024" 
d="M922 0h-820v1536h820v-1536zM205 102h614v1332h-614v-1332z" />
    <glyph glyph-name="uni0000" horiz-adv-x="0" 
 />
    <glyph glyph-name="uni0000" horiz-adv-x="0" 
 />
    <glyph glyph-name="uni000D" unicode="&#xd;" horiz-adv-x="413" 
 />
    <glyph glyph-name="space" unicode=" " horiz-adv-x="413" 
 />
    <glyph glyph-name="exclam" unicode="!" horiz-adv-x="593" 
d="M88 1454h418l-25 -948h-368zM80 207q0 93 62 155t155 62t155 -62t62 -155t-62 -155t-155 -62t-155 62t-62 155z" />
    <glyph glyph-name="quotedbl" unicode="&#x22;" horiz-adv-x="1007" 
d="M563 1454h342l-16 -600h-309zM102 1454h342l-16 -600h-309z" />
    <glyph glyph-name="numbersign" unicode="#" horiz-adv-x="1380" 
d="M281 358h-179l21 244h178l18 221h-178l21 244h176l29 346h270l-29 -346h221l29 346h270l-28 -346h178l-21 -244h-176l-18 -221h176l-20 -244h-177l-28 -358h-271l29 358h-221l-29 -358h-270zM571 602h222l18 221h-221z" />
    <glyph glyph-name="dollar" unicode="$" 
d="M76 356l362 72q26 -66 75.5 -104.5t117.5 -38.5q61 0 103 29t42 87q0 106 -207 144l-43 8q-83 16 -157 50t-135 86t-96.5 126.5t-35.5 161.5q0 162 107 283t270 157v262h273v-260q146 -32 249 -124t136 -234l-355 -72q-50 133 -161 133q-56 0 -96 -31t-40 -85
q0 -36 21 -60q40 -51 199 -80l43 -8q86 -18 157 -50t130 -81.5t92.5 -123t33.5 -163.5q0 -179 -113.5 -298.5t-295.5 -151.5v-277h-273v285q-142 30 -254 126t-149 232z" />
    <glyph glyph-name="percent" unicode="%" horiz-adv-x="1599" 
d="M211 0l889 1413h289l-889 -1413h-289zM59 1102q0 143 101 236.5t246 93.5q143 0 242.5 -91.5t99.5 -234.5t-100 -236.5t-247 -93.5q-141 0 -241.5 92t-100.5 234zM852 307q0 143 100.5 236.5t245.5 93.5q143 0 242.5 -91.5t99.5 -234.5t-99.5 -236t-246.5 -93
q-141 0 -241.5 91.5t-100.5 233.5zM1196 420q-44 0 -69 -32.5t-25 -78.5q0 -44 26 -77t68 -33t68 33t26 77q0 46 -25 78.5t-69 32.5zM309 1104q0 -42 26.5 -76.5t67.5 -34.5q42 0 68.5 33.5t26.5 77.5q0 45 -25.5 77.5t-69.5 32.5q-42 0 -68 -33.5t-26 -76.5z" />
    <glyph glyph-name="ampersand" unicode="&#x26;" horiz-adv-x="1474" 
d="M51 387q0 126 68.5 225t185.5 162q-111 127 -133 217q-14 46 -14 103q0 88 38.5 163t102 124t144.5 76.5t167 27.5q131 0 236.5 -55t161.5 -166q30 -70 30 -150q0 -226 -270 -379l227 -231q70 125 80 303l295 -23q-30 -291 -166 -495l281 -289h-428l-70 72
q-178 -113 -407 -113q-100 0 -192 26t-168.5 76.5t-122.5 135t-46 190.5zM485 586q-77 -50 -77 -146q0 -55 26 -94q55 -86 180 -86q79 0 158 31zM614 1200q-50 0 -82 -31t-32 -82q0 -32 20 -71q16 -35 68 -94q55 29 92 74.5t37 101.5q0 44 -29.5 73t-73.5 29z" />
    <glyph glyph-name="quotesingle" unicode="'" horiz-adv-x="546" 
d="M119 854l-17 600h342l-16 -600h-309z" />
    <glyph glyph-name="parenleft" unicode="(" horiz-adv-x="782" 
d="M82 664q0 516 324 974h356q-328 -488 -328 -974q0 -487 328 -975h-356q-324 458 -324 975z" />
    <glyph glyph-name="parenright" unicode=")" horiz-adv-x="782" 
d="M377 -311h-357q328 488 328 975q0 486 -328 974h357q323 -457 323 -974q0 -518 -323 -975z" />
    <glyph glyph-name="asterisk" unicode="*" horiz-adv-x="927" 
d="M322 588l-222 160l193 215l-283 61l84 258l262 -115l-28 287h274l-29 -287l263 115l84 -258l-283 -61l192 -215l-221 -160l-143 248z" />
    <glyph glyph-name="plus" unicode="+" 
d="M150 723h303v309h327v-309h305v-320h-305v-319h-327v319h-303v320z" />
    <glyph glyph-name="comma" unicode="," horiz-adv-x="612" 
d="M92 248q0 84 63 140t150 56q80 0 142 -46.5t93 -117t31 -149.5q0 -174 -114 -295t-291 -153l-53 192q87 12 162 67t75 134q-36 -19 -74 -19q-52 0 -92 27q-42 25 -67 69.5t-25 94.5z" />
    <glyph glyph-name="hyphen" unicode="-" horiz-adv-x="757" 
d="M82 399v328h594v-328h-594z" />
    <glyph glyph-name="period" unicode="." horiz-adv-x="612" 
d="M80 217q0 94 65 160.5t160 66.5t160 -65t65 -162q0 -96 -64.5 -161.5t-160.5 -65.5q-95 0 -160 66t-65 161z" />
    <glyph glyph-name="slash" unicode="/" horiz-adv-x="1052" 
d="M8 -250l688 1827h348l-688 -1827h-348z" />
    <glyph glyph-name="zero" unicode="0" horiz-adv-x="1290" 
d="M82 702q0 111 18.5 213.5t61.5 200t106.5 169.5t161.5 115.5t219 43.5q118 0 214 -42t159.5 -111.5t106 -165t61 -199t18.5 -215.5q0 -111 -18 -213.5t-61 -200t-106.5 -169.5t-161.5 -115.5t-220 -43.5q-118 0 -213.5 42t-159 112t-106.5 165.5t-61.5 198.5t-18.5 215z
M645 1085q-38 0 -67.5 -20t-46.5 -55.5t-29 -73t-17 -85t-6.5 -79t-1.5 -65.5t1.5 -65.5t6.5 -79t17 -85.5t29 -73.5t46.5 -55.5t67.5 -20t67.5 20t46.5 55.5t29 73.5t17 85.5t6.5 79t1.5 65.5t-1.5 65.5t-6.5 79t-17 85t-29 73t-46.5 55.5t-67.5 20z" />
    <glyph glyph-name="one" unicode="1" horiz-adv-x="948" 
d="M391 0v1006l-250 -138l-116 324l415 221h340v-1413h-389z" />
    <glyph glyph-name="two" unicode="2" horiz-adv-x="1179" 
d="M51 1016q32 195 184 311.5t355 116.5q134 0 245.5 -53.5t179.5 -158.5t68 -243q0 -76 -27 -151.5t-75.5 -143.5t-98.5 -121t-114 -110q-32 -32 -72 -64q-54 -44 -78 -61h490v-338h-1034v272q206 165 364 312q250 234 250 383q0 61 -33 100t-92 39q-60 0 -97.5 -41.5
t-45.5 -103.5z" />
    <glyph glyph-name="three" unicode="3" horiz-adv-x="1167" 
d="M573 -31q-128 0 -239.5 42t-194 132.5t-108.5 216.5l360 56q17 -56 62 -87.5t104 -31.5q64 0 110 35.5t46 97.5t-44.5 97.5t-107.5 35.5h-145v307h123q62 0 104.5 33.5t42.5 93.5q0 55 -35 87t-90 32q-54 0 -92.5 -32.5t-52.5 -86.5l-361 56q22 124 102 214t190.5 133.5
t238.5 43.5q73 0 142.5 -15.5t132 -48t109.5 -79t75 -113t28 -144.5q0 -101 -49 -180t-139 -125q107 -43 164 -129t57 -202q0 -105 -45.5 -190.5t-121 -138.5t-170 -81.5t-196.5 -28.5z" />
    <glyph glyph-name="four" unicode="4" horiz-adv-x="1263" 
d="M51 262v295l561 856h439v-846h141v-305h-141v-262h-373v262h-627zM385 567h293v443z" />
    <glyph glyph-name="five" unicode="5" horiz-adv-x="1167" 
d="M61 360l367 48q41 -111 147 -111q67 0 112.5 42.5t45.5 109.5t-42.5 110t-110.5 43q-39 0 -79 -14.5t-67 -38.5l-305 29v835h893v-338h-526v-209q74 47 178 47q200 0 326 -129t126 -333q0 -142 -76 -253.5t-198 -170t-264 -58.5q-92 0 -178.5 25.5t-158.5 73.5
t-123 123.5t-67 168.5z" />
    <glyph glyph-name="six" unicode="6" horiz-adv-x="1255" 
d="M82 664q0 125 27.5 239.5t84 213t137 171.5t193.5 114.5t246 41.5q191 0 354 -88l-84 -312q-27 17 -65 31q-107 29 -182 29q-140 0 -221.5 -86t-102.5 -230q106 132 293 132q194 0 323 -130.5t129 -328.5q0 -141 -73 -254.5t-193.5 -175.5t-261.5 -62q-115 0 -213 36
t-169 100.5t-121.5 152t-75.5 190.5t-25 216zM510 453q0 -68 46 -118t114 -50q69 0 114 49t45 119q0 71 -44.5 120.5t-114.5 49.5q-68 0 -114 -50.5t-46 -119.5z" />
    <glyph glyph-name="seven" unicode="7" horiz-adv-x="1171" 
d="M201 0l458 1065h-598v348h1029v-283l-461 -1130h-428z" />
    <glyph glyph-name="eight" unicode="8" horiz-adv-x="1241" 
d="M618 -31q-79 0 -155.5 14.5t-150 47.5t-129 80.5t-89 119.5t-33.5 158q0 120 62.5 211t173.5 137q-92 45 -142.5 123t-50.5 178q0 99 46 179t122 128t166.5 73.5t186.5 25.5q75 0 146.5 -14t138 -45t117 -76.5t80.5 -113t30 -148.5q0 -103 -49.5 -181.5t-141.5 -126.5
q113 -43 173.5 -130t60.5 -208q0 -87 -33 -159.5t-88 -122t-128 -84t-152 -50.5t-161 -16zM444 426q0 -66 54 -103.5t123 -37.5q70 0 123 37t53 104q0 69 -52 106t-124 37t-124.5 -37t-52.5 -106zM621 1128q-61 0 -103.5 -36t-42.5 -95t42.5 -95t103.5 -36t103 35.5t42 95.5
t-42 95.5t-103 35.5z" />
    <glyph glyph-name="nine" unicode="9" horiz-adv-x="1255" 
d="M41 948q0 142 72.5 256.5t193.5 177t264 62.5q145 0 261.5 -56t190 -153t112.5 -223t39 -271q0 -126 -26.5 -240t-82 -211.5t-135.5 -168.5t-193 -111.5t-248 -40.5q-186 0 -366 86l84 314q71 -42 166 -52q41 -8 90 -8q151 0 232.5 84t95.5 238q-49 -68 -127.5 -102.5
t-167.5 -34.5q-191 0 -323 130.5t-132 323.5zM426 958q0 -69 46 -118t114 -49q69 0 114 48.5t45 118.5q0 71 -44.5 120.5t-114.5 49.5q-68 0 -114 -50.5t-46 -119.5z" />
    <glyph glyph-name="colon" unicode=":" horiz-adv-x="612" 
d="M305 -10q-95 0 -160 66t-65 161q0 94 65 160.5t160 66.5t160 -65t65 -162q0 -96 -64.5 -161.5t-160.5 -65.5zM80 885q0 94 65 160.5t160 66.5t160 -65t65 -162q0 -96 -64.5 -162t-160.5 -66q-95 0 -160 66t-65 162z" />
    <glyph glyph-name="semicolon" unicode=";" horiz-adv-x="612" 
d="M184 84q-42 25 -67 69.5t-25 94.5q0 84 63 140t150 56q80 0 142 -46.5t93 -117t31 -149.5q0 -174 -114 -295t-291 -153l-53 192q87 12 162 67t75 134q-36 -19 -74 -19q-52 0 -92 27zM80 885q0 94 65 160.5t160 66.5t160 -65t65 -162q0 -96 -64.5 -162t-160.5 -66
q-95 0 -160 66t-65 162z" />
    <glyph glyph-name="less" unicode="&#x3c;" 
d="M168 410v307l854 327v-321l-494 -154l494 -153v-334z" />
    <glyph glyph-name="equal" unicode="=" 
d="M150 647v307h935v-307h-935zM1085 172h-935v307h935v-307z" />
    <glyph glyph-name="greater" unicode="&#x3e;" 
d="M709 557l-494 154v333l854 -327v-307l-854 -328v321z" />
    <glyph glyph-name="question" unicode="?" horiz-adv-x="1163" 
d="M41 1102q27 124 110 212t194.5 129.5t240.5 41.5q79 0 153.5 -16.5t140.5 -52t115.5 -86t78 -122.5t28.5 -157q0 -159 -96.5 -267.5t-255.5 -158.5v-119h-369v297q43 11 75 20.5t83 30.5t83.5 43.5t57.5 57.5t25 75q0 56 -39 87.5t-97 31.5t-101 -31.5t-62 -87.5z
M348 207q0 93 62 155t155 62t155 -62t62 -155t-62 -155t-155 -62t-155 62t-62 155z" />
    <glyph glyph-name="at" unicode="@" horiz-adv-x="2095" 
d="M1057 -420q-200 0 -380 68.5t-314 189.5t-212.5 298.5t-78.5 383.5q0 205 78 384t211.5 304t317.5 197t390 72q190 0 362 -59t304 -166.5t210 -272.5t78 -363q0 -86 -15 -164t-49.5 -148t-85 -121t-126 -81t-168.5 -30q-103 0 -185 41t-124 127q-41 -79 -120 -124.5
t-169 -45.5q-121 0 -218.5 65t-149.5 170.5t-52 226.5q0 118 50.5 223.5t147 173.5t216.5 68q79 0 147 -36t109 -101l6 115h285v-559q0 -44 19 -75.5t61 -31.5q44 0 75 33t45 85t19.5 96t5.5 85q0 188 -89 329t-240 213.5t-341 72.5q-150 0 -282 -50.5t-228.5 -141
t-152.5 -222t-56 -285.5q0 -144 53 -271.5t144.5 -219.5t220.5 -145.5t275 -53.5q217 0 401 96l113 -221q-206 -129 -508 -129zM1044 723q-76 0 -124 -54.5t-48 -131.5q0 -76 48 -131.5t124 -55.5q75 0 124 55t49 132q0 76 -48.5 131t-124.5 55z" />
    <glyph glyph-name="A" unicode="A" horiz-adv-x="1622" 
d="M434 0h-414l572 1454h436l574 -1454h-428l-91 254h-561zM803 1053l-168 -478h336z" />
    <glyph glyph-name="B" unicode="B" horiz-adv-x="1298" 
d="M113 1454h577q77 0 147 -12t136.5 -40t115 -71t78 -109.5t29.5 -150.5q0 -204 -176 -303q114 -42 175.5 -134.5t61.5 -215.5q0 -89 -32.5 -161t-86 -119t-126.5 -79t-150.5 -45.5t-161.5 -13.5h-587v1454zM492 307h202q78 0 125 36t47 112q0 70 -43 110q-46 37 -129 37
h-202v-295zM492 883h161q69 0 111.5 32t42.5 99q0 68 -41.5 100.5t-112.5 32.5h-161v-264z" />
    <glyph glyph-name="C" unicode="C" horiz-adv-x="1548" 
d="M821 -41q-212 0 -383.5 97.5t-268.5 271t-97 389.5q0 158 56 301t153.5 248t238.5 167t303 62q239 0 426 -130.5t244 -358.5l-403 -84q-38 92 -108.5 144t-166.5 52q-101 0 -175.5 -59.5t-109 -147.5t-34.5 -188q0 -101 34.5 -187t109.5 -143t179 -57q197 0 285 196
l403 -83q-57 -230 -248 -360t-438 -130z" />
    <glyph glyph-name="D" unicode="D" horiz-adv-x="1585" 
d="M113 1454h628q159 0 299.5 -50t245.5 -141t166 -228.5t61 -303.5q0 -163 -60 -300.5t-164 -231.5t-247 -146.5t-307 -52.5h-622v1454zM522 360h193q170 0 272.5 97.5t102.5 269.5q0 170 -101 268.5t-274 98.5h-193v-734z" />
    <glyph glyph-name="E" unicode="E" horiz-adv-x="1196" 
d="M113 1454h968v-336h-579v-211h508v-334h-508v-239h602v-334h-991v1454z" />
    <glyph glyph-name="F" unicode="F" horiz-adv-x="1132" 
d="M113 1454h948v-346h-549v-252h477v-344h-477v-512h-399v1454z" />
    <glyph glyph-name="G" unicode="G" horiz-adv-x="1669" 
d="M862 -41q-217 0 -397 95t-286.5 271t-106.5 398q0 165 60.5 308.5t165 245t251 160t313.5 58.5q230 0 413.5 -107.5t274.5 -312.5l-403 -110q-99 163 -287 163q-165 0 -264.5 -114t-99.5 -283q0 -110 45 -201.5t132.5 -147.5t200.5 -56q102 0 189.5 50t116.5 142h-291
v324h719v-178q0 -154 -57.5 -286.5t-157.5 -224t-237.5 -143t-293.5 -51.5z" />
    <glyph glyph-name="H" unicode="H" horiz-adv-x="1560" 
d="M113 1454h409v-524h516v524h410v-1454h-410v569h-516v-569h-409v1454z" />
    <glyph glyph-name="I" unicode="I" horiz-adv-x="634" 
d="M113 0v1454h409v-1454h-409z" />
    <glyph glyph-name="J" unicode="J" horiz-adv-x="1181" 
d="M551 -31q-210 0 -353.5 119.5t-187.5 329.5l398 57q24 -139 133 -139q64 0 96.5 43.5t32.5 109.5v965h409v-948q0 -235 -144.5 -386t-383.5 -151z" />
    <glyph glyph-name="K" unicode="K" horiz-adv-x="1503" 
d="M113 1454h409v-633l443 633h454l-499 -674l573 -780h-506l-465 690v-690h-409v1454z" />
    <glyph glyph-name="L" unicode="L" horiz-adv-x="1144" 
d="M113 0v1454h409v-1094h551v-360h-960z" />
    <glyph glyph-name="M" unicode="M" horiz-adv-x="1785" 
d="M113 1454h411l373 -752l373 752h403v-1454h-389v819l-252 -516h-278l-252 514v-817h-389v1454z" />
    <glyph glyph-name="N" unicode="N" horiz-adv-x="1540" 
d="M113 1454h348l577 -850v850h389v-1454h-348l-577 850v-850h-389v1454z" />
    <glyph glyph-name="O" unicode="O" horiz-adv-x="1716" 
d="M856 -41q-216 0 -394.5 96.5t-284 272.5t-105.5 397q0 216 104 393t284.5 277t399.5 100q162 0 306.5 -56.5t250 -156t167 -243.5t61.5 -310q0 -163 -61 -306.5t-166 -245t-251 -160t-311 -58.5zM496 727q0 -164 99 -277.5t263 -113.5q161 0 262 112.5t101 278.5
q0 164 -99.5 277.5t-263.5 113.5q-161 0 -261.5 -112.5t-100.5 -278.5z" />
    <glyph glyph-name="P" unicode="P" horiz-adv-x="1273" 
d="M113 0v1454h518q126 0 231.5 -28.5t190 -87t132.5 -159t48 -233.5q0 -121 -47 -219t-128 -161t-187 -96.5t-226 -33.5q-60 0 -143 13v-449h-389zM502 1128v-354q74 -12 131 -12q92 0 147.5 46.5t55.5 135.5q0 93 -56 138.5t-151 45.5h-127z" />
    <glyph glyph-name="Q" unicode="Q" horiz-adv-x="1716" 
d="M842 -41q-158 0 -300.5 58.5t-245.5 159t-163.5 243t-60.5 303.5q0 162 61 305t165.5 245.5t250 162t309.5 59.5q159 0 303 -56t251 -154t170 -240.5t63 -305.5q0 -144 -52 -279.5t-149 -238.5l151 -190l-252 -203l-163 203q-167 -72 -338 -72zM864 1118
q-168 0 -268 -111.5t-100 -285.5q0 -166 100 -280.5t266 -114.5q48 0 84 8l-211 262l238 192l215 -266q21 45 33 92q10 55 10 105q0 125 -54.5 222t-164.5 149q-70 28 -148 28z" />
    <glyph glyph-name="R" unicode="R" horiz-adv-x="1341" 
d="M113 0v1454h522q95 0 180.5 -15.5t165 -51.5t137 -90.5t91.5 -137.5t34 -186q0 -119 -63.5 -228.5t-165.5 -171.5l317 -573h-430l-225 465q-18 -2 -58 -2q-44 0 -116 10v-473h-389zM502 1128v-331q59 -15 147 -15t142.5 46.5t54.5 132.5q0 78 -55 124q-58 43 -158 43
h-131z" />
    <glyph glyph-name="S" unicode="S" horiz-adv-x="1208" 
d="M31 375l377 69q22 -67 75.5 -108t122.5 -41q64 0 113 30t49 89q0 41 -20 67q-39 50 -205 80l-43 8q-87 16 -163.5 52t-137.5 90t-96 132t-35 169q0 108 46 198.5t122.5 150t175 92t204.5 32.5q130 0 237 -43t184.5 -132.5t107.5 -217.5l-369 -72q-15 63 -60 101t-108 38
q-56 0 -99.5 -30t-43.5 -85q0 -38 20 -61q22 -28 68 -43q47 -18 125 -33l41 -8q93 -18 170.5 -53t141.5 -88t100 -131t36 -174q0 -112 -47.5 -205.5t-127 -153t-181 -92.5t-211.5 -33q-136 0 -250.5 43.5t-200 136.5t-118.5 226z" />
    <glyph glyph-name="T" unicode="T" horiz-adv-x="1318" 
d="M72 1094v360h1175v-360h-383v-1094h-409v1094h-383z" />
    <glyph glyph-name="U" unicode="U" horiz-adv-x="1540" 
d="M102 1454h410v-827q0 -124 67.5 -207.5t190.5 -83.5t190.5 81.5t67.5 209.5v827h410v-846q0 -297 -182.5 -473t-487.5 -176q-195 0 -345 76t-235.5 224t-85.5 349v846z" />
    <glyph glyph-name="V" unicode="V" horiz-adv-x="1581" 
d="M20 1454h451l330 -1020l327 1020h433l-545 -1454h-449z" />
    <glyph glyph-name="W" unicode="W" horiz-adv-x="2195" 
d="M51 1454h430l211 -907l232 907h362l232 -907l211 907h415l-440 -1454h-369l-235 924l-236 -924h-372z" />
    <glyph glyph-name="X" unicode="X" horiz-adv-x="1488" 
d="M10 0l508 764l-444 690h452l224 -405l223 405h442l-444 -690l508 -764h-471l-271 465l-266 -465h-461z" />
    <glyph glyph-name="Y" unicode="Y" horiz-adv-x="1437" 
d="M10 1454h453l264 -543l262 543h438l-503 -899v-555h-410v555z" />
    <glyph glyph-name="Z" unicode="Z" horiz-adv-x="1349" 
d="M61 0v289l674 823h-643v342h1161v-289l-675 -823h720v-342h-1237z" />
    <glyph glyph-name="bracketleft" unicode="[" horiz-adv-x="804" 
d="M133 1638h590v-292h-254v-1364h254v-293h-590v1949z" />
    <glyph glyph-name="backslash" unicode="\" horiz-adv-x="1052" 
d="M696 -250l-688 1827h348l688 -1827h-348z" />
    <glyph glyph-name="bracketright" unicode="]" horiz-adv-x="804" 
d="M336 1346h-254v292h590v-1949h-590v293h254v1364z" />
    <glyph glyph-name="asciicircum" unicode="^" 
d="M106 682l347 731h331l346 -731h-350l-168 399l-168 -399h-338z" />
    <glyph glyph-name="underscore" unicode="_" horiz-adv-x="1290" 
d="M61 -383v279h1168v-279h-1168z" />
    <glyph glyph-name="grave" unicode="`" horiz-adv-x="1245" 
d="M590 1243l-291 293h418l227 -293h-354z" />
    <glyph glyph-name="a" unicode="a" horiz-adv-x="1171" 
d="M418 -31q-98 0 -183 40t-139.5 118.5t-54.5 179.5q0 90 40 160.5t106.5 112.5t146 63t166.5 21q117 0 207 -37v53q0 69 -38 113.5t-106 44.5q-47 0 -86 -25q-35 -25 -51 -68l-346 54q16 79 66 144t119 105.5t148 62.5t158 22q105 0 197 -32.5t161.5 -92t109.5 -150
t40 -199.5v-659h-344l-10 129q-40 -80 -124.5 -120t-182.5 -40zM416 334q0 -43 37 -69.5t82 -26.5q71 0 121.5 45.5t50.5 115.5v13q-64 28 -132 28q-28 0 -54 -5t-50.5 -16t-39.5 -33t-15 -52z" />
    <glyph glyph-name="b" unicode="b" horiz-adv-x="1341" 
d="M92 1536h383v-561q58 76 141.5 117t180.5 41q89 0 167 -32.5t135 -88.5t98.5 -129.5t62 -157t20.5 -168.5q0 -111 -35.5 -215.5t-99 -188t-162 -134t-215.5 -50.5q-207 0 -313 164l-9 -133h-354v1536zM473 549q0 -96 56.5 -166t150.5 -70q95 0 153 69t58 167
q0 97 -57.5 166t-153.5 69q-93 0 -150 -69t-57 -166z" />
    <glyph glyph-name="c" unicode="c" horiz-adv-x="1210" 
d="M629 -31q-157 0 -287.5 74.5t-205.5 206t-75 291.5q0 162 73 297t206.5 215t298.5 80q194 0 338 -111.5t182 -300.5l-360 -55q-18 51 -64 90q-44 30 -94 30q-90 0 -140 -71.5t-50 -165.5q0 -93 49.5 -163.5t140.5 -70.5q58 0 103 32.5t65 88.5l360 -55
q-25 -126 -104.5 -220.5t-192.5 -143t-243 -48.5z" />
    <glyph glyph-name="d" unicode="d" horiz-adv-x="1341" 
d="M547 -31q-110 0 -203.5 50t-154 131.5t-94.5 183.5t-34 209q0 89 22 174.5t66 160.5t104.5 132t143 90t176.5 33q181 0 293 -136v539h383v-1536h-354l-10 156q-53 -88 -143.5 -137.5t-194.5 -49.5zM451 553q0 -95 59 -165.5t152 -70.5t149.5 69.5t56.5 166.5
q0 96 -56 165.5t-150 69.5t-152.5 -69.5t-58.5 -165.5z" />
    <glyph glyph-name="e" unicode="e" horiz-adv-x="1239" 
d="M61 555q0 159 71 290.5t201 209.5t292 78q131 0 237.5 -45.5t177.5 -126.5t109.5 -192.5t38.5 -244.5v-69h-735q16 -81 63.5 -131t126.5 -50q109 0 174 95l350 -78q-62 -153 -211.5 -237.5t-324.5 -84.5q-251 0 -410.5 165t-159.5 421zM625 860q-75 0 -119 -49t-57 -127
h344q-30 176 -168 176z" />
    <glyph glyph-name="f" unicode="f" horiz-adv-x="890" 
d="M41 1102h176v33q0 191 123 306t319 115q130 0 236 -53l-59 -266q-14 8 -50 20q-35 7 -55 7q-62 0 -96.5 -36t-34.5 -98v-28h250v-293h-250v-809h-383v809h-176v293z" />
    <glyph glyph-name="g" unicode="g" horiz-adv-x="1320" 
d="M61 592q0 103 37 201t101.5 173t158.5 121t201 46q193 0 307 -152l8 121h355v-942q0 -258 -161 -416t-425 -158q-113 0 -217 31.5t-192 103.5t-128 175l377 71q27 -37 69.5 -56.5t90.5 -19.5q95 0 149 63t54 161v84q-110 -148 -301 -148q-104 0 -195.5 46.5t-154 122.5
t-98.5 173.5t-36 198.5zM647 807q-85 0 -140.5 -64t-55.5 -151q0 -86 55.5 -150.5t140.5 -64.5q88 0 144.5 62.5t56.5 152.5q0 88 -57 151.5t-144 63.5z" />
    <glyph glyph-name="h" unicode="h" horiz-adv-x="1245" 
d="M92 0v1536h383v-553q48 73 126.5 111.5t170.5 38.5q95 0 169.5 -37.5t120 -102t68.5 -146t23 -175.5v-672h-383v614q0 72 -34 122t-103 50q-70 0 -114 -50t-44 -122v-614h-383z" />
    <glyph glyph-name="i" unicode="i" horiz-adv-x="567" 
d="M92 0v1102h383v-1102h-383zM283 1190q-85 0 -144 55.5t-59 140.5q0 86 58 141.5t145 55.5q86 0 145 -55.5t59 -141.5q0 -85 -58.5 -140.5t-145.5 -55.5z" />
    <glyph glyph-name="j" unicode="j" horiz-adv-x="577" 
d="M-147 -350l59 280q46 -20 90 -20q100 0 100 123v1069h383v-1084q0 -190 -108 -305.5t-299 -115.5q-122 0 -225 53zM90 1386q0 86 58 141.5t145 55.5q88 0 146.5 -54.5t58.5 -142.5q0 -85 -59 -140.5t-146 -55.5q-85 0 -144 55.5t-59 140.5z" />
    <glyph glyph-name="k" unicode="k" horiz-adv-x="1273" 
d="M92 1536h373v-872l342 438h418l-404 -488l453 -614h-457l-352 537v-537h-373v1536z" />
    <glyph glyph-name="l" unicode="l" horiz-adv-x="567" 
d="M92 0v1536h383v-1536h-383z" />
    <glyph glyph-name="m" unicode="m" horiz-adv-x="1906" 
d="M92 1102h354l11 -150q47 86 127 133.5t178 47.5q103 0 185 -51.5t126 -145.5q53 95 146 146t204 51q81 0 146.5 -25t111 -69t76 -105t44.5 -131t14 -148v-655h-383v608q0 70 -34 124t-100 54q-41 0 -77 -22q-76 -56 -76 -156v-608h-383v608q0 74 -33 126t-102 52
q-42 0 -78 -22q-36 -25 -53 -64q-21 -40 -21 -92v-608h-383v1102z" />
    <glyph glyph-name="n" unicode="n" horiz-adv-x="1245" 
d="M92 1102h354l11 -150q102 181 315 181q95 0 169.5 -37.5t120 -102t68.5 -146t23 -175.5v-672h-383v614q0 72 -34 122t-103 50q-70 0 -114 -50t-44 -122v-614h-383v1102z" />
    <glyph glyph-name="o" unicode="o" horiz-adv-x="1318" 
d="M61 549q0 166 79.5 300t217.5 209t306 75q163 0 298.5 -73.5t215 -207t79.5 -299.5t-79 -300t-217 -209t-306 -75q-162 0 -297.5 73.5t-216 207.5t-80.5 299zM659 786q-92 0 -150 -69.5t-58 -165.5q0 -95 57.5 -165.5t150.5 -70.5t151 70t58 166t-57 165.5t-152 69.5z
" />
    <glyph glyph-name="p" unicode="p" horiz-adv-x="1341" 
d="M92 1102h354l11 -156q53 88 143.5 137.5t194.5 49.5q110 0 203.5 -49.5t154 -131t94 -183.5t33.5 -210q0 -89 -22 -174.5t-66 -160.5t-104.5 -132t-143 -90t-176.5 -33q-184 0 -293 135v-487h-383v1485zM680 784q-93 0 -150 -69t-57 -166q0 -96 56.5 -166t150.5 -70
q95 0 153 69t58 167q0 97 -57.5 166t-153.5 69z" />
    <glyph glyph-name="q" unicode="q" horiz-adv-x="1341" 
d="M547 -31q-110 0 -203.5 50t-154 131.5t-94.5 183.5t-34 209q0 89 22 174.5t66 160.5t104.5 132t143 90t176.5 33q207 0 314 -164l8 133h354v-1485h-383v510q-57 -76 -140 -117t-179 -41zM451 553q0 -95 59 -165.5t152 -70.5t149.5 69.5t56.5 166.5q0 96 -56 165.5
t-150 69.5t-152.5 -69.5t-58.5 -165.5z" />
    <glyph glyph-name="r" unicode="r" horiz-adv-x="849" 
d="M92 1102h354l13 -178q37 90 104.5 141t161.5 51q53 0 94 -18l-37 -383q-41 14 -94 14q-213 0 -213 -223v-506h-383v1102z" />
    <glyph glyph-name="s" unicode="s" horiz-adv-x="1048" 
d="M31 268l344 56q16 -44 57 -64q40 -24 96 -24q44 0 79.5 19.5t35.5 59.5q0 39 -37 60t-127 33l-39 6q-77 11 -142.5 36t-120.5 65.5t-86.5 103.5t-31.5 143q0 90 39 162.5t104 117t145.5 68t168.5 23.5q162 0 290 -73t173 -218l-340 -56q-35 80 -123 80q-42 0 -73 -19.5
t-31 -58.5q0 -22 14 -36q15 -19 47 -27q30 -10 92 -20l39 -7q79 -13 144.5 -36.5t124 -63t91.5 -102.5t33 -144q0 -94 -40 -169t-107 -120.5t-150.5 -69.5t-175.5 -24q-169 0 -305.5 74.5t-187.5 224.5z" />
    <glyph glyph-name="t" unicode="t" horiz-adv-x="944" 
d="M41 1102h176v379h383v-379h266v-293h-266v-393q0 -133 115 -133q65 0 137 30l51 -272q-123 -72 -287 -72q-196 0 -297.5 106.5t-101.5 303.5v430h-176v293z" />
    <glyph glyph-name="u" unicode="u" 
d="M92 1102h383v-608q0 -77 36.5 -128t109.5 -51t107 51t34 128v608h383v-600q0 -237 -145.5 -385t-387.5 -148q-238 0 -379 145t-141 388v600z" />
    <glyph glyph-name="v" unicode="v" horiz-adv-x="1210" 
d="M10 1102h414l186 -709l191 709h399l-401 -1102h-387z" />
    <glyph glyph-name="w" unicode="w" horiz-adv-x="1789" 
d="M10 1102h396l149 -668l180 668h326l182 -674l156 674h381l-363 -1102h-348l-176 659l-178 -659h-342z" />
    <glyph glyph-name="x" unicode="x" horiz-adv-x="1267" 
d="M20 0l402 582l-356 520h426l145 -271l149 271h416l-356 -520l401 -582h-446l-170 311l-174 -311h-437z" />
    <glyph glyph-name="y" unicode="y" horiz-adv-x="1210" 
d="M10 1102h414l203 -717l174 717h399l-424 -1155q-42 -111 -94.5 -185t-138.5 -119.5t-201 -45.5q-134 0 -229 53l61 282q72 -26 123 -26q56 0 91 26t61 80z" />
    <glyph glyph-name="z" unicode="z" horiz-adv-x="1122" 
d="M72 0v240l471 569h-455v293h928v-240l-471 -569h506v-293h-979z" />
    <glyph glyph-name="braceleft" unicode="{" horiz-adv-x="845" 
d="M61 524v279h31q123 0 123 110q0 31 -6 80q-25 132 -25 228q0 215 129 316t351 101h100v-292h-70q-164 0 -164 -177q0 -39 9 -86q8 -59 14 -92q8 -41 8 -82q0 -78 -40 -149t-109 -96q69 -25 109 -96.5t40 -149.5q0 -41 -8 -82q-6 -33 -14 -92q-9 -46 -9 -86
q0 -87 39 -131.5t125 -44.5h70v-293h-100q-222 0 -351 101t-129 316q0 94 25 230q6 46 6 78q0 110 -123 110h-31z" />
    <glyph glyph-name="bar" unicode="|" horiz-adv-x="602" 
d="M133 -250v1827h336v-1827h-336z" />
    <glyph glyph-name="braceright" unicode="}" horiz-adv-x="845" 
d="M182 -311h-100v293h70q87 0 125 43.5t38 132.5q0 45 -8 86q-6 33 -14 92q-8 41 -8 82q0 76 40.5 147.5t108.5 98.5q-68 27 -108.5 98t-40.5 147q0 41 8 82q8 59 14 92q8 41 8 86q0 89 -38 133t-125 44h-70v292h100q222 0 351 -101t129 -316q0 -63 -9 -121q-1 -8 -14 -107
q-8 -44 -8 -80q0 -110 123 -110h30v-279h-30q-123 0 -123 -110q0 -37 8 -78q10 -85 14 -109q9 -59 9 -121q0 -215 -129 -316t-351 -101z" />
    <glyph glyph-name="asciitilde" unicode="~" 
d="M399 348h-299q3 65 15 125.5t38.5 118t64.5 100t95.5 68.5t128.5 26q64 0 111.5 -20.5t116.5 -67.5q14 -11 51 -34q21 -15 45 -15q29 0 45 29t25 92h299q-4 -66 -17 -125t-39 -117.5t-63 -101t-94.5 -68.5t-128.5 -26q-111 0 -226 90q-7 5 -25 16t-26 17q-22 14 -47 14
q-58 0 -70 -121z" />
    <glyph glyph-name="uni00A0" unicode="&#xa0;" horiz-adv-x="413" 
 />
    <glyph glyph-name="exclamdown" unicode="&#xa1;" horiz-adv-x="593" 
d="M506 -352h-418l25 948h368zM80 895q0 93 62 155t155 62t155 -62t62 -155t-62 -155t-155 -62t-155 62t-62 155z" />
    <glyph glyph-name="cent" unicode="&#xa2;" 
d="M72 537q0 198 115 351.5t307 205.5v233h272v-223q158 -33 264 -132t139 -255l-360 -55q-21 55 -61.5 87.5t-96.5 32.5q-90 0 -140 -71.5t-50 -165.5q0 -61 23 -117t69 -86q42 -31 98 -31q58 0 103 32.5t65 88.5l361 -55q-33 -153 -144 -253t-270 -132v-268h-272v272
q-188 44 -305 194.5t-117 346.5z" />
    <glyph glyph-name="sterling" unicode="&#xa3;" 
d="M45 825h150l12 158q14 207 147 334t344 127q195 0 328 -107.5t166 -300.5l-369 -55q-21 125 -123 125q-56 0 -84.5 -35.5t-31.5 -93.5l-13 -152h293v-286h-315l-19 -211h654v-328h-1137v328h105l18 211h-125v286z" />
    <glyph glyph-name="currency" unicode="&#xa4;" 
d="M86 1114l172 172l164 -164q107 49 199 49q96 0 196 -47l162 162l172 -172l-156 -156q62 -105 62 -213q0 -118 -64 -213l158 -157l-172 -172l-164 164q-109 -50 -199 -50q-92 0 -196 48l-162 -162l-172 172l156 155q-62 100 -62 213q0 115 64 213zM477 743q0 -65 38 -112
t103 -47q64 0 103 46t39 113t-38 113.5t-104 46.5q-64 0 -102.5 -47t-38.5 -113z" />
    <glyph glyph-name="yen" unicode="&#xa5;" 
d="M2 1413h428l197 -498l194 498h414l-346 -676h209v-194h-287v-117h287v-195h-287v-231h-385v231h-287v195h287v117h-287v194h209z" />
    <glyph glyph-name="section" unicode="&#xa7;" horiz-adv-x="1085" 
d="M539 -195q-109 0 -205 29t-177 98t-116 170l344 56q18 -43 63.5 -65.5t96.5 -22.5q50 0 84.5 19.5t34.5 66.5q0 40 -37 61q-43 22 -135 37l-78 12q-69 10 -131 34.5t-114 64t-83 99.5t-31 132q0 173 172 264q-145 92 -145 258q0 89 40.5 161t107.5 116t148 67t167 23
q162 0 292 -74t175 -219l-340 -55q-41 80 -129 80q-45 0 -78 -23q-31 -25 -31 -61q0 -25 16 -43t45.5 -28.5t48.5 -14.5t48 -9l106 -16q71 -11 129 -32t109 -56t79.5 -91.5t28.5 -129.5q0 -185 -180 -279q154 -92 154 -260q0 -92 -42.5 -165t-112.5 -116t-153 -65.5
t-171 -22.5zM522 764q-135 0 -135 -109q0 -96 148 -120l24 -5q6 -2 21 -2q6 -2 16 -2q54 0 85.5 28t31.5 81q0 97 -148 121l-24 4q-3 1 -9.5 2t-9.5 2z" />
    <glyph glyph-name="dieresis" unicode="&#xa8;" horiz-adv-x="1245" 
d="M387 1202q-77 0 -131.5 53.5t-54.5 130.5q0 78 54 131.5t132 53.5q77 0 131.5 -53t54.5 -132q0 -77 -54 -130.5t-132 -53.5zM858 1202q-77 0 -131.5 53.5t-54.5 130.5q0 78 54 131.5t132 53.5q77 0 131.5 -53t54.5 -132q0 -77 -54 -130.5t-132 -53.5z" />
    <glyph glyph-name="copyright" unicode="&#xa9;" horiz-adv-x="1703" 
d="M82 727q0 213 100 389t277 277.5t393 101.5q214 0 390 -99t278 -275.5t102 -393.5q0 -214 -99.5 -390t-276.5 -278t-394 -102q-213 0 -389.5 100t-278.5 277t-102 393zM852 1305q-155 0 -284.5 -78t-203 -210.5t-73.5 -289.5q0 -154 72 -287t202 -213t287 -80
q155 0 284.5 78.5t203 211.5t73.5 290q0 155 -72 287.5t-201.5 211.5t-287.5 79zM455 727q0 177 116 297.5t295 120.5q138 0 241.5 -80t127.5 -215l-264 -41q-30 82 -105 82q-62 0 -93.5 -46.5t-31.5 -111.5q0 -62 33 -107.5t92 -45.5q38 0 67.5 22.5t43.5 59.5l266 -41
q-24 -134 -135 -214.5t-252 -80.5q-175 0 -285 116q-116 110 -116 285z" />
    <glyph glyph-name="ordfeminine" unicode="&#xaa;" horiz-adv-x="917" 
d="M72 854q0 63 28 112.5t75 78.5t103 44t117 15q83 0 140 -23v35q0 44 -25 72q-26 26 -66 26q-28 0 -52.5 -15.5t-33.5 -41.5l-260 37q25 114 127 177t226 63q155 0 259.5 -89.5t104.5 -244.5v-463h-258l-6 84q-32 -52 -91 -78.5t-124 -26.5q-106 0 -185 66.5t-79 171.5z
M352 874q0 -27 22.5 -42t51.5 -15q43 0 76 29t33 72l2 -9l-2 13q-27 16 -80 16q-45 0 -74 -16q-29 -19 -29 -48z" />
    <glyph glyph-name="guillemotleft" unicode="&#xab;" horiz-adv-x="1193" 
d="M41 584l266 401h314l-256 -401l256 -402h-314zM809 182l-266 402l266 401h313l-256 -401l256 -402h-313z" />
    <glyph glyph-name="logicalnot" unicode="&#xac;" 
d="M152 506v319h895v-639h-328v320h-567z" />
    <glyph glyph-name="registered" unicode="&#xae;" horiz-adv-x="1097" 
d="M549 551q-200 0 -333.5 130.5t-133.5 332.5q0 197 133 329t334 132q202 0 334.5 -128t132.5 -333q0 -197 -133.5 -330t-333.5 -133zM217 1014q0 -141 94.5 -237.5t237.5 -96.5q140 0 236 96t96 238q0 140 -95 236t-237 96q-140 0 -236 -95t-96 -237zM369 1251h174
q86 0 143 -37.5t57 -119.5q0 -38 -18 -72q-22 -36 -53 -55l94 -183h-152l-63 144h-12q-23 0 -33 2v-146h-137v467zM543 1137h-37v-95q6 -2 20 -2q6 -2 25 -2q23 0 37 14.5t14 37.5q0 47 -59 47z" />
    <glyph glyph-name="macron" unicode="&#xaf;" horiz-adv-x="1245" 
d="M276 1245v240h693v-240h-693z" />
    <glyph glyph-name="degree" unicode="&#xb0;" horiz-adv-x="792" 
d="M31 1192q0 146 108.5 247t255.5 101q150 0 258.5 -99t108.5 -249q0 -144 -109 -246t-256 -102q-150 0 -258 99.5t-108 248.5zM334 1307q-60 -42 -60 -115q0 -34 16 -66.5t44 -46.5q27 -18 61 -18q35 0 62 18q28 14 43.5 46.5t15.5 66.5q0 74 -59 115q-29 16 -62 16
q-32 0 -61 -16z" />
    <glyph glyph-name="plusminus" unicode="&#xb1;" 
d="M463 659h-293v299h293v259h307v-259h295v-299h-295v-268h-307v268zM190 0v307h854v-307h-854z" />
    <glyph glyph-name="acute" unicode="&#xb4;" horiz-adv-x="1245" 
d="M299 1243l227 293h418l-291 -293h-354z" />
    <glyph glyph-name="paragraph" unicode="&#xb6;" horiz-adv-x="1222" 
d="M61 942q0 129 46.5 228.5t129.5 160.5t190.5 92t236.5 31h67v-1642h-225v634q-203 32 -324 161t-121 335zM1100 -188h-226v1642h226v-1642z" />
    <glyph glyph-name="periodcentered" unicode="&#xb7;" horiz-adv-x="612" 
d="M80 565q0 94 65 161t160 67t160 -65.5t65 -162.5q0 -96 -64.5 -161.5t-160.5 -65.5q-95 0 -160 66t-65 161z" />
    <glyph glyph-name="cedilla" unicode="&#xb8;" horiz-adv-x="1245" 
d="M553 -471q-83 0 -180 33l26 184q54 -20 101 -20q84 0 84 57q0 59 -111 59l72 181h229l-33 -93q60 -24 94.5 -70.5t34.5 -109.5q0 -57 -30.5 -101.5t-79 -69.5t-101.5 -37.5t-106 -12.5z" />
    <glyph glyph-name="ordmasculine" unicode="&#xba;" horiz-adv-x="978" 
d="M489 616q-116 0 -213 50.5t-156 144.5t-59 213q0 177 124 293.5t304 116.5q179 0 304 -115.5t125 -294.5q0 -176 -124.5 -292t-304.5 -116zM354 1024q0 -62 37 -104.5t98 -42.5q63 0 99.5 41.5t36.5 105.5q0 66 -37 109q-41 41 -99 41q-62 0 -98.5 -43.5t-36.5 -106.5z
" />
    <glyph glyph-name="guillemotright" unicode="&#xbb;" horiz-adv-x="1193" 
d="M829 584l-256 401h314l266 -401l-266 -402h-314zM72 182l256 402l-256 401h313l266 -401l-266 -402h-313z" />
    <glyph glyph-name="onequarter" unicode="&#xbc;" horiz-adv-x="1673" 
d="M532 0h-274l903 1413h275zM956 319l308 459h274v-454h72v-187h-72v-137h-229v137h-353v182zM84 1286l238 127h223v-778h-252v520l-137 -74zM1165 324h144v211z" />
    <glyph glyph-name="onehalf" unicode="&#xbd;" horiz-adv-x="1673" 
d="M502 0h-275l903 1413h275zM993 553q10 73 57 130t113.5 85.5t139.5 28.5q118 0 203 -69.5t85 -186.5q0 -149 -182 -293q-9 -7 -27.5 -21t-25.5 -20h250v-207h-598v164q33 28 59 47q21 17 70 59q38 31 63 53t61.5 59.5t56 73t19.5 66.5q0 30 -14 47q-17 17 -39 17
q-23 0 -39 -19q-17 -17 -20 -45zM156 1081l-72 205l238 127h223v-778h-252v520z" />
    <glyph glyph-name="threequarters" unicode="&#xbe;" horiz-adv-x="1673" 
d="M272 0l904 1413h274l-903 -1413h-275zM956 137v182l308 459h274v-454h72v-187h-72v-137h-229v137h-353zM360 616q-72 0 -135 21.5t-112.5 71.5t-63.5 122l225 33q3 -20 27 -31.5t47 -11.5q29 0 51.5 15.5t22.5 42.5q0 26 -19.5 39.5t-46.5 13.5h-75v192h59q25 0 49 17
q19 16 19 37q0 19 -17 36q-16 13 -39 13q-20 0 -39 -12t-22 -31l-228 35q14 99 105 156t199 57q169 0 247 -107q35 -53 35 -117q0 -114 -104 -168q125 -52 125 -180q0 -80 -47 -137t-115 -82t-148 -25zM1309 535l-144 -211h144v211z" />
    <glyph glyph-name="questiondown" unicode="&#xbf;" horiz-adv-x="1112" 
d="M51 51q0 157 97 266.5t255 159.5v119h369v-297q-35 -9 -61 -17t-68 -22.5t-72.5 -32t-60 -40.5t-45.5 -52.5t-16 -62.5q0 -55 39 -87t96 -32q54 0 102 31q45 36 62 88l364 -72q-20 -94 -72.5 -168t-126.5 -120.5t-162 -70.5t-184 -24q-79 0 -153 17t-140 52.5t-115.5 86
t-78.5 122t-29 156.5zM371 895q0 93 62 155t155 62t155 -62t62 -155t-62 -155t-155 -62t-155 62t-62 155z" />
    <glyph glyph-name="Agrave" unicode="&#xc0;" horiz-adv-x="1622" 
d="M20 0l572 1454h436l574 -1454h-428l-91 254h-561l-88 -254h-414zM698 1597l-370 293h469l286 -293h-385zM635 575h336l-168 478z" />
    <glyph glyph-name="Aacute" unicode="&#xc1;" horiz-adv-x="1622" 
d="M20 0l572 1454h436l574 -1454h-428l-91 254h-561l-88 -254h-414zM920 1597h-385l286 293h469zM635 575h336l-168 478z" />
    <glyph glyph-name="Acircumflex" unicode="&#xc2;" horiz-adv-x="1622" 
d="M434 0h-414l572 1454h436l574 -1454h-428l-91 254h-561zM670 1597h-348l309 293h358l309 -293h-360l-133 111zM635 575h336l-168 478z" />
    <glyph glyph-name="Atilde" unicode="&#xc3;" horiz-adv-x="1622" 
d="M434 0h-414l572 1454h436l574 -1454h-428l-91 254h-561zM375 1597q5 63 25 119.5t54 103t88 74t120 27.5q80 0 163 -47q10 -6 62 -35q25 -14 55 -14q60 0 80 84h223q-5 -63 -25 -119.5t-53.5 -103t-87.5 -74t-121 -27.5q-86 0 -163 49q-43 22 -62 33q-25 14 -55 14
q-61 0 -80 -84h-223zM803 1053l-168 -478h336z" />
    <glyph glyph-name="Adieresis" unicode="&#xc4;" horiz-adv-x="1622" 
d="M20 0l572 1454h436l574 -1454h-428l-91 254h-561l-88 -254h-414zM541 1563q-83 0 -141 55t-58 137q0 83 57.5 138t141.5 55q83 0 140.5 -54.5t57.5 -138.5q0 -81 -58 -136.5t-140 -55.5zM879 1755q0 83 57 138t141 55q83 0 141 -55t58 -138q0 -81 -58.5 -136.5
t-140.5 -55.5q-83 0 -140.5 55t-57.5 137zM803 1053l-168 -478h336z" />
    <glyph glyph-name="Aring" unicode="&#xc5;" horiz-adv-x="1622" 
d="M20 0l572 1454h436l574 -1454h-428l-91 254h-561l-88 -254h-414zM809 1540q-110 0 -188 70t-78 180q0 108 77.5 179t188.5 71t188.5 -69.5t77.5 -180.5q0 -108 -77.5 -179t-188.5 -71zM635 575h336l-168 478zM727 1790q0 -34 24 -59t58 -25t58 25t24 59t-24 59t-58 25
t-58 -25t-24 -59z" />
    <glyph glyph-name="AE" unicode="&#xc6;" horiz-adv-x="2142" 
d="M20 0l881 1454h1127v-336h-560v-211h488v-334h-488v-239h582v-334h-971v254h-477l-141 -254h-441zM1079 1108l-297 -533h297v533z" />
    <glyph glyph-name="Ccedilla" unicode="&#xc7;" horiz-adv-x="1548" 
d="M696 -31q-186 28 -328.5 133.5t-219 265t-76.5 349.5q0 158 56 301t153.5 248t238.5 167t303 62q239 0 426 -130.5t244 -358.5l-403 -84q-38 92 -108.5 144t-166.5 52q-101 0 -175.5 -59.5t-109 -147.5t-34.5 -188q0 -101 34.5 -187t109.5 -143t179 -57q197 0 285 196
l403 -83q-40 -166 -157.5 -283t-286.5 -174q-89 -22 -125 -25l-16 -49q59 -27 94 -76t35 -112q0 -59 -30 -105.5t-78.5 -73t-103 -40t-110.5 -13.5q-73 0 -192 35l30 193q57 -21 101 -21q84 0 84 57q0 18 -12 30.5t-31 18.5t-36 8.5t-34 2.5z" />
    <glyph glyph-name="Egrave" unicode="&#xc8;" horiz-adv-x="1196" 
d="M113 1454h968v-336h-579v-211h508v-334h-508v-239h602v-334h-991v1454zM115 1890h469l286 -293h-385z" />
    <glyph glyph-name="Eacute" unicode="&#xc9;" horiz-adv-x="1196" 
d="M113 1454h968v-336h-579v-211h508v-334h-508v-239h602v-334h-991v1454zM707 1597h-385l286 293h469z" />
    <glyph glyph-name="Ecircumflex" unicode="&#xca;" horiz-adv-x="1196" 
d="M113 0v1454h968v-336h-579v-211h508v-334h-508v-239h602v-334h-991zM109 1597l309 293h358l309 -293h-360l-133 111l-135 -111h-348z" />
    <glyph glyph-name="Edieresis" unicode="&#xcb;" horiz-adv-x="1196" 
d="M113 1454h968v-336h-579v-211h508v-334h-508v-239h602v-334h-991v1454zM864 1563q-83 0 -140.5 55t-57.5 137q0 83 57 138t141 55q83 0 141 -55t58 -138q0 -81 -58.5 -136.5t-140.5 -55.5zM328 1563q-83 0 -141 55t-58 137q0 83 57.5 138t141.5 55q83 0 140.5 -54.5
t57.5 -138.5q0 -81 -58 -136.5t-140 -55.5z" />
    <glyph glyph-name="Igrave" unicode="&#xcc;" horiz-adv-x="634" 
d="M113 0v1454h409v-1454h-409zM207 1597l-371 293h469l287 -293h-385z" />
    <glyph glyph-name="Iacute" unicode="&#xcd;" horiz-adv-x="634" 
d="M113 0v1454h409v-1454h-409zM43 1597l287 293h469l-371 -293h-385z" />
    <glyph glyph-name="Icircumflex" unicode="&#xce;" horiz-adv-x="634" 
d="M113 0v1454h409v-1454h-409zM-170 1597l309 293h359l309 -293h-361l-133 111l-135 -111h-348z" />
    <glyph glyph-name="Idieresis" unicode="&#xcf;" horiz-adv-x="634" 
d="M113 1454h409v-1454h-409v1454zM387 1755q0 83 57.5 138t141.5 55q83 0 140.5 -54.5t57.5 -138.5q0 -81 -58 -136.5t-140 -55.5q-83 0 -141 55t-58 137zM49 1563q-83 0 -141 55t-58 137q0 83 57.5 138t141.5 55q83 0 141 -55t58 -138q0 -81 -58.5 -136.5t-140.5 -55.5z
" />
    <glyph glyph-name="Eth" unicode="&#xd0;" horiz-adv-x="1615" 
d="M154 590h-144v299h144v565h618q159 0 299.5 -50t245.5 -141t166 -228.5t61 -303.5q0 -163 -60 -300.5t-164 -231.5t-247 -146.5t-307 -52.5h-612v590zM745 1094h-192v-205h258v-299h-258v-230h192q170 0 272.5 97.5t102.5 269.5q0 169 -101 268t-274 99z" />
    <glyph glyph-name="Ntilde" unicode="&#xd1;" horiz-adv-x="1540" 
d="M502 0h-389v1454h348l577 -850v850h389v-1454h-348l-577 850v-850zM336 1597q5 63 25 119.5t54 103t88 74t120 27.5q80 0 163 -47q10 -6 62 -35q25 -14 55 -14q60 0 80 84h223q-5 -63 -24.5 -119t-53.5 -103t-87.5 -74.5t-120.5 -27.5q-87 0 -164 49q-43 22 -62 33
q-25 14 -55 14q-61 0 -80 -84h-223z" />
    <glyph glyph-name="Ograve" unicode="&#xd2;" horiz-adv-x="1716" 
d="M72 725q0 216 104 393t284.5 277t399.5 100q162 0 306.5 -56.5t250 -156t167 -243.5t61.5 -310q0 -163 -61 -306.5t-166 -245t-251 -160t-311 -58.5q-216 0 -394.5 96.5t-284 272.5t-105.5 397zM496 727q0 -164 99 -277.5t263 -113.5q161 0 262 112.5t101 278.5
q0 164 -99.5 277.5t-263.5 113.5q-161 0 -261.5 -112.5t-100.5 -278.5zM377 1890h469l287 -293h-385z" />
    <glyph glyph-name="Oacute" unicode="&#xd3;" horiz-adv-x="1716" 
d="M856 -41q-216 0 -394.5 96.5t-284 272.5t-105.5 397q0 216 104 393t284.5 277t399.5 100q162 0 306.5 -56.5t250 -156t167 -243.5t61.5 -310q0 -163 -61 -306.5t-166 -245t-251 -160t-311 -58.5zM496 727q0 -164 99 -277.5t263 -113.5q161 0 262 112.5t101 278.5
q0 164 -99.5 277.5t-263.5 113.5q-161 0 -261.5 -112.5t-100.5 -278.5zM584 1597l286 293h469l-370 -293h-385z" />
    <glyph glyph-name="Ocircumflex" unicode="&#xd4;" horiz-adv-x="1716" 
d="M856 -41q-216 0 -394.5 96.5t-284 272.5t-105.5 397q0 216 104 393t284.5 277t399.5 100q162 0 306.5 -56.5t250 -156t167 -243.5t61.5 -310q0 -163 -61 -306.5t-166 -245t-251 -160t-311 -58.5zM858 1118q-161 0 -261.5 -112.5t-100.5 -278.5q0 -164 99 -277.5
t263 -113.5q161 0 262 112.5t101 278.5q0 164 -99.5 277.5t-263.5 113.5zM371 1597l309 293h358l310 -293h-361l-133 111l-135 -111h-348z" />
    <glyph glyph-name="Otilde" unicode="&#xd5;" horiz-adv-x="1716" 
d="M856 -41q-216 0 -394.5 96.5t-284 272.5t-105.5 397q0 216 104 393t284.5 277t399.5 100q162 0 306.5 -56.5t250 -156t167 -243.5t61.5 -310q0 -163 -61 -306.5t-166 -245t-251 -160t-311 -58.5zM496 727q0 -164 99 -277.5t263 -113.5q161 0 262 112.5t101 278.5
q0 164 -99.5 277.5t-263.5 113.5q-161 0 -261.5 -112.5t-100.5 -278.5zM647 1597h-223q5 63 25 119.5t54 103t88 74t120 27.5q80 0 163 -47q10 -6 62 -35q25 -14 55 -14q60 0 80 84h223q-5 -63 -24.5 -119t-53.5 -103t-87.5 -74.5t-120.5 -27.5q-87 0 -164 49q-43 22 -62 33
q-25 14 -55 14q-61 0 -80 -84z" />
    <glyph glyph-name="Odieresis" unicode="&#xd6;" horiz-adv-x="1716" 
d="M72 725q0 216 104 393t284.5 277t399.5 100q162 0 306.5 -56.5t250 -156t167 -243.5t61.5 -310q0 -163 -61 -306.5t-166 -245t-251 -160t-311 -58.5q-216 0 -394.5 96.5t-284 272.5t-105.5 397zM858 1118q-161 0 -261.5 -112.5t-100.5 -278.5q0 -164 99 -277.5
t263 -113.5q161 0 262 112.5t101 278.5q0 164 -99.5 277.5t-263.5 113.5zM391 1755q0 83 57.5 138t141.5 55q83 0 140.5 -54.5t57.5 -138.5q0 -81 -58 -136.5t-140 -55.5q-83 0 -141 55t-58 137zM1126 1563q-83 0 -140.5 55t-57.5 137q0 83 57 138t141 55q83 0 141 -55
t58 -138q0 -81 -58.5 -136.5t-140.5 -55.5z" />
    <glyph glyph-name="multiply" unicode="&#xd7;" 
d="M164 315l246 246l-246 248l207 209l247 -248l248 248l207 -209l-246 -248l246 -246l-207 -209l-248 248l-247 -248z" />
    <glyph glyph-name="Oslash" unicode="&#xd8;" horiz-adv-x="1716" 
d="M72 733q0 216 103 391t282 273t399 98q200 0 361 -80l83 111h324l-197 -260q107 -107 162.5 -248t55.5 -297q0 -162 -60.5 -304t-165 -242.5t-250 -158t-309.5 -57.5q-199 0 -360 80l-84 -111h-324l197 260q-106 106 -161.5 248t-55.5 297zM862 1135q-175 0 -279 -116.5
t-104 -295.5q0 -63 15 -115q12 -56 36 -102l459 608q-58 21 -127 21zM1186 948l-459 -608q58 -21 127 -21q174 0 278.5 116.5t104.5 295.5q0 61 -12 117q-16 55 -39 100z" />
    <glyph glyph-name="Ugrave" unicode="&#xd9;" horiz-adv-x="1540" 
d="M102 608v846h410v-827q0 -124 67.5 -207.5t190.5 -83.5t190.5 81.5t67.5 209.5v827h410v-846q0 -297 -182.5 -473t-487.5 -176q-195 0 -345 76t-235.5 224t-85.5 349zM289 1890h469l286 -293h-385z" />
    <glyph glyph-name="Uacute" unicode="&#xda;" horiz-adv-x="1540" 
d="M102 608v846h410v-827q0 -124 67.5 -207.5t190.5 -83.5t190.5 81.5t67.5 209.5v827h410v-846q0 -297 -182.5 -473t-487.5 -176q-195 0 -345 76t-235.5 224t-85.5 349zM881 1597h-385l286 293h469z" />
    <glyph glyph-name="Ucircumflex" unicode="&#xdb;" horiz-adv-x="1540" 
d="M102 608v846h410v-827q0 -124 67.5 -207.5t190.5 -83.5t190.5 81.5t67.5 209.5v827h410v-846q0 -297 -182.5 -473t-487.5 -176q-195 0 -345 76t-235.5 224t-85.5 349zM631 1597h-348l309 293h358l310 -293h-361l-133 111z" />
    <glyph glyph-name="Udieresis" unicode="&#xdc;" horiz-adv-x="1540" 
d="M102 1454h410v-827q0 -124 67.5 -207.5t190.5 -83.5t190.5 81.5t67.5 209.5v827h410v-846q0 -297 -182.5 -473t-487.5 -176q-195 0 -345 76t-235.5 224t-85.5 349v846zM502 1563q-83 0 -141 55t-58 137q0 83 57.5 138t141.5 55q83 0 140.5 -54.5t57.5 -138.5
q0 -81 -58 -136.5t-140 -55.5zM840 1755q0 83 57 138t141 55q83 0 141 -55t58 -138q0 -81 -58.5 -136.5t-140.5 -55.5q-83 0 -140.5 55t-57.5 137z" />
    <glyph glyph-name="Yacute" unicode="&#xdd;" horiz-adv-x="1437" 
d="M514 555l-504 899h453l264 -543l262 543h438l-503 -899v-555h-410v555zM444 1597l287 293h469l-371 -293h-385z" />
    <glyph glyph-name="Thorn" unicode="&#xde;" horiz-adv-x="1273" 
d="M113 1454h389v-215h129q126 0 231.5 -28.5t190 -87t132.5 -159t48 -233.5q0 -121 -47 -219t-128 -161t-187 -96.5t-226 -33.5q-67 0 -143 12v-233h-389v1454zM502 913v-354q74 -12 131 -12q92 0 147.5 46.5t55.5 135.5q0 93 -56 138.5t-151 45.5h-127z" />
    <glyph glyph-name="germandbls" unicode="&#xdf;" horiz-adv-x="1300" 
d="M475 0h-383v1028q0 239 149.5 389t393.5 150q97 0 189.5 -28t168.5 -80.5t122 -136.5t46 -187q0 -94 -43.5 -176t-120.5 -138q71 -24 127 -80q115 -130 115 -299q0 -137 -69.5 -243.5t-184.5 -162.5t-252 -56q-86 0 -176 22l45 307q42 -10 78 -10q75 0 122.5 48.5
t47.5 125.5q0 79 -53 129q-56 47 -148 47h-57v297h37q43 0 78 21q75 40 75 123q0 64 -40.5 102.5t-104.5 38.5q-80 0 -121 -55t-41 -138v-1038z" />
    <glyph glyph-name="agrave" unicode="&#xe0;" horiz-adv-x="1171" 
d="M41 307q0 90 40 160.5t106.5 112.5t146 63t166.5 21q117 0 207 -37v53q0 69 -38 113.5t-106 44.5q-47 0 -86 -25q-35 -25 -51 -68l-346 54q16 79 66 144t119 105.5t148 62.5t158 22q105 0 197 -32.5t161.5 -92t109.5 -150t40 -199.5v-659h-344l-10 129
q-40 -80 -124.5 -120t-182.5 -40t-183 40t-139.5 118.5t-54.5 179.5zM170 1536h418l227 -293h-354zM416 334q0 -43 37 -69.5t82 -26.5q71 0 121.5 45.5t50.5 115.5v13q-64 28 -132 28q-28 0 -54 -5t-50.5 -16t-39.5 -33t-15 -52z" />
    <glyph glyph-name="aacute" unicode="&#xe1;" horiz-adv-x="1171" 
d="M41 307q0 90 40 160.5t106.5 112.5t146 63t166.5 21q117 0 207 -37v53q0 69 -38 113.5t-106 44.5q-47 0 -86 -25q-35 -25 -51 -68l-346 54q16 79 66 144t119 105.5t148 62.5t158 22q105 0 197 -32.5t161.5 -92t109.5 -150t40 -199.5v-659h-344l-10 129
q-40 -80 -124.5 -120t-182.5 -40t-183 40t-139.5 118.5t-54.5 179.5zM709 1243h-355l228 293h417zM416 334q0 -43 37 -69.5t82 -26.5q71 0 121.5 45.5t50.5 115.5v13q-64 28 -132 28q-28 0 -54 -5t-50.5 -16t-39.5 -33t-15 -52z" />
    <glyph glyph-name="acircumflex" unicode="&#xe2;" horiz-adv-x="1171" 
d="M41 307q0 90 40 160.5t106.5 112.5t146 63t166.5 21q117 0 207 -37v53q0 69 -38 113.5t-106 44.5q-47 0 -86 -25q-35 -25 -51 -68l-346 54q16 79 66 144t119 105.5t148 62.5t158 22q105 0 197 -32.5t161.5 -92t109.5 -150t40 -199.5v-659h-344l-10 129
q-40 -80 -124.5 -120t-182.5 -40t-183 40t-139.5 118.5t-54.5 179.5zM147 1243l289 293h297l289 -293h-320l-122 105l-125 -105h-308zM575 440q-28 0 -54 -5t-50.5 -16t-39.5 -33t-15 -52q0 -43 37 -69.5t82 -26.5q71 0 121.5 45.5t50.5 115.5v13q-64 28 -132 28z" />
    <glyph glyph-name="atilde" unicode="&#xe3;" horiz-adv-x="1171" 
d="M41 307q0 90 40 160.5t106.5 112.5t146 63t166.5 21q117 0 207 -37v53q0 69 -38 113.5t-106 44.5q-47 0 -86 -25q-35 -25 -51 -68l-346 54q16 79 66 144t119 105.5t148 62.5t158 22q105 0 197 -32.5t161.5 -92t109.5 -150t40 -199.5v-659h-344l-10 129
q-40 -80 -124.5 -120t-182.5 -40t-183 40t-139.5 118.5t-54.5 179.5zM201 1245q6 57 22.5 108t45.5 96.5t76.5 72t107.5 26.5q45 0 79 -12q31 -13 66 -31q27 -15 53 -28q24 -15 49 -15q53 0 66 74h203q-6 -58 -22 -109t-44.5 -96t-76 -71.5t-109.5 -26.5q-48 0 -80 14
q-50 17 -119 60q-24 12 -49 12q-53 0 -66 -74h-202zM575 440q-28 0 -54 -5t-50.5 -16t-39.5 -33t-15 -52q0 -43 37 -69.5t82 -26.5q71 0 121.5 45.5t50.5 115.5v13q-64 28 -132 28z" />
    <glyph glyph-name="adieresis" unicode="&#xe4;" horiz-adv-x="1171" 
d="M418 -31q-98 0 -183 40t-139.5 118.5t-54.5 179.5q0 90 40 160.5t106.5 112.5t146 63t166.5 21q117 0 207 -37v53q0 69 -38 113.5t-106 44.5q-47 0 -86 -25q-35 -25 -51 -68l-346 54q16 79 66 144t119 105.5t148 62.5t158 22q105 0 197 -32.5t161.5 -92t109.5 -150
t40 -199.5v-659h-344l-10 129q-40 -80 -124.5 -120t-182.5 -40zM162 1386q0 78 54 131.5t132 53.5q77 0 132 -53t55 -132q0 -77 -54.5 -130.5t-132.5 -53.5q-77 0 -131.5 53.5t-54.5 130.5zM633 1386q0 78 54 131.5t132 53.5q77 0 132 -53t55 -132q0 -77 -54.5 -130.5
t-132.5 -53.5q-77 0 -131.5 53.5t-54.5 130.5zM416 334q0 -43 37 -69.5t82 -26.5q71 0 121.5 45.5t50.5 115.5v13q-64 28 -132 28q-28 0 -54 -5t-50.5 -16t-39.5 -33t-15 -52z" />
    <glyph glyph-name="aring" unicode="&#xe5;" horiz-adv-x="1171" 
d="M418 -31q-98 0 -183 40t-139.5 118.5t-54.5 179.5q0 90 40 160.5t106.5 112.5t146 63t166.5 21q117 0 207 -37v53q0 69 -38 113.5t-106 44.5q-47 0 -86 -25q-35 -25 -51 -68l-346 54q16 79 66 144t119 105.5t148 62.5t158 22q105 0 197 -32.5t161.5 -92t109.5 -150
t40 -199.5v-659h-344l-10 129q-40 -80 -124.5 -120t-182.5 -40zM584 1188q-104 0 -180 68t-76 171q0 104 75 172t181 68q107 0 181.5 -67t74.5 -173q0 -104 -75 -171.5t-181 -67.5zM575 440q-28 0 -54 -5t-50.5 -16t-39.5 -33t-15 -52q0 -43 37 -69.5t82 -26.5
q71 0 121.5 45.5t50.5 115.5v13q-64 28 -132 28zM502 1427q0 -34 24 -59t58 -25t58 25t24 59t-24 59t-58 25t-58 -25t-24 -59z" />
    <glyph glyph-name="ae" unicode="&#xe6;" horiz-adv-x="1826" 
d="M41 307q0 72 25 131.5t67 100.5t99 70t121 42t132 13q115 0 201 -37v53q0 66 -34.5 112t-98.5 46q-44 0 -81 -26t-46 -67l-346 54q22 103 98.5 181t176.5 115.5t206 37.5q202 0 326 -138q150 138 356 138q126 0 228.5 -48.5t168.5 -132t101 -193t35 -235.5v-69h-715
q15 -77 61 -129t119 -52q99 0 164 95l350 -78q-65 -152 -205 -237t-311 -85q-119 0 -224.5 49t-178.5 140q-54 -94 -157.5 -141.5t-221.5 -47.5q-75 0 -148 22.5t-133.5 63.5t-97.5 106.5t-37 145.5zM1057 684h323q-31 176 -157 176q-71 0 -111.5 -50t-54.5 -126zM565 440
q-60 0 -104.5 -25.5t-44.5 -80.5q0 -41 34 -68.5t76 -27.5q67 0 113.5 46.5t46.5 114.5v13q-65 28 -121 28z" />
    <glyph glyph-name="ccedilla" unicode="&#xe7;" horiz-adv-x="1210" 
d="M520 -23q-206 43 -332.5 197t-126.5 367q0 162 73 297t206.5 215t298.5 80q194 0 338 -111.5t182 -300.5l-360 -55q-18 51 -64 90q-44 30 -94 30q-90 0 -140 -71.5t-50 -165.5q0 -93 49.5 -163.5t140.5 -70.5q58 0 103 32.5t65 88.5l360 -55q-27 -136 -119.5 -236.5
t-228.5 -146.5q-50 -13 -67 -16l-19 -52q60 -24 94.5 -70.5t34.5 -109.5q0 -57 -30.5 -101.5t-79 -69.5t-101.5 -37.5t-106 -12.5q-83 0 -180 33l26 184q54 -20 101 -20q84 0 84 57q0 59 -111 59z" />
    <glyph glyph-name="egrave" unicode="&#xe8;" horiz-adv-x="1239" 
d="M631 -31q-251 0 -410.5 165t-159.5 421q0 159 71 290.5t201 209.5t292 78q131 0 237.5 -45.5t177.5 -126.5t109.5 -192.5t38.5 -244.5v-69h-735q16 -81 63.5 -131t126.5 -50q109 0 174 95l350 -78q-62 -153 -211.5 -237.5t-324.5 -84.5zM211 1536h418l227 -293h-354z
M625 860q-75 0 -119 -49t-57 -127h344q-30 176 -168 176z" />
    <glyph glyph-name="eacute" unicode="&#xe9;" horiz-adv-x="1239" 
d="M631 -31q-251 0 -410.5 165t-159.5 421q0 159 71 290.5t201 209.5t292 78q131 0 237.5 -45.5t177.5 -126.5t109.5 -192.5t38.5 -244.5v-69h-735q16 -81 63.5 -131t126.5 -50q109 0 174 95l350 -78q-62 -153 -211.5 -237.5t-324.5 -84.5zM750 1243h-355l228 293h417z
M625 860q-75 0 -119 -49t-57 -127h344q-30 176 -168 176z" />
    <glyph glyph-name="ecircumflex" unicode="&#xea;" horiz-adv-x="1239" 
d="M631 -31q-251 0 -410.5 165t-159.5 421q0 159 71 290.5t201 209.5t292 78q131 0 237.5 -45.5t177.5 -126.5t109.5 -192.5t38.5 -244.5v-69h-735q16 -81 63.5 -131t126.5 -50q109 0 174 95l350 -78q-62 -153 -211.5 -237.5t-324.5 -84.5zM496 1243h-308l289 293h297
l289 -293h-320l-122 105zM625 860q-75 0 -119 -49t-57 -127h344q-30 176 -168 176z" />
    <glyph glyph-name="edieresis" unicode="&#xeb;" horiz-adv-x="1239" 
d="M61 555q0 159 71 290.5t201 209.5t292 78q131 0 237.5 -45.5t177.5 -126.5t109.5 -192.5t38.5 -244.5v-69h-735q16 -81 63.5 -131t126.5 -50q109 0 174 95l350 -78q-62 -153 -211.5 -237.5t-324.5 -84.5q-251 0 -410.5 165t-159.5 421zM203 1386q0 78 54 131.5t132 53.5
q77 0 131.5 -53t54.5 -132q0 -77 -54 -130.5t-132 -53.5q-77 0 -131.5 53.5t-54.5 130.5zM674 1386q0 78 54 131.5t132 53.5q77 0 132 -53t55 -132q0 -77 -54.5 -130.5t-132.5 -53.5q-77 0 -131.5 53.5t-54.5 130.5zM625 860q-75 0 -119 -49t-57 -127h344q-30 176 -168 176z
" />
    <glyph glyph-name="igrave" unicode="&#xec;" horiz-adv-x="567" 
d="M92 0v1102h383v-1102h-383zM160 1243l-291 293h418l227 -293h-354z" />
    <glyph glyph-name="iacute" unicode="&#xed;" horiz-adv-x="567" 
d="M92 0v1102h383v-1102h-383zM53 1243l228 293h417l-290 -293h-355z" />
    <glyph glyph-name="icircumflex" unicode="&#xee;" horiz-adv-x="567" 
d="M92 0v1102h383v-1102h-383zM-154 1243l289 293h297l289 -293h-320l-122 105l-125 -105h-308z" />
    <glyph glyph-name="idieresis" unicode="&#xef;" horiz-adv-x="567" 
d="M92 1102h383v-1102h-383v1102zM47 1202q-77 0 -131.5 53.5t-54.5 130.5q0 78 54 131.5t132 53.5q77 0 131.5 -53t54.5 -132q0 -77 -54 -130.5t-132 -53.5zM332 1386q0 78 54 131.5t132 53.5q77 0 132 -53t55 -132q0 -77 -54.5 -130.5t-132.5 -53.5q-77 0 -131.5 53.5
t-54.5 130.5z" />
    <glyph glyph-name="eth" unicode="&#xf0;" horiz-adv-x="1318" 
d="M645 -31q-161 0 -293.5 70t-211.5 199.5t-79 293.5q0 142 62.5 267t179.5 203.5t262 78.5q152 0 254 -92q-50 105 -139 221l-201 -88l-78 172l150 66q-77 80 -156 139l381 80q42 -29 94 -78l168 74l78 -172l-115 -51q119 -161 187.5 -353t68.5 -381q0 -137 -41 -255.5
t-117.5 -206t-193.5 -137.5t-260 -50zM451 543q0 -61 27 -115t77 -82q48 -31 107 -31q93 0 149.5 66.5t56.5 161.5q0 94 -56 159.5t-150 65.5q-92 0 -151.5 -65.5t-59.5 -159.5z" />
    <glyph glyph-name="ntilde" unicode="&#xf1;" horiz-adv-x="1245" 
d="M92 0v1102h354l11 -150q102 181 315 181q95 0 169.5 -37.5t120 -102t68.5 -146t23 -175.5v-672h-383v614q0 72 -34 122t-103 50q-70 0 -114 -50t-44 -122v-614h-383zM240 1245q6 57 22.5 108t45.5 96.5t76.5 72t107.5 26.5q44 0 79 -12q31 -13 66 -31q27 -15 53 -28
q24 -15 49 -15q53 0 66 74h203q-6 -58 -22 -109t-44.5 -96t-76 -71.5t-109.5 -26.5q-48 0 -80 14q-50 17 -119 60q-24 12 -49 12q-53 0 -66 -74h-202z" />
    <glyph glyph-name="ograve" unicode="&#xf2;" horiz-adv-x="1318" 
d="M61 549q0 166 79.5 300t217.5 209t306 75q163 0 298.5 -73.5t215 -207t79.5 -299.5t-79 -300t-217 -209t-306 -75q-162 0 -297.5 73.5t-216 207.5t-80.5 299zM451 551q0 -95 57.5 -165.5t150.5 -70.5t151 70t58 166t-57 165.5t-152 69.5q-92 0 -150 -69.5t-58 -165.5z
M246 1536h418l227 -293h-354z" />
    <glyph glyph-name="oacute" unicode="&#xf3;" horiz-adv-x="1318" 
d="M655 -31q-162 0 -297.5 73.5t-216 207.5t-80.5 299q0 166 79.5 300t217.5 209t306 75q163 0 298.5 -73.5t215 -207t79.5 -299.5t-79 -300t-217 -209t-306 -75zM659 786q-92 0 -150 -69.5t-58 -165.5q0 -95 57.5 -165.5t150.5 -70.5t151 70t58 166t-57 165.5t-152 69.5z
M784 1243h-354l227 293h418z" />
    <glyph glyph-name="ocircumflex" unicode="&#xf4;" horiz-adv-x="1318" 
d="M655 -31q-162 0 -297.5 73.5t-216 207.5t-80.5 299q0 166 79.5 300t217.5 209t306 75q163 0 298.5 -73.5t215 -207t79.5 -299.5t-79 -300t-217 -209t-306 -75zM451 551q0 -95 57.5 -165.5t150.5 -70.5t151 70t58 166t-57 165.5t-152 69.5q-92 0 -150 -69.5t-58 -165.5z
M223 1243l289 293h297l289 -293h-320l-123 105l-125 -105h-307z" />
    <glyph glyph-name="otilde" unicode="&#xf5;" horiz-adv-x="1318" 
d="M61 549q0 166 79.5 300t217.5 209t306 75q163 0 298.5 -73.5t215 -207t79.5 -299.5t-79 -300t-217 -209t-306 -75q-162 0 -297.5 73.5t-216 207.5t-80.5 299zM479 1245h-203q6 57 22.5 108t45.5 96.5t76.5 72t107.5 26.5q46 0 80 -12q31 -13 66 -31q27 -15 53 -28
q24 -15 49 -15q53 0 66 74h202q-6 -58 -21.5 -109t-44 -96t-76 -71.5t-109.5 -26.5q-48 0 -80 14q-50 17 -119 60q-24 12 -49 12q-53 0 -66 -74zM659 786q-92 0 -150 -69.5t-58 -165.5q0 -95 57.5 -165.5t150.5 -70.5t151 70t58 166t-57 165.5t-152 69.5z" />
    <glyph glyph-name="odieresis" unicode="&#xf6;" horiz-adv-x="1318" 
d="M655 -31q-162 0 -297.5 73.5t-216 207.5t-80.5 299q0 166 79.5 300t217.5 209t306 75q163 0 298.5 -73.5t215 -207t79.5 -299.5t-79 -300t-217 -209t-306 -75zM659 786q-92 0 -150 -69.5t-58 -165.5q0 -95 57.5 -165.5t150.5 -70.5t151 70t58 166t-57 165.5t-152 69.5z
M895 1202q-77 0 -131.5 53.5t-54.5 130.5q0 78 54 131.5t132 53.5q77 0 131.5 -53t54.5 -132q0 -77 -54 -130.5t-132 -53.5zM238 1386q0 78 54 131.5t132 53.5q77 0 131.5 -53t54.5 -132q0 -77 -54 -130.5t-132 -53.5q-77 0 -131.5 53.5t-54.5 130.5z" />
    <glyph glyph-name="divide" unicode="&#xf7;" 
d="M150 713h937v-299h-937v299zM457 176q0 68 46.5 116t114.5 48q70 0 116 -46.5t46 -117.5q0 -68 -47 -116t-115 -48q-67 0 -114 48t-47 116zM618 786q-67 0 -114 48t-47 116t46.5 116t114.5 48q70 0 116 -46.5t46 -117.5q0 -68 -47 -116t-115 -48z" />
    <glyph glyph-name="oslash" unicode="&#xf8;" horiz-adv-x="1318" 
d="M61 559q0 161 80.5 293t217.5 206.5t298 74.5q145 0 256 -54l54 74h276l-147 -201q78 -78 119.5 -186t41.5 -223q0 -161 -80 -293t-216.5 -206.5t-298.5 -74.5q-145 0 -256 54l-54 -74h-276l147 201q-78 78 -120 186t-42 223zM883 666l-281 -379q27 -6 55 -6
q110 0 177 80.5t67 193.5q0 59 -18 111zM662 821q-110 0 -177 -79.5t-67 -192.5q0 -59 18 -111l281 377q-27 6 -55 6z" />
    <glyph glyph-name="ugrave" unicode="&#xf9;" 
d="M92 502v600h383v-608q0 -77 36.5 -128t109.5 -51t107 51t34 128v608h383v-600q0 -237 -145.5 -385t-387.5 -148q-238 0 -379 145t-141 388zM205 1536h418l227 -293h-354z" />
    <glyph glyph-name="uacute" unicode="&#xfa;" 
d="M92 502v600h383v-608q0 -77 36.5 -128t109.5 -51t107 51t34 128v608h383v-600q0 -237 -145.5 -385t-387.5 -148q-238 0 -379 145t-141 388zM743 1243h-354l227 293h418z" />
    <glyph glyph-name="ucircumflex" unicode="&#xfb;" 
d="M92 502v600h383v-608q0 -77 36.5 -128t109.5 -51t107 51t34 128v608h383v-600q0 -237 -145.5 -385t-387.5 -148q-238 0 -379 145t-141 388zM182 1243l289 293h297l289 -293h-320l-123 105l-125 -105h-307z" />
    <glyph glyph-name="udieresis" unicode="&#xfc;" 
d="M92 1102h383v-608q0 -77 36.5 -128t109.5 -51t107 51t34 128v608h383v-600q0 -237 -145.5 -385t-387.5 -148q-238 0 -379 145t-141 388v600zM197 1386q0 78 54 131.5t132 53.5q77 0 131.5 -53t54.5 -132q0 -77 -54 -130.5t-132 -53.5q-77 0 -131.5 53.5t-54.5 130.5z
M668 1386q0 78 54 131.5t132 53.5q77 0 131.5 -53t54.5 -132q0 -77 -54 -130.5t-132 -53.5q-77 0 -131.5 53.5t-54.5 130.5z" />
    <glyph glyph-name="yacute" unicode="&#xfd;" horiz-adv-x="1210" 
d="M10 1102h414l203 -717l174 717h399l-424 -1155q-42 -111 -94.5 -185t-138.5 -119.5t-201 -45.5q-134 0 -229 53l61 282q72 -26 123 -26q56 0 91 26t61 80zM729 1243h-354l227 293h418z" />
    <glyph glyph-name="thorn" unicode="&#xfe;" horiz-adv-x="1341" 
d="M92 1536h383v-561q57 76 140.5 117t179.5 41q110 0 203.5 -49.5t154 -131t94 -183.5t33.5 -210q0 -89 -22 -174.5t-66 -160.5t-104.5 -132t-143 -90t-176.5 -33q-184 0 -293 135v-487h-383v1919zM680 784q-93 0 -150 -69t-57 -166q0 -96 56.5 -166t150.5 -70q95 0 153 69
t58 167q0 97 -57.5 166t-153.5 69z" />
    <glyph glyph-name="ydieresis" unicode="&#xff;" horiz-adv-x="1210" 
d="M10 1102h414l203 -717l174 717h399l-424 -1155q-42 -111 -94.5 -185t-138.5 -119.5t-201 -45.5q-134 0 -229 53l61 282q72 -26 123 -26q56 0 91 26t61 80zM653 1386q0 78 54.5 131.5t132.5 53.5q77 0 131.5 -53t54.5 -132q0 -77 -54 -130.5t-132 -53.5q-77 0 -132 53.5
t-55 130.5zM369 1202q-77 0 -132 53.5t-55 130.5q0 78 54.5 131.5t132.5 53.5q77 0 131.5 -53t54.5 -132q0 -77 -54 -130.5t-132 -53.5z" />
    <glyph glyph-name="Amacron" unicode="&#x100;" horiz-adv-x="1622" 
d="M20 0l572 1454h436l574 -1454h-428l-91 254h-561l-88 -254h-414zM412 1608v260h794v-260h-794zM635 575h336l-168 478z" />
    <glyph glyph-name="amacron" unicode="&#x101;" horiz-adv-x="1171" 
d="M418 -31q-98 0 -183 40t-139.5 118.5t-54.5 179.5q0 90 40 160.5t106.5 112.5t146 63t166.5 21q117 0 207 -37v53q0 69 -38 113.5t-106 44.5q-47 0 -86 -25q-35 -25 -51 -68l-346 54q16 79 66 144t119 105.5t148 62.5t158 22q105 0 197 -32.5t161.5 -92t109.5 -150
t40 -199.5v-659h-344l-10 129q-40 -80 -124.5 -120t-182.5 -40zM238 1485h692v-240h-692v240zM575 440q-28 0 -54 -5t-50.5 -16t-39.5 -33t-15 -52q0 -43 37 -69.5t82 -26.5q71 0 121.5 45.5t50.5 115.5v13q-64 28 -132 28z" />
    <glyph glyph-name="Abreve" unicode="&#x102;" horiz-adv-x="1622" 
d="M434 0h-414l572 1454h436l574 -1454h-428l-91 254h-561zM809 1587q-158 0 -275 86t-145 238h293q9 -48 43.5 -76.5t83.5 -28.5t83.5 28.5t43.5 76.5h293q-29 -152 -145 -238t-275 -86zM803 1053l-168 -478h336z" />
    <glyph glyph-name="abreve" unicode="&#x103;" horiz-adv-x="1171" 
d="M41 307q0 90 40 160.5t106.5 112.5t146 63t166.5 21q117 0 207 -37v53q0 69 -38 113.5t-106 44.5q-47 0 -86 -25q-35 -25 -51 -68l-346 54q16 79 66 144t119 105.5t148 62.5t158 22q105 0 197 -32.5t161.5 -92t109.5 -150t40 -199.5v-659h-344l-10 129
q-40 -80 -124.5 -120t-182.5 -40t-183 40t-139.5 118.5t-54.5 179.5zM195 1536h262q9 -44 45 -66q34 -24 82 -24q50 0 84 24q34 20 43 66h262q-24 -140 -132.5 -219.5t-256.5 -79.5q-146 0 -255.5 78.5t-133.5 220.5zM575 440q-28 0 -54 -5t-50.5 -16t-39.5 -33t-15 -52
q0 -43 37 -69.5t82 -26.5q71 0 121.5 45.5t50.5 115.5v13q-64 28 -132 28z" />
    <glyph glyph-name="Aogonek" unicode="&#x104;" horiz-adv-x="1622" 
d="M434 0h-414l572 1454h436l574 -1454q-86 -75 -127 -125q-39 -45 -39 -78q0 -31 21 -47t52 -16q43 0 84 18l21 -194q-104 -39 -203 -39q-51 0 -96.5 9.5t-87 30t-66 60.5t-24.5 94q0 44 16.5 86t47.5 79t60.5 64t69.5 58h-157l-91 254h-561zM803 1053l-168 -478h336z" />
    <glyph glyph-name="aogonek" unicode="&#x105;" horiz-adv-x="1171" 
d="M416 334q0 -43 37 -69.5t82 -26.5q71 0 121.5 45.5t50.5 115.5v13q-64 28 -132 28q-28 0 -54 -5t-50.5 -16t-39.5 -33t-15 -52zM893 -471q-49 0 -93.5 9.5t-85 30.5t-65 59.5t-24.5 90.5q0 132 194 281h-84l-10 129q-40 -80 -124.5 -120t-182.5 -40t-183 40t-139.5 118.5
t-54.5 179.5q0 90 40 160.5t106.5 112.5t146 63t166.5 21q117 0 207 -37v53q0 69 -38 113.5t-106 44.5q-47 0 -86 -25q-35 -25 -51 -68l-346 54q16 79 66 144t119 105.5t148 62.5t158 22q105 0 197 -32.5t161.5 -92t109.5 -150t40 -199.5v-659q-86 -75 -127 -125
q-39 -45 -39 -78q0 -31 21.5 -47t52.5 -16q52 0 84 18l21 -184q-82 -39 -199 -39z" />
    <glyph glyph-name="Cacute" unicode="&#x106;" horiz-adv-x="1548" 
d="M72 717q0 158 56 301t153.5 248t238.5 167t303 62q239 0 426 -130.5t244 -358.5l-403 -84q-38 92 -108.5 144t-166.5 52q-101 0 -175.5 -59.5t-109 -147.5t-34.5 -188q0 -101 34.5 -187t109.5 -143t179 -57q197 0 285 196l403 -83q-57 -230 -248 -360t-438 -130
q-212 0 -383.5 97.5t-268.5 271t-97 389.5zM545 1597l286 293h469l-370 -293h-385z" />
    <glyph glyph-name="cacute" unicode="&#x107;" horiz-adv-x="1210" 
d="M61 541q0 162 73 297t206.5 215t298.5 80q194 0 338 -111.5t182 -300.5l-360 -55q-18 51 -64 90q-44 30 -94 30q-90 0 -140 -71.5t-50 -165.5q0 -93 49.5 -163.5t140.5 -70.5q58 0 103 32.5t65 88.5l360 -55q-25 -126 -104.5 -220.5t-192.5 -143t-243 -48.5
q-157 0 -287.5 74.5t-205.5 206t-75 291.5zM410 1243l227 293h418l-291 -293h-354z" />
    <glyph glyph-name="Cdotaccent" unicode="&#x10a;" horiz-adv-x="1548" 
d="M821 -41q-212 0 -383.5 97.5t-268.5 271t-97 389.5q0 158 56 301t153.5 248t238.5 167t303 62q239 0 426 -130.5t244 -358.5l-403 -84q-38 92 -108.5 144t-166.5 52q-101 0 -175.5 -59.5t-109 -147.5t-34.5 -188q0 -101 34.5 -187t109.5 -143t179 -57q197 0 285 196
l403 -83q-57 -230 -248 -360t-438 -130zM819 1563q-88 0 -150.5 59t-62.5 147q0 89 61.5 148t151.5 59q91 0 153 -57.5t62 -149.5q0 -90 -61.5 -148t-153.5 -58z" />
    <glyph glyph-name="cdotaccent" unicode="&#x10b;" horiz-adv-x="1210" 
d="M61 541q0 162 73 297t206.5 215t298.5 80q194 0 338 -111.5t182 -300.5l-360 -55q-18 51 -64 90q-44 30 -94 30q-90 0 -140 -71.5t-50 -165.5q0 -93 49.5 -163.5t140.5 -70.5q58 0 103 32.5t65 88.5l360 -55q-25 -126 -104.5 -220.5t-192.5 -143t-243 -48.5
q-157 0 -287.5 74.5t-205.5 206t-75 291.5zM639 1210q-85 0 -144 56t-59 141q0 86 58 141.5t145 55.5q86 0 145.5 -55.5t59.5 -141.5q0 -85 -59 -141t-146 -56z" />
    <glyph glyph-name="Ccaron" unicode="&#x10c;" horiz-adv-x="1548" 
d="M821 -41q-212 0 -383.5 97.5t-268.5 271t-97 389.5q0 158 56 301t153.5 248t238.5 167t303 62q239 0 426 -130.5t244 -358.5l-403 -84q-38 92 -108.5 144t-166.5 52q-101 0 -175.5 -59.5t-109 -147.5t-34.5 -188q0 -101 34.5 -187t109.5 -143t179 -57q197 0 285 196
l403 -83q-57 -230 -248 -360t-438 -130zM641 1597l-309 293h360l133 -110l136 110h348l-310 -293h-358z" />
    <glyph glyph-name="ccaron" unicode="&#x10d;" horiz-adv-x="1210" 
d="M61 541q0 162 73 297t206.5 215t298.5 80q194 0 338 -111.5t182 -300.5l-360 -55q-18 51 -64 90q-44 30 -94 30q-90 0 -140 -71.5t-50 -165.5q0 -93 49.5 -163.5t140.5 -70.5q58 0 103 32.5t65 88.5l360 -55q-25 -126 -104.5 -220.5t-192.5 -143t-243 -48.5
q-157 0 -287.5 74.5t-205.5 206t-75 291.5zM492 1243l-289 293h319l123 -104l125 104h307l-289 -293h-296z" />
    <glyph glyph-name="Dcaron" unicode="&#x10e;" horiz-adv-x="1585" 
d="M735 0h-622v1454h628q159 0 299.5 -50t245.5 -141t166 -228.5t61 -303.5q0 -163 -60 -300.5t-164 -231.5t-247 -146.5t-307 -52.5zM522 1094v-734h193q170 0 272.5 97.5t102.5 269.5q0 170 -101 268.5t-274 98.5h-193zM559 1597l-309 293h360l133 -110l136 110h348
l-309 -293h-359z" />
    <glyph glyph-name="dcaron" unicode="&#x10f;" horiz-adv-x="1536" 
d="M547 -31q-110 0 -203.5 50t-154 131.5t-94.5 183.5t-34 209q0 89 22 174.5t66 160.5t104.5 132t143 90t176.5 33q181 0 293 -136v539h383v-1536h-354l-10 156q-53 -88 -143.5 -137.5t-194.5 -49.5zM662 788q-94 0 -152.5 -69.5t-58.5 -165.5q0 -95 59 -165.5t152 -70.5
t149.5 69.5t56.5 166.5q0 96 -56 165.5t-150 69.5zM1585 1120h-211l23 416h303z" />
    <glyph glyph-name="Dcroat" unicode="&#x110;" horiz-adv-x="1595" 
d="M133 590h-143v299h143v565h619q159 0 299.5 -50t245.5 -141t166 -228.5t61 -303.5q0 -216 -103 -384t-280 -257.5t-396 -89.5h-612v590zM725 1094h-193v-205h259v-299h-259v-230h193q170 0 272.5 97.5t102.5 269.5q0 169 -101 268t-274 99z" />
    <glyph glyph-name="dcroat" unicode="&#x111;" horiz-adv-x="1341" 
d="M61 532q0 111 36 215t100 185.5t162 130.5t214 49q181 0 293 -135v233h-231v197h231v129h383v-129h123v-197h-123v-1210h-354l-10 156q-53 -88 -143.5 -137.5t-194.5 -49.5q-144 0 -257 82.5t-171 209.5t-58 271zM451 543q0 -59 27.5 -113t76.5 -82q48 -31 107 -31
q91 0 148.5 66t57.5 160t-56 159.5t-150 65.5q-92 0 -151.5 -65.5t-59.5 -159.5z" />
    <glyph glyph-name="Emacron" unicode="&#x112;" horiz-adv-x="1196" 
d="M113 0v1454h968v-336h-579v-211h508v-334h-508v-239h602v-334h-991zM993 1608h-794v260h794v-260z" />
    <glyph glyph-name="emacron" unicode="&#x113;" horiz-adv-x="1239" 
d="M631 -31q-251 0 -410.5 165t-159.5 421q0 159 71 290.5t201 209.5t292 78q131 0 237.5 -45.5t177.5 -126.5t109.5 -192.5t38.5 -244.5v-69h-735q16 -81 63.5 -131t126.5 -50q109 0 174 95l350 -78q-62 -153 -211.5 -237.5t-324.5 -84.5zM279 1485h692v-240h-692v240z
M625 860q-75 0 -119 -49t-57 -127h344q-30 176 -168 176z" />
    <glyph glyph-name="Edotaccent" unicode="&#x116;" horiz-adv-x="1196" 
d="M113 1454h968v-336h-579v-211h508v-334h-508v-239h602v-334h-991v1454zM596 1563q-88 0 -150.5 59t-62.5 147q0 89 61.5 148t151.5 59q91 0 153 -57.5t62 -149.5q0 -90 -61.5 -148t-153.5 -58z" />
    <glyph glyph-name="edotaccent" unicode="&#x117;" horiz-adv-x="1239" 
d="M631 -31q-251 0 -410.5 165t-159.5 421q0 159 71 290.5t201 209.5t292 78q131 0 237.5 -45.5t177.5 -126.5t109.5 -192.5t38.5 -244.5v-69h-735q16 -81 63.5 -131t126.5 -50q109 0 174 95l350 -78q-62 -153 -211.5 -237.5t-324.5 -84.5zM625 1210q-85 0 -144 56t-59 141
q0 86 58 141.5t145 55.5q86 0 145 -55.5t59 -141.5t-58.5 -141.5t-145.5 -55.5zM625 860q-75 0 -119 -49t-57 -127h344q-30 176 -168 176z" />
    <glyph glyph-name="Eogonek" unicode="&#x118;" horiz-adv-x="1196" 
d="M113 0v1454h968v-336h-579v-211h508v-334h-508v-239h602v-334q-86 -75 -127 -125q-39 -45 -39 -78q0 -31 21.5 -47t52.5 -16q44 0 84 18l20 -194q-104 -39 -203 -39q-51 0 -96.5 9.5t-87 30t-66 60.5t-24.5 94q0 57 32.5 114.5t70 93.5t92.5 79h-721z" />
    <glyph glyph-name="eogonek" unicode="&#x119;" horiz-adv-x="1239" 
d="M61 555q0 159 71 290.5t201 209.5t292 78q131 0 237.5 -45.5t177.5 -126.5t109.5 -192.5t38.5 -244.5v-69h-735q16 -81 63.5 -131t126.5 -50q109 0 174 95l350 -78q-48 -117 -151 -197q-61 -68 -92 -106q-26 -32 -41 -54t-31 -57.5t-16 -64.5q0 -38 20 -58q17 -20 53 -20
q43 0 84 18l21 -184q-95 -39 -199 -39q-49 0 -94 10.5t-85.5 32t-64.5 61t-24 91.5q0 82 65 165q19 29 76 82q-18 -2 -57 -2q-251 0 -410.5 165t-159.5 421zM625 860q-75 0 -119 -49t-57 -127h344q-30 176 -168 176z" />
    <glyph glyph-name="Ecaron" unicode="&#x11a;" horiz-adv-x="1196" 
d="M113 0v1454h968v-336h-579v-211h508v-334h-508v-239h602v-334h-991zM418 1597l-309 293h360l133 -110l135 110h348l-309 -293h-358z" />
    <glyph glyph-name="ecaron" unicode="&#x11b;" horiz-adv-x="1239" 
d="M631 -31q-251 0 -410.5 165t-159.5 421q0 159 71 290.5t201 209.5t292 78q131 0 237.5 -45.5t177.5 -126.5t109.5 -192.5t38.5 -244.5v-69h-735q16 -81 63.5 -131t126.5 -50q109 0 174 95l350 -78q-62 -153 -211.5 -237.5t-324.5 -84.5zM188 1536h320l123 -104l125 104
h307l-289 -293h-297zM625 860q-75 0 -119 -49t-57 -127h344q-30 176 -168 176z" />
    <glyph glyph-name="Gbreve" unicode="&#x11e;" horiz-adv-x="1669" 
d="M72 723q0 165 60.5 308.5t165 245t251 160t313.5 58.5q230 0 413.5 -107.5t274.5 -312.5l-403 -110q-99 163 -287 163q-165 0 -264.5 -114t-99.5 -283q0 -110 45 -201.5t132.5 -147.5t200.5 -56q102 0 189.5 50t116.5 142h-291v324h719v-178q0 -154 -57.5 -286.5
t-157.5 -224t-237.5 -143t-293.5 -51.5q-217 0 -397 95t-286.5 271t-106.5 398zM868 1587q-157 0 -274 86t-145 238h292q9 -48 43.5 -76.5t83.5 -28.5t83.5 28.5t43.5 76.5h293q-29 -152 -145 -238t-275 -86z" />
    <glyph glyph-name="gbreve" unicode="&#x11f;" horiz-adv-x="1320" 
d="M61 592q0 103 37 201t101.5 173t158.5 121t201 46q193 0 307 -152l8 121h355v-942q0 -258 -161 -416t-425 -158q-113 0 -217 31.5t-192 103.5t-128 175l377 71q27 -37 69.5 -56.5t90.5 -19.5q95 0 149 63t54 161v84q-110 -148 -301 -148q-104 0 -195.5 46.5t-154 122.5
t-98.5 173.5t-36 198.5zM258 1536h262q9 -44 45 -66q34 -24 82 -24q49 0 84 24q34 20 43 66h262q-24 -140 -132.5 -219.5t-256.5 -79.5q-146 0 -255.5 78.5t-133.5 220.5zM647 807q-85 0 -140.5 -64t-55.5 -151q0 -86 55.5 -150.5t140.5 -64.5q88 0 144.5 62.5t56.5 152.5
q0 88 -57 151.5t-144 63.5z" />
    <glyph glyph-name="Gdotaccent" unicode="&#x120;" horiz-adv-x="1669" 
d="M862 -41q-217 0 -397 95t-286.5 271t-106.5 398q0 165 60.5 308.5t165 245t251 160t313.5 58.5q230 0 413.5 -107.5t274.5 -312.5l-403 -110q-99 163 -287 163q-165 0 -264.5 -114t-99.5 -283q0 -110 45 -201.5t132.5 -147.5t200.5 -56q102 0 189.5 50t116.5 142h-291
v324h719v-178q0 -154 -57.5 -286.5t-157.5 -224t-237.5 -143t-293.5 -51.5zM868 1563q-88 0 -150.5 59t-62.5 147q0 89 61.5 148t151.5 59q91 0 153 -57.5t62 -149.5q0 -90 -61.5 -148t-153.5 -58z" />
    <glyph glyph-name="gdotaccent" unicode="&#x121;" horiz-adv-x="1320" 
d="M545 51q-104 0 -195.5 46.5t-154 122.5t-98.5 173.5t-36 198.5q0 103 37 201t101.5 173t158.5 121t201 46q193 0 307 -152l8 121h355v-942q0 -258 -161 -416t-425 -158q-113 0 -217 31.5t-192 103.5t-128 175l377 71q27 -37 69.5 -56.5t90.5 -19.5q95 0 149 63t54 161v84
q-110 -148 -301 -148zM451 592q0 -86 55.5 -150.5t140.5 -64.5q88 0 144.5 62.5t56.5 152.5q0 88 -57 151.5t-144 63.5q-85 0 -140.5 -64t-55.5 -151zM647 1210q-85 0 -144 56t-59 141q0 86 58 141.5t145 55.5q86 0 145.5 -55.5t59.5 -141.5q0 -85 -59 -141t-146 -56z" />
    <glyph glyph-name="uni0122" unicode="&#x122;" horiz-adv-x="1669" 
d="M862 -41q-217 0 -397 95t-286.5 271t-106.5 398q0 165 60.5 308.5t165 245t251 160t313.5 58.5q230 0 413.5 -107.5t274.5 -312.5l-403 -110q-99 163 -287 163q-165 0 -264.5 -114t-99.5 -283q0 -110 45 -201.5t132.5 -147.5t200.5 -56q102 0 189.5 50t116.5 142h-291
v324h719v-178q0 -154 -57.5 -286.5t-157.5 -224t-237.5 -143t-293.5 -51.5zM686 -258q0 67 50 107t120 40q86 0 141.5 -55.5t55.5 -142.5q0 -106 -79.5 -183t-189.5 -104l-49 127q103 27 133 86q-19 -8 -45 -8q-58 0 -97.5 37.5t-39.5 95.5z" />
    <glyph glyph-name="uni0123" unicode="&#x123;" horiz-adv-x="1320" 
d="M545 51q-104 0 -195.5 46.5t-154 122.5t-98.5 173.5t-36 198.5q0 103 37 201t101.5 173t158.5 121t201 46q193 0 307 -152l8 121h355v-942q0 -258 -161 -416t-425 -158q-113 0 -217 31.5t-192 103.5t-128 175l377 71q27 -37 69.5 -56.5t90.5 -19.5q95 0 149 63t54 161v84
q-110 -148 -301 -148zM647 807q-85 0 -140.5 -64t-55.5 -151q0 -86 55.5 -150.5t140.5 -64.5q88 0 144.5 62.5t56.5 152.5q0 88 -57 151.5t-144 63.5zM662 1190q-84 0 -137.5 54t-53.5 138q0 106 74.5 178t185.5 103l47 -125q-118 -37 -141 -90q20 14 55 14q59 0 96 -36.5
t37 -94.5q0 -65 -48 -103t-115 -38z" />
    <glyph glyph-name="Hbar" unicode="&#x126;" horiz-adv-x="1642" 
d="M10 1067v238h144v149h409v-149h516v149h410v-149h143v-238h-143v-1067h-410v549h-516v-549h-409v1067h-144zM563 899h516v168h-516v-168z" />
    <glyph glyph-name="hbar" unicode="&#x127;" horiz-adv-x="1245" 
d="M92 1210h-123v197h123v129h383v-129h232v-197h-232v-247q48 73 126.5 111t170.5 38q95 0 169.5 -37.5t120 -102t68.5 -146t23 -175.5v-651h-383v594q0 72 -34 122t-103 50q-70 0 -114 -50t-44 -122v-594h-383v1210z" />
    <glyph glyph-name="Itilde" unicode="&#x128;" horiz-adv-x="634" 
d="M113 0v1454h409v-1454h-409zM106 1597h-223q5 63 25 119.5t54 103t88 74t120 27.5q81 0 164 -47q21 -13 61 -35q25 -14 56 -14q59 0 79 84h224q-5 -63 -25 -119.5t-53.5 -103t-87.5 -74t-121 -27.5q-87 0 -164 49q-26 14 -61 33q-25 14 -56 14q-61 0 -80 -84z" />
    <glyph glyph-name="itilde" unicode="&#x129;" horiz-adv-x="567" 
d="M92 1102h383v-1102h-383v1102zM102 1245h-202q6 57 22 108t45 96.5t76.5 72t108.5 26.5q44 0 79 -12q31 -13 66 -31q27 -15 53 -28q24 -15 49 -15q53 0 66 74h203q-6 -58 -22 -109t-44.5 -96t-76 -71.5t-109.5 -26.5q-48 0 -80 14q-50 17 -119 60q-24 12 -49 12
q-53 0 -66 -74z" />
    <glyph glyph-name="Imacron" unicode="&#x12a;" horiz-adv-x="634" 
d="M113 0v1454h409v-1454h-409zM-80 1608v260h795v-260h-795z" />
    <glyph glyph-name="imacron" unicode="&#x12b;" horiz-adv-x="567" 
d="M92 0v1102h383v-1102h-383zM-63 1245v240h692v-240h-692z" />
    <glyph glyph-name="Iogonek" unicode="&#x12e;" horiz-adv-x="634" 
d="M57 -287q0 57 32.5 114.5t70 93.5t92.5 79h-139v1454h409v-1454q-86 -75 -127 -125q-39 -45 -39 -78q0 -31 21.5 -47t52.5 -16q44 0 84 18l21 -194q-104 -39 -203 -39q-40 0 -77 5.5t-73.5 19.5t-63.5 35t-44 55.5t-17 78.5z" />
    <glyph glyph-name="iogonek" unicode="&#x12f;" horiz-adv-x="567" 
d="M289 -471q-49 0 -94 9.5t-85.5 30.5t-65 59.5t-24.5 90.5q0 131 195 281h-123v1102h383v-1102q-86 -75 -127 -125q-39 -45 -39 -78q0 -31 21.5 -47t52.5 -16q52 0 84 18l20 -184q-82 -39 -198 -39zM487 1386q0 -85 -58.5 -140.5t-145.5 -55.5q-85 0 -144 55.5t-59 140.5
q0 86 58 141.5t145 55.5q86 0 145 -55.5t59 -141.5z" />
    <glyph glyph-name="Idotaccent" unicode="&#x130;" horiz-adv-x="634" 
d="M522 0h-409v1454h409v-1454zM317 1563q-88 0 -150.5 59t-62.5 147q0 89 61.5 148t151.5 59q91 0 153 -57.5t62 -149.5q0 -90 -61.5 -148t-153.5 -58z" />
    <glyph glyph-name="dotlessi" unicode="&#x131;" horiz-adv-x="567" 
d="M92 0v1102h383v-1102h-383z" />
    <glyph glyph-name="IJ" unicode="&#x132;" horiz-adv-x="1490" 
d="M104 438l398 58q28 -76 88.5 -118t142.5 -42q118 0 182 81t64 204v833h410v-836q0 -142 -42.5 -262.5t-122 -208.5t-199.5 -138t-267 -50q-245 0 -418 121.5t-236 357.5zM102 1454h410v-799h-410v799z" />
    <glyph glyph-name="ij" unicode="&#x133;" horiz-adv-x="1245" 
d="M92 512v590h383v-533q0 -72 34 -122t103 -50q70 0 114 50t44 122v533h383v-963q0 -246 -149 -399.5t-400 -153.5q-170 0 -306.5 79t-195.5 231l377 71q49 -76 129 -76q45 0 84 25q78 59 78 178v107q-46 -71 -127 -110.5t-170 -39.5q-94 0 -168.5 37.5t-120 102.5
t-69 146.5t-23.5 174.5zM961 1190q-85 0 -144 55.5t-59 140.5q0 86 58 141.5t145 55.5q88 0 146 -54.5t58 -142.5q0 -85 -58.5 -140.5t-145.5 -55.5zM80 1386q0 86 58 141.5t145 55.5q86 0 145 -55.5t59 -141.5q0 -85 -58.5 -140.5t-145.5 -55.5q-85 0 -144 55.5t-59 140.5z
" />
    <glyph glyph-name="uni0136" unicode="&#x136;" horiz-adv-x="1503" 
d="M522 0h-409v1454h409v-633l443 633h454l-499 -674l573 -780h-506l-465 690v-690zM692 -391q-58 0 -97.5 37.5t-39.5 95.5q0 67 50 107t120 40q87 0 142 -55.5t55 -142.5q0 -106 -79.5 -183t-189.5 -104l-49 127q103 27 133 86q-19 -8 -45 -8z" />
    <glyph glyph-name="uni0137" unicode="&#x137;" horiz-adv-x="1273" 
d="M92 1536h373v-872l342 438h418l-404 -488l453 -614h-457l-352 537v-537h-373v1536zM571 -373q-57 0 -95 37t-38 94q0 63 49.5 102.5t114.5 39.5q83 0 137 -54t54 -139q0 -106 -75 -177.5t-186 -102.5l-47 124q94 23 129 84q-16 -8 -43 -8z" />
    <glyph glyph-name="kgreenlandic" unicode="&#x138;" horiz-adv-x="1273" 
d="M92 1102h373v-457l342 457h418l-404 -504l453 -598h-457l-352 520v-520h-373v1102z" />
    <glyph glyph-name="Lacute" unicode="&#x139;" horiz-adv-x="1144" 
d="M113 0v1454h409v-1094h551v-360h-960zM43 1597l287 293h469l-371 -293h-385z" />
    <glyph glyph-name="lacute" unicode="&#x13a;" horiz-adv-x="567" 
d="M92 0v1536h383v-1536h-383zM53 1669l228 293h417l-290 -293h-355z" />
    <glyph glyph-name="uni013B" unicode="&#x13b;" horiz-adv-x="1144" 
d="M113 0v1454h409v-1094h551v-360h-960zM410 -258q0 67 50 107t120 40q86 0 141 -55t55 -143q0 -106 -79 -183t-189 -104l-49 127q103 27 133 86q-19 -8 -45 -8q-58 0 -97.5 37.5t-39.5 95.5z" />
    <glyph glyph-name="uni013C" unicode="&#x13c;" horiz-adv-x="567" 
d="M475 0h-383v1536h383v-1536zM106 -242q0 63 49.5 102.5t114.5 39.5q83 0 137 -54t54 -139q0 -106 -74.5 -177.5t-185.5 -102.5l-47 124q94 23 129 84q-16 -8 -43 -8q-57 0 -95.5 37t-38.5 94z" />
    <glyph glyph-name="Lcaron" unicode="&#x13d;" horiz-adv-x="1144" 
d="M113 0v1454h409v-1094h551v-360h-960zM647 1120l23 416h303l-115 -416h-211z" />
    <glyph glyph-name="lcaron" unicode="&#x13e;" horiz-adv-x="761" 
d="M92 1536h383v-1536h-383v1536zM811 1120h-211l23 416h303z" />
    <glyph glyph-name="Lslash" unicode="&#x141;" horiz-adv-x="1175" 
d="M10 291v340l144 102v721h399v-434l248 178v-340l-248 -178v-320h551v-360h-950v393z" />
    <glyph glyph-name="lslash" unicode="&#x142;" horiz-adv-x="690" 
d="M20 375v287l134 100v774h383v-489l133 100v-287l-133 -100v-760h-383v475z" />
    <glyph glyph-name="Nacute" unicode="&#x143;" horiz-adv-x="1540" 
d="M113 1454h348l577 -850v850h389v-1454h-348l-577 850v-850h-389v1454zM881 1597h-385l286 293h469z" />
    <glyph glyph-name="nacute" unicode="&#x144;" horiz-adv-x="1245" 
d="M92 1102h354l11 -150q102 181 315 181q95 0 169.5 -37.5t120 -102t68.5 -146t23 -175.5v-672h-383v614q0 72 -34 122t-103 50q-70 0 -114 -50t-44 -122v-614h-383v1102zM393 1243l228 293h417l-290 -293h-355z" />
    <glyph glyph-name="uni0145" unicode="&#x145;" horiz-adv-x="1540" 
d="M113 1454h348l577 -850v850h389v-1454h-348l-577 850v-850h-389v1454zM588 -258q0 67 50 107t120 40q86 0 141 -55t55 -143q0 -106 -79 -183t-189 -104l-49 127q103 27 133 86q-19 -8 -45 -8q-58 0 -97.5 37.5t-39.5 95.5z" />
    <glyph glyph-name="uni0146" unicode="&#x146;" horiz-adv-x="1245" 
d="M92 0v1102h354l11 -150q102 181 315 181q95 0 169.5 -37.5t120 -102t68.5 -146t23 -175.5v-672h-383v614q0 72 -34 122t-103 50q-70 0 -114 -50t-44 -122v-614h-383zM446 -242q0 63 49.5 102.5t114.5 39.5q83 0 137 -54t54 -139q0 -106 -74.5 -177.5t-185.5 -102.5
l-47 124q94 23 129 84q-16 -8 -43 -8q-57 0 -95.5 37t-38.5 94z" />
    <glyph glyph-name="Ncaron" unicode="&#x147;" horiz-adv-x="1540" 
d="M502 0h-389v1454h348l577 -850v850h389v-1454h-348l-577 850v-850zM592 1597l-309 293h360l133 -110l135 110h349l-310 -293h-358z" />
    <glyph glyph-name="ncaron" unicode="&#x148;" horiz-adv-x="1245" 
d="M92 1102h354l11 -150q102 181 315 181q95 0 169.5 -37.5t120 -102t68.5 -146t23 -175.5v-672h-383v614q0 72 -34 122t-103 50q-70 0 -114 -50t-44 -122v-614h-383v1102zM475 1243l-289 293h320l123 -104l125 104h307l-289 -293h-297z" />
    <glyph glyph-name="Eng" unicode="&#x14a;" horiz-adv-x="1540" 
d="M113 1454h348l577 -850v850h389v-1401q0 -208 -115.5 -337.5t-324.5 -129.5q-92 0 -199 35q-48 18 -77 39l75 281q19 -14 57 -22.5t66 -8.5q60 0 94.5 32t34.5 91v26l-536 791v-850h-389v1454z" />
    <glyph glyph-name="eng" unicode="&#x14b;" horiz-adv-x="1245" 
d="M92 1102h354l11 -150q102 181 315 181q95 0 169.5 -37.5t120 -102t68.5 -146t23 -175.5v-654q0 -186 -104 -303.5t-291 -117.5q-124 0 -217 45l59 280q40 -12 80 -12q90 0 90 123v581q0 72 -34 122t-103 50q-70 0 -114 -50t-44 -122v-614h-383v1102z" />
    <glyph glyph-name="Ohungarumlaut" unicode="&#x150;" horiz-adv-x="1716" 
d="M72 725q0 216 104 393t284.5 277t399.5 100q162 0 306.5 -56.5t250 -156t167 -243.5t61.5 -310q0 -163 -61 -306.5t-166 -245t-251 -160t-311 -58.5q-216 0 -394.5 96.5t-284 272.5t-105.5 397zM858 1118q-161 0 -261.5 -112.5t-100.5 -278.5q0 -164 99 -277.5
t263 -113.5q161 0 262 112.5t101 278.5q0 164 -99.5 277.5t-263.5 113.5zM1235 1597h-344l266 293h428zM702 1597h-344l267 293h428z" />
    <glyph glyph-name="ohungarumlaut" unicode="&#x151;" horiz-adv-x="1318" 
d="M61 549q0 166 79.5 300t217.5 209t306 75q163 0 298.5 -73.5t215 -207t79.5 -299.5t-79 -300t-217 -209t-306 -75q-162 0 -297.5 73.5t-216 207.5t-80.5 299zM451 551q0 -95 57.5 -165.5t150.5 -70.5t151 70t58 166t-57 165.5t-152 69.5q-92 0 -150 -69.5t-58 -165.5z
M707 1243l196 293h346l-260 -293h-282zM276 1243l197 293h346l-260 -293h-283z" />
    <glyph glyph-name="OE" unicode="&#x152;" horiz-adv-x="2093" 
d="M72 723q0 163 60 300.5t164 231.5t247 146.5t307 52.5h1128v-336h-559v-211h488v-334h-488v-239h582v-334h-1157q-158 0 -298.5 50t-245.5 141.5t-166.5 229t-61.5 302.5zM870 1094q-170 0 -272 -97.5t-102 -269.5q0 -170 100.5 -268.5t273.5 -98.5h160v734h-160z" />
    <glyph glyph-name="oe" unicode="&#x153;" horiz-adv-x="2015" 
d="M61 543q0 158 74 293t206.5 216t293.5 81q243 0 389 -168q162 168 403 168q169 0 292.5 -83t184 -219t60.5 -307v-69h-715q15 -77 61.5 -129t119.5 -52q98 0 163 95l351 -78q-64 -153 -205.5 -237.5t-313.5 -84.5q-244 0 -401 164q-151 -164 -393 -164q-160 0 -290.5 74
t-205 206t-74.5 294zM451 551q0 -93 54 -164.5t144 -71.5q89 0 144 71.5t55 164.5t-54.5 164t-144.5 71q-89 0 -143.5 -71t-54.5 -164zM1411 860q-71 0 -111.5 -50t-54.5 -126h324q-31 176 -158 176z" />
    <glyph glyph-name="Racute" unicode="&#x154;" horiz-adv-x="1341" 
d="M113 1454h522q95 0 180.5 -15.5t165 -51.5t137 -90.5t91.5 -137.5t34 -186q0 -119 -63.5 -228.5t-165.5 -171.5l317 -573h-430l-225 465q-18 -2 -58 -2q-44 0 -116 10v-473h-389v1454zM350 1597l287 293h469l-371 -293h-385zM633 1128h-131v-331q59 -15 147 -15
t142.5 46.5t54.5 132.5q0 78 -55 124q-58 43 -158 43z" />
    <glyph glyph-name="racute" unicode="&#x155;" horiz-adv-x="849" 
d="M475 0h-383v1102h354l13 -178q37 90 104.5 141t161.5 51q53 0 94 -18l-37 -383q-41 14 -94 14q-213 0 -213 -223v-506zM588 1243h-355l228 293h418z" />
    <glyph glyph-name="Rcaron" unicode="&#x158;" horiz-adv-x="1341" 
d="M113 0v1454h522q95 0 180.5 -15.5t165 -51.5t137 -90.5t91.5 -137.5t34 -186q0 -119 -63.5 -228.5t-165.5 -171.5l317 -573h-430l-225 465q-18 -2 -58 -2q-44 0 -116 10v-473h-389zM446 1597l-309 293h361l133 -110l135 110h348l-309 -293h-359zM502 1128v-331
q59 -15 147 -15t142.5 46.5t54.5 132.5q0 78 -55 124q-58 43 -158 43h-131z" />
    <glyph glyph-name="rcaron" unicode="&#x159;" horiz-adv-x="849" 
d="M92 0v1102h354l13 -178q37 90 104.5 141t161.5 51q53 0 94 -18l-37 -383q-41 14 -94 14q-213 0 -213 -223v-506h-383zM315 1243l-288 293h319l123 -104l125 104h307l-289 -293h-297z" />
    <glyph glyph-name="Sacute" unicode="&#x15a;" horiz-adv-x="1208" 
d="M600 -31q-136 0 -250.5 43.5t-200 136.5t-118.5 226l377 69q22 -67 75.5 -108t122.5 -41q64 0 113 30t49 89q0 41 -20 67q-39 50 -205 80l-43 8q-87 16 -163.5 52t-137.5 90t-96 132t-35 169q0 108 46 198.5t122.5 150t175 92t204.5 32.5q130 0 237 -43t184.5 -132.5
t107.5 -217.5l-369 -72q-15 63 -60 101t-108 38q-56 0 -99.5 -30t-43.5 -85q0 -38 20 -61q22 -28 68 -43q47 -18 125 -33l41 -8q93 -18 170.5 -53t141.5 -88t100 -131t36 -174q0 -112 -47.5 -205.5t-127 -153t-181 -92.5t-211.5 -33zM723 1597h-385l287 293h469z" />
    <glyph glyph-name="sacute" unicode="&#x15b;" horiz-adv-x="1048" 
d="M524 -31q-169 0 -305.5 74.5t-187.5 224.5l344 56q16 -44 57 -64q40 -24 96 -24q44 0 79.5 19.5t35.5 59.5q0 39 -37 60t-127 33l-39 6q-77 11 -142.5 36t-120.5 65.5t-86.5 103.5t-31.5 143q0 90 39 162.5t104 117t145.5 68t168.5 23.5q162 0 290 -73t173 -218l-340 -56
q-35 80 -123 80q-42 0 -73 -19.5t-31 -58.5q0 -22 14 -36q15 -19 47 -27q30 -10 92 -20l39 -7q79 -13 144.5 -36.5t124 -63t91.5 -102.5t33 -144q0 -94 -40 -169t-107 -120.5t-150.5 -69.5t-175.5 -24zM641 1243h-354l227 293h418z" />
    <glyph glyph-name="Scedilla" unicode="&#x15e;" horiz-adv-x="1208" 
d="M31 375l377 69q22 -67 75.5 -108t122.5 -41q64 0 113 30t49 89q0 41 -20 67q-39 50 -205 80l-43 8q-87 16 -163.5 52t-137.5 90t-96 132t-35 169q0 108 46 198.5t122.5 150t175 92t204.5 32.5q130 0 237 -43t184.5 -132.5t107.5 -217.5l-369 -72q-15 63 -60 101t-108 38
q-56 0 -99.5 -30t-43.5 -85q0 -38 20 -61q22 -28 68 -43q47 -18 125 -33l41 -8q93 -18 170.5 -53t141.5 -88t100 -131t36 -174q0 -186 -124 -313t-316 -160l-22 -62q59 -27 94 -76t35 -112q0 -59 -30 -105.5t-78.5 -73t-103 -40t-110.5 -13.5q-74 0 -193 35l31 193
q57 -21 101 -21q84 0 84 57q0 18 -12 30.5t-31 18.5t-36 8.5t-34 2.5l61 155q-170 27 -291 130t-161 268z" />
    <glyph glyph-name="scedilla" unicode="&#x15f;" horiz-adv-x="1048" 
d="M301 6q-97 33 -167.5 100.5t-102.5 161.5l344 56q16 -44 57 -64q40 -24 96 -24q44 0 79.5 19.5t35.5 59.5q0 39 -37 60t-127 33l-39 6q-77 11 -142.5 36t-120.5 65.5t-86.5 103.5t-31.5 143q0 90 39 162.5t104 117t145.5 68t168.5 23.5q162 0 290 -73t173 -218l-340 -56
q-35 80 -123 80q-42 0 -73 -19.5t-31 -58.5q0 -22 14 -36q15 -19 47 -27q30 -10 92 -20l39 -7q79 -13 144.5 -36.5t124 -63t91.5 -102.5t33 -144q0 -258 -280 -356q-56 -13 -72 -16l-18 -50q60 -24 94.5 -70.5t34.5 -109.5q0 -57 -30.5 -101.5t-79 -69.5t-102 -37.5
t-106.5 -12.5q-83 0 -180 33l27 184q54 -20 100 -20q84 0 84 57q0 59 -111 59l54 135q-63 10 -111 29z" />
    <glyph glyph-name="Scaron" unicode="&#x160;" horiz-adv-x="1208" 
d="M600 -31q-136 0 -250.5 43.5t-200 136.5t-118.5 226l377 69q22 -67 75.5 -108t122.5 -41q64 0 113 30t49 89q0 41 -20 67q-39 50 -205 80l-43 8q-87 16 -163.5 52t-137.5 90t-96 132t-35 169q0 108 46 198.5t122.5 150t175 92t204.5 32.5q130 0 237 -43t184.5 -132.5
t107.5 -217.5l-369 -72q-15 63 -60 101t-108 38q-56 0 -99.5 -30t-43.5 -85q0 -38 20 -61q22 -28 68 -43q47 -18 125 -33l41 -8q93 -18 170.5 -53t141.5 -88t100 -131t36 -174q0 -112 -47.5 -205.5t-127 -153t-181 -92.5t-211.5 -33zM434 1597l-309 293h360l133 -110
l136 110h348l-309 -293h-359z" />
    <glyph glyph-name="scaron" unicode="&#x161;" horiz-adv-x="1048" 
d="M31 268l344 56q16 -44 57 -64q40 -24 96 -24q44 0 79.5 19.5t35.5 59.5q0 39 -37 60t-127 33l-39 6q-77 11 -142.5 36t-120.5 65.5t-86.5 103.5t-31.5 143q0 90 39 162.5t104 117t145.5 68t168.5 23.5q162 0 290 -73t173 -218l-340 -56q-35 80 -123 80q-42 0 -73 -19.5
t-31 -58.5q0 -22 14 -36q15 -19 47 -27q30 -10 92 -20l39 -7q79 -13 144.5 -36.5t124 -63t91.5 -102.5t33 -144q0 -94 -40 -169t-107 -120.5t-150.5 -69.5t-175.5 -24q-169 0 -305.5 74.5t-187.5 224.5zM369 1243l-289 293h319l123 -104l125 104h307l-288 -293h-297z" />
    <glyph glyph-name="Tcaron" unicode="&#x164;" horiz-adv-x="1318" 
d="M72 1454h1175v-360h-383v-1094h-409v1094h-383v360zM481 1597l-309 293h360l134 -110l135 110h348l-309 -293h-359z" />
    <glyph glyph-name="tcaron" unicode="&#x165;" horiz-adv-x="944" 
d="M41 809v293h176v379h383v-379h266v-293h-266v-393q0 -133 115 -133q65 0 137 30l51 -272q-123 -72 -287 -72q-196 0 -297.5 106.5t-101.5 303.5v430h-176zM942 1223h-211l17 313h303z" />
    <glyph glyph-name="Tbar" unicode="&#x166;" horiz-adv-x="1318" 
d="M72 1454h1175v-360h-383v-306h240v-299h-240v-489h-409v489h-240v299h240v306h-383v360z" />
    <glyph glyph-name="tbar" unicode="&#x167;" horiz-adv-x="944" 
d="M217 819h-176v283h176v379h383v-379h266v-283h-266v-145h246v-197h-246v-61q0 -133 115 -133q65 0 137 30l51 -272q-123 -72 -287 -72q-196 0 -297.5 106.5t-101.5 303.5v98h-156v197h156v145z" />
    <glyph glyph-name="Utilde" unicode="&#x168;" horiz-adv-x="1540" 
d="M102 608v846h410v-827q0 -124 67.5 -207.5t190.5 -83.5t190.5 81.5t67.5 209.5v827h410v-846q0 -297 -182.5 -473t-487.5 -176q-195 0 -345 76t-235.5 224t-85.5 349zM336 1597q5 63 25 119.5t54 103t88 74t120 27.5q80 0 163 -47q10 -6 62 -35q25 -14 55 -14q60 0 80 84
h223q-5 -63 -24.5 -119t-53.5 -103t-87.5 -74.5t-120.5 -27.5q-87 0 -164 49q-43 22 -62 33q-25 14 -55 14q-61 0 -80 -84h-223z" />
    <glyph glyph-name="utilde" unicode="&#x169;" 
d="M612 -31q-238 0 -379 145t-141 388v600h383v-608q0 -77 36.5 -128t109.5 -51t107 51t34 128v608h383v-600q0 -237 -145.5 -385t-387.5 -148zM236 1245q6 57 22 108t45 96.5t76.5 72t107.5 26.5q45 0 80 -12q31 -13 66 -31q27 -15 53 -28q24 -15 49 -15q53 0 66 74h203
q-6 -58 -22 -109t-44.5 -96t-76 -71.5t-109.5 -26.5q-48 0 -80 14q-50 17 -119 60q-24 12 -49 12q-53 0 -66 -74h-202z" />
    <glyph glyph-name="Umacron" unicode="&#x16a;" horiz-adv-x="1540" 
d="M102 1454h410v-827q0 -124 67.5 -207.5t190.5 -83.5t190.5 81.5t67.5 209.5v827h410v-846q0 -297 -182.5 -473t-487.5 -176q-195 0 -345 76t-235.5 224t-85.5 349v846zM1167 1608h-794v260h794v-260z" />
    <glyph glyph-name="umacron" unicode="&#x16b;" 
d="M92 1102h383v-608q0 -77 36.5 -128t109.5 -51t107 51t34 128v608h383v-600q0 -237 -145.5 -385t-387.5 -148q-238 0 -379 145t-141 388v600zM965 1245h-693v240h693v-240z" />
    <glyph glyph-name="Uring" unicode="&#x16e;" horiz-adv-x="1540" 
d="M768 -41q-195 0 -345 76t-235.5 224t-85.5 349v846h410v-827q0 -124 67.5 -207.5t190.5 -83.5t190.5 81.5t67.5 209.5v827h410v-846q0 -297 -182.5 -473t-487.5 -176zM770 1540q-110 0 -188 70t-78 180q0 108 77.5 179t188.5 71t188.5 -69.5t77.5 -180.5
q0 -108 -77.5 -179t-188.5 -71zM770 1874q-34 0 -58 -25t-24 -59t24 -59t58 -25t58 25t24 59t-24 59t-58 25z" />
    <glyph glyph-name="uring" unicode="&#x16f;" 
d="M92 1102h383v-608q0 -77 36.5 -128t109.5 -51t107 51t34 128v608h383v-600q0 -237 -145.5 -385t-387.5 -148q-238 0 -379 145t-141 388v600zM362 1427q0 104 75 172t181 68q107 0 181.5 -67t74.5 -173q0 -104 -75 -171.5t-181 -67.5q-104 0 -180 68t-76 171zM618 1511
q-33 0 -57 -25t-24 -59t24 -59t57 -25q34 0 58 25t24 59t-24 59t-58 25z" />
    <glyph glyph-name="Uhungarumlaut" unicode="&#x170;" horiz-adv-x="1540" 
d="M102 608v846h410v-827q0 -124 67.5 -207.5t190.5 -83.5t190.5 81.5t67.5 209.5v827h410v-846q0 -297 -182.5 -473t-487.5 -176q-195 0 -345 76t-235.5 224t-85.5 349zM1147 1597h-344l266 293h428zM614 1597h-344l267 293h428z" />
    <glyph glyph-name="uhungarumlaut" unicode="&#x171;" 
d="M92 502v600h383v-608q0 -77 36.5 -128t109.5 -51t107 51t34 128v608h383v-600q0 -237 -145.5 -385t-387.5 -148q-238 0 -379 145t-141 388zM948 1243h-282l196 293h346zM518 1243h-282l196 293h346z" />
    <glyph glyph-name="Uogonek" unicode="&#x172;" horiz-adv-x="1540" 
d="M768 -41q-195 0 -345 76t-235.5 224t-85.5 349v846h410v-827q0 -124 67.5 -207.5t190.5 -83.5t190.5 81.5t67.5 209.5v827h410v-846q0 -154 -57.5 -290.5t-172.5 -223.5q-180 -193 -180 -282q0 -37 21 -58q17 -20 53 -20q44 0 84 18l20 -194q-98 -39 -202 -39
q-51 0 -97 10t-87.5 31.5t-66 62t-24.5 94.5q0 84 66 168q21 31 71 78q-62 -4 -98 -4z" />
    <glyph glyph-name="uogonek" unicode="&#x173;" 
d="M92 1102h383v-608q0 -77 36.5 -128t109.5 -51t107 51t34 128v608h383v-600q0 -234 -139 -379q-207 -213 -207 -311q0 -38 20 -58q17 -20 53 -20q44 0 84 18l21 -184q-95 -39 -199 -39q-49 0 -94 10.5t-85.5 32t-64.5 61t-24 91.5q0 82 65 165q26 39 76 80h-39
q-238 0 -379 145t-141 388v600z" />
    <glyph glyph-name="Wcircumflex" unicode="&#x174;" horiz-adv-x="2195" 
d="M51 1454h430l211 -907l232 907h362l232 -907l211 907h415l-440 -1454h-369l-235 924l-236 -924h-372zM958 1597h-348l310 293h358l309 -293h-360l-133 111z" />
    <glyph glyph-name="wcircumflex" unicode="&#x175;" horiz-adv-x="1789" 
d="M10 1102h396l149 -668l180 668h326l182 -674l156 674h381l-363 -1102h-348l-176 659l-178 -659h-342zM766 1243h-307l289 293h296l289 -293h-319l-123 105z" />
    <glyph glyph-name="Ycircumflex" unicode="&#x176;" horiz-adv-x="1437" 
d="M514 555l-504 899h453l264 -543l262 543h438l-503 -899v-555h-410v555zM231 1597l310 293h358l309 -293h-360l-133 111l-135 -111h-349z" />
    <glyph glyph-name="ycircumflex" unicode="&#x177;" horiz-adv-x="1210" 
d="M10 1102h414l203 -717l174 717h399l-424 -1155q-42 -111 -94.5 -185t-138.5 -119.5t-201 -45.5q-134 0 -229 53l61 282q72 -26 123 -26q56 0 91 26t61 80zM168 1243l289 293h297l288 -293h-319l-123 105l-125 -105h-307z" />
    <glyph glyph-name="Ydieresis" unicode="&#x178;" horiz-adv-x="1437" 
d="M10 1454h453l264 -543l262 543h438l-503 -899v-555h-410v555zM788 1755q0 83 57.5 138t141.5 55q83 0 141 -55t58 -138q0 -81 -58.5 -136.5t-140.5 -55.5q-83 0 -141 55t-58 137zM451 1563q-83 0 -141 55t-58 137q0 83 57.5 138t141.5 55q83 0 140.5 -54.5t57.5 -138.5
q0 -81 -58 -136.5t-140 -55.5z" />
    <glyph glyph-name="Zacute" unicode="&#x179;" horiz-adv-x="1349" 
d="M61 0v289l674 823h-643v342h1161v-289l-675 -823h720v-342h-1237zM397 1597l287 293h469l-371 -293h-385z" />
    <glyph glyph-name="zacute" unicode="&#x17a;" horiz-adv-x="1122" 
d="M72 0v240l471 569h-455v293h928v-240l-471 -569h506v-293h-979zM322 1243l227 293h418l-291 -293h-354z" />
    <glyph glyph-name="Zdotaccent" unicode="&#x17b;" horiz-adv-x="1349" 
d="M61 289l674 823h-643v342h1161v-289l-675 -823h720v-342h-1237v289zM459 1769q0 89 61.5 148t151.5 59q91 0 153 -57.5t62 -149.5q0 -90 -61.5 -148t-153.5 -58q-88 0 -150.5 59t-62.5 147z" />
    <glyph glyph-name="zdotaccent" unicode="&#x17c;" horiz-adv-x="1122" 
d="M1051 0h-979v240l471 569h-455v293h928v-240l-471 -569h506v-293zM348 1407q0 86 58 141.5t145 55.5q86 0 145.5 -55.5t59.5 -141.5q0 -85 -59 -141t-146 -56q-85 0 -144 56t-59 141z" />
    <glyph glyph-name="Zcaron" unicode="&#x17d;" horiz-adv-x="1349" 
d="M61 0v289l674 823h-643v342h1161v-289l-675 -823h720v-342h-1237zM494 1597l-310 293h361l133 -110l135 110h348l-309 -293h-358z" />
    <glyph glyph-name="zcaron" unicode="&#x17e;" horiz-adv-x="1122" 
d="M72 0v240l471 569h-455v293h928v-240l-471 -569h506v-293h-979zM403 1243l-288 293h319l123 -104l125 104h307l-289 -293h-297z" />
    <glyph glyph-name="uni0218" unicode="&#x218;" horiz-adv-x="1208" 
d="M600 -31q-136 0 -250.5 43.5t-200 136.5t-118.5 226l377 69q22 -67 75.5 -108t122.5 -41q64 0 113 30t49 89q0 41 -20 67q-39 50 -205 80l-43 8q-87 16 -163.5 52t-137.5 90t-96 132t-35 169q0 108 46 198.5t122.5 150t175 92t204.5 32.5q130 0 237 -43t184.5 -132.5
t107.5 -217.5l-369 -72q-15 63 -60 101t-108 38q-56 0 -99.5 -30t-43.5 -85q0 -38 20 -61q22 -28 68 -43q47 -18 125 -33l41 -8q93 -18 170.5 -53t141.5 -88t100 -131t36 -174q0 -112 -47.5 -205.5t-127 -153t-181 -92.5t-211.5 -33zM557 -391q-58 0 -97.5 37.5t-39.5 95.5
q0 67 50 107t120 40q86 0 141 -55t55 -143q0 -106 -79 -183t-189 -104l-49 127q103 27 133 86q-19 -8 -45 -8z" />
    <glyph glyph-name="uni0219" unicode="&#x219;" horiz-adv-x="1048" 
d="M524 -31q-169 0 -305.5 74.5t-187.5 224.5l344 56q16 -44 57 -64q40 -24 96 -24q44 0 79.5 19.5t35.5 59.5q0 39 -37 60t-127 33l-39 6q-77 11 -142.5 36t-120.5 65.5t-86.5 103.5t-31.5 143q0 90 39 162.5t104 117t145.5 68t168.5 23.5q162 0 290 -73t173 -218l-340 -56
q-35 80 -123 80q-42 0 -73 -19.5t-31 -58.5q0 -22 14 -36q15 -19 47 -27q30 -10 92 -20l39 -7q79 -13 144.5 -36.5t124 -63t91.5 -102.5t33 -144q0 -94 -40 -169t-107 -120.5t-150.5 -69.5t-175.5 -24zM350 -242q0 63 49.5 102.5t114.5 39.5q83 0 137 -54t54 -139
q0 -106 -75 -177.5t-186 -102.5l-47 124q94 23 129 84q-16 -8 -43 -8q-57 0 -95 37t-38 94z" />
    <glyph glyph-name="uni021A" unicode="&#x21a;" horiz-adv-x="1318" 
d="M72 1454h1175v-360h-383v-1094h-409v1094h-383v360zM614 -391q-58 0 -97.5 37.5t-39.5 95.5q0 67 50 107t120 40q87 0 142 -55.5t55 -142.5q0 -106 -79.5 -183t-189.5 -104l-49 127q103 27 133 86q-19 -8 -45 -8z" />
    <glyph glyph-name="uni021B" unicode="&#x21b;" horiz-adv-x="944" 
d="M41 809v293h176v379h383v-379h266v-293h-266v-393q0 -133 115 -133q65 0 137 30l51 -272q-123 -72 -287 -72q-196 0 -297.5 106.5t-101.5 303.5v430h-176zM489 -373q-57 0 -95 37t-38 94q0 63 49.5 102.5t114.5 39.5q83 0 137 -54t54 -139q0 -106 -74.5 -177.5
t-185.5 -102.5l-48 124q94 23 129 84q-16 -8 -43 -8z" />
    <glyph glyph-name="uni0237" unicode="&#x237;" horiz-adv-x="577" 
d="M-147 -350l59 280q46 -20 90 -20q100 0 100 123v1069h383v-1084q0 -190 -108 -305.5t-299 -115.5q-122 0 -225 53z" />
    <glyph glyph-name="circumflex" unicode="&#x2c6;" horiz-adv-x="1245" 
d="M184 1243l289 293h297l289 -293h-320l-123 105l-124 -105h-308z" />
    <glyph glyph-name="caron" unicode="&#x2c7;" horiz-adv-x="1245" 
d="M184 1536h320l123 -104l125 104h307l-289 -293h-297z" />
    <glyph glyph-name="uni02C9" unicode="&#x2c9;" horiz-adv-x="1245" 
d="M276 1245v240h693v-240h-693z" />
    <glyph glyph-name="uni02CB" unicode="&#x2cb;" horiz-adv-x="1245" 
d="M590 1243l-291 293h418l227 -293h-354z" />
    <glyph glyph-name="breve" unicode="&#x2d8;" horiz-adv-x="1245" 
d="M623 1237q-147 0 -256.5 78.5t-133.5 220.5h263q9 -44 45 -66q35 -24 82 -24q49 0 84 24q34 20 43 66h262q-24 -140 -132.5 -219.5t-256.5 -79.5z" />
    <glyph glyph-name="dotaccent" unicode="&#x2d9;" horiz-adv-x="1245" 
d="M418 1407q0 86 58 141.5t145 55.5q86 0 145 -55.5t59 -141.5t-58.5 -141.5t-145.5 -55.5q-85 0 -144 56t-59 141z" />
    <glyph glyph-name="ring" unicode="&#x2da;" horiz-adv-x="1245" 
d="M367 1427q0 104 75 172t181 68q107 0 181.5 -67t74.5 -173q0 -104 -75 -171.5t-181 -67.5q-104 0 -180 68t-76 171zM541 1427q0 -34 24 -59t58 -25t58 25t24 59t-24 59t-58 25t-58 -25t-24 -59z" />
    <glyph glyph-name="ogonek" unicode="&#x2db;" horiz-adv-x="1245" 
d="M637 -471q-49 0 -93.5 9.5t-85 30.5t-65 59.5t-24.5 90.5q0 51 26 101t72 95t85 75t89 63l182 -53q-86 -75 -127 -125q-39 -45 -39 -78q0 -31 21.5 -47t52.5 -16q52 0 84 18l21 -184q-82 -39 -199 -39z" />
    <glyph glyph-name="tilde" unicode="&#x2dc;" horiz-adv-x="1245" 
d="M440 1245h-202q6 57 22 108t45 96.5t76.5 72t107.5 26.5q45 0 80 -12q31 -13 66 -31q27 -15 53 -28q24 -15 49 -15q53 0 66 74h203q-6 -58 -22 -109t-44.5 -96t-76 -71.5t-109.5 -26.5q-48 0 -80 14q-50 17 -119 60q-24 12 -49 12q-53 0 -66 -74z" />
    <glyph glyph-name="hungarumlaut" unicode="&#x2dd;" horiz-adv-x="1245" 
d="M848 1243h-283l197 293h346zM418 1243h-283l197 293h346z" />
    <glyph glyph-name="gravecomb" unicode="&#x300;" horiz-adv-x="0" 
d="M-123 1243l-291 293h418l227 -293h-354z" />
    <glyph glyph-name="acutecomb" unicode="&#x301;" horiz-adv-x="0" 
d="M-229 1243l227 293h418l-291 -293h-354z" />
    <glyph glyph-name="uni0302" unicode="&#x302;" horiz-adv-x="0" 
d="M-436 1243l289 293h297l288 -293h-319l-123 105l-125 -105h-307z" />
    <glyph glyph-name="tildecomb" unicode="&#x303;" horiz-adv-x="0" 
d="M-180 1245h-203q6 57 22 108t45 96.5t76.5 72t108.5 26.5q45 0 80 -12q23 -10 65 -31q18 -10 54 -28q24 -15 49 -15q52 0 65 74h203q-6 -58 -22 -109t-44.5 -96t-76 -71.5t-109.5 -26.5q-48 0 -80 14q-50 17 -119 60q-24 12 -49 12q-24 0 -43 -19q-16 -23 -22 -55z" />
    <glyph glyph-name="uni0304" unicode="&#x304;" horiz-adv-x="0" 
d="M-346 1245v240h692v-240h-692z" />
    <glyph glyph-name="uni0306" unicode="&#x306;" horiz-adv-x="0" 
d="M0 1237q-146 0 -255.5 78.5t-133.5 220.5h262q9 -46 43 -66q34 -24 84 -24t84 24q34 20 43 66h262q-24 -140 -132.5 -219.5t-256.5 -79.5z" />
    <glyph glyph-name="uni0307" unicode="&#x307;" horiz-adv-x="0" 
d="M-203 1407q0 86 58 141.5t145 55.5q86 0 145.5 -55.5t59.5 -141.5q0 -85 -59 -141t-146 -56q-86 0 -144.5 55.5t-58.5 141.5z" />
    <glyph glyph-name="uni0308" unicode="&#x308;" horiz-adv-x="0" 
d="M236 1202q-77 0 -132 53.5t-55 130.5q0 78 54.5 131.5t132.5 53.5q77 0 131.5 -53t54.5 -132q0 -77 -54 -130.5t-132 -53.5zM-236 1202q-77 0 -131.5 53.5t-54.5 130.5q0 78 54 131.5t132 53.5q77 0 132 -53t55 -132q0 -77 -54.5 -130.5t-132.5 -53.5z" />
    <glyph glyph-name="uni030A" unicode="&#x30a;" horiz-adv-x="0" 
d="M-256 1427q0 105 74 172.5t182 67.5q107 0 181.5 -67t74.5 -173q0 -104 -75 -171.5t-181 -67.5t-181 67t-75 172zM-82 1427q0 -34 24 -59t58 -25t58 25t24 59t-24 59t-58 25t-58 -25t-24 -59z" />
    <glyph glyph-name="uni030B" unicode="&#x30b;" horiz-adv-x="0" 
d="M330 1243h-283l197 293h346zM-100 1243h-283l197 293h346z" />
    <glyph glyph-name="uni030C" unicode="&#x30c;" horiz-adv-x="0" 
d="M-436 1536h319l123 -104l125 104h307l-288 -293h-297z" />
    <glyph glyph-name="uni0312" unicode="&#x312;" horiz-adv-x="0" 
d="M-176 1382q0 106 74.5 178t185.5 103l47 -125q-118 -37 -141 -90q20 14 55 14q59 0 96 -36.5t37 -94.5q0 -65 -48.5 -103t-115.5 -38q-83 0 -136.5 53.5t-53.5 138.5z" />
    <glyph glyph-name="uni0315" unicode="&#x315;" horiz-adv-x="0" 
d="M125 1120l22 416h304l-115 -416h-211z" />
    <glyph glyph-name="dotbelowcomb" unicode="&#x323;" horiz-adv-x="0" 
d="M-203 -285q0 86 58 141.5t145 55.5q86 0 145.5 -55.5t59.5 -141.5q0 -85 -59 -140.5t-146 -55.5q-86 0 -144.5 55t-58.5 141z" />
    <glyph glyph-name="uni0326" unicode="&#x326;" horiz-adv-x="0" 
d="M-176 -242q0 65 48.5 103.5t115.5 38.5q83 0 136.5 -54t53.5 -139q0 -106 -74.5 -177.5t-185.5 -102.5l-47 124q94 24 129 84q-16 -8 -43 -8q-59 0 -96 36.5t-37 94.5z" />
    <glyph glyph-name="uni0327" unicode="&#x327;" horiz-adv-x="0" 
d="M-88 -471q-83 0 -180 33l26 184q58 -20 101 -20q84 0 84 57q0 59 -111 59l72 181h229l-33 -93q60 -24 94.5 -70.5t34.5 -109.5q0 -57 -30.5 -101.5t-79 -69.5t-101.5 -37.5t-106 -12.5z" />
    <glyph glyph-name="uni0328" unicode="&#x328;" horiz-adv-x="0" 
d="M-186 -471q-49 0 -94 9.5t-85.5 30.5t-65 59.5t-24.5 90.5q0 159 273 334l182 -53q-81 -70 -129 -125q-37 -46 -37 -78q0 -28 19 -47q22 -16 55 -16q52 0 84 18l20 -184q-82 -39 -198 -39z" />
    <glyph glyph-name="uni0E3F" unicode="&#xe3f;" 
d="M102 0v1413h357v256h272v-262q80 -11 148.5 -37t124.5 -69t88 -110t32 -151q0 -98 -44.5 -173t-129.5 -119q113 -39 174.5 -129t61.5 -211q0 -92 -38 -166.5t-103.5 -122t-144.5 -76t-169 -39.5v-291h-272v287h-357zM631 582h-152v-285h152q166 0 166 141q0 144 -166 144
zM479 1116v-254h111q67 0 107 30.5t40 94.5q0 129 -147 129h-111z" />
    <glyph glyph-name="uni1E24" unicode="&#x1e24;" horiz-adv-x="1560" 
d="M113 1454h409v-524h516v524h410v-1454h-410v569h-516v-569h-409v1454zM567 -305q0 87 62.5 147t150.5 60q89 0 152 -59t63 -148q0 -91 -61 -149t-154 -58q-91 0 -152 58t-61 149z" />
    <glyph glyph-name="uni1E25" unicode="&#x1e25;" horiz-adv-x="1245" 
d="M92 1536h383v-553q48 73 126.5 111.5t170.5 38.5q95 0 169.5 -37.5t120 -102t68.5 -146t23 -175.5v-672h-383v614q0 72 -34 122t-103 50q-70 0 -114 -50t-44 -122v-614h-383v1536zM623 -481q-86 0 -144.5 55t-58.5 141q0 84 59 140.5t144 56.5q86 0 145 -55.5t59 -141.5
q0 -85 -58.5 -140.5t-145.5 -55.5z" />
    <glyph glyph-name="uni1E36" unicode="&#x1e36;" horiz-adv-x="1144" 
d="M113 1454h409v-1094h551v-360h-960v1454zM379 -305q0 87 62.5 147t150.5 60q89 0 152 -59t63 -148q0 -91 -61 -149t-154 -58q-91 0 -152 58t-61 149z" />
    <glyph glyph-name="uni1E37" unicode="&#x1e37;" horiz-adv-x="567" 
d="M92 0v1536h383v-1536h-383zM283 -481q-86 0 -144.5 55t-58.5 141q0 84 59 140.5t144 56.5q86 0 145 -55.5t59 -141.5q0 -85 -58.5 -140.5t-145.5 -55.5z" />
    <glyph glyph-name="Wgrave" unicode="&#x1e80;" horiz-adv-x="2195" 
d="M51 1454h430l211 -907l232 907h362l232 -907l211 907h415l-440 -1454h-369l-235 924l-236 -924h-372zM616 1890h469l287 -293h-385z" />
    <glyph glyph-name="wgrave" unicode="&#x1e81;" horiz-adv-x="1789" 
d="M10 1102h396l149 -668l180 668h326l182 -674l156 674h381l-363 -1102h-348l-176 659l-178 -659h-342zM481 1536h418l227 -293h-354z" />
    <glyph glyph-name="Wacute" unicode="&#x1e82;" horiz-adv-x="2195" 
d="M492 0l-441 1454h430l211 -907l232 907h362l232 -907l211 907h415l-440 -1454h-369l-235 924l-236 -924h-372zM1208 1597h-385l287 293h469z" />
    <glyph glyph-name="wacute" unicode="&#x1e83;" horiz-adv-x="1789" 
d="M10 1102h396l149 -668l180 668h326l182 -674l156 674h381l-363 -1102h-348l-176 659l-178 -659h-342zM1020 1243h-354l227 293h418z" />
    <glyph glyph-name="Wdieresis" unicode="&#x1e84;" horiz-adv-x="2195" 
d="M492 0l-441 1454h430l211 -907l232 907h362l232 -907l211 907h415l-440 -1454h-369l-235 924l-236 -924h-372zM829 1563q-83 0 -140.5 55t-57.5 137q0 83 57 138t141 55q83 0 141 -55t58 -138q0 -81 -58.5 -136.5t-140.5 -55.5zM1167 1755q0 83 57.5 138t141.5 55
q83 0 141 -55t58 -138q0 -81 -58.5 -136.5t-140.5 -55.5q-83 0 -141 55t-58 137z" />
    <glyph glyph-name="wdieresis" unicode="&#x1e85;" horiz-adv-x="1789" 
d="M10 1102h396l149 -668l180 668h326l182 -674l156 674h381l-363 -1102h-348l-176 659l-178 -659h-342zM659 1202q-77 0 -131.5 53.5t-54.5 130.5q0 78 54 131.5t132 53.5q77 0 132 -53t55 -132q0 -77 -54.5 -130.5t-132.5 -53.5zM944 1386q0 78 54 131.5t132 53.5
q77 0 132 -53t55 -132q0 -77 -54.5 -130.5t-132.5 -53.5q-77 0 -131.5 53.5t-54.5 130.5z" />
    <glyph glyph-name="Germandbls" unicode="&#x1e9e;" horiz-adv-x="1400" 
d="M102 0v846q0 163 50 284q70 172 222.5 263.5t346.5 91.5q174 0 334 -75.5t264 -211.5l-229 -360q126 -47 198 -156t72 -246q0 -141 -72.5 -249t-190 -163t-259.5 -55q-111 0 -230 39l49 326q37 -12 64 -17q31 -8 65 -8q75 0 126 42t51 116q0 83 -58 120.5t-147 37.5
l-27 221l158 250q-34 24 -70 37q-40 12 -84 12q-113 0 -168 -80t-55 -199v-866h-410z" />
    <glyph glyph-name="Ygrave" unicode="&#x1ef2;" horiz-adv-x="1437" 
d="M514 555l-504 899h453l264 -543l262 543h438l-503 -899v-555h-410v555zM608 1597l-370 293h469l286 -293h-385z" />
    <glyph glyph-name="ygrave" unicode="&#x1ef3;" horiz-adv-x="1210" 
d="M449 12l-439 1090h414l203 -717l174 717h399l-424 -1155q-42 -111 -94.5 -185t-138.5 -119.5t-201 -45.5q-134 0 -229 53l61 282q72 -26 123 -26q56 0 91 26t61 80zM190 1536h418l228 -293h-355z" />
    <glyph glyph-name="uni2000" unicode="&#x2000;" horiz-adv-x="1024" 
 />
    <glyph glyph-name="uni2001" unicode="&#x2001;" horiz-adv-x="2048" 
 />
    <glyph glyph-name="uni2002" unicode="&#x2002;" horiz-adv-x="1024" 
 />
    <glyph glyph-name="uni2003" unicode="&#x2003;" horiz-adv-x="2048" 
 />
    <glyph glyph-name="uni2004" unicode="&#x2004;" horiz-adv-x="681" 
 />
    <glyph glyph-name="uni2005" unicode="&#x2005;" horiz-adv-x="512" 
 />
    <glyph glyph-name="uni2006" unicode="&#x2006;" horiz-adv-x="339" 
 />
    <glyph glyph-name="uni2007" unicode="&#x2007;" 
 />
    <glyph glyph-name="uni2008" unicode="&#x2008;" horiz-adv-x="612" 
 />
    <glyph glyph-name="uni2009" unicode="&#x2009;" horiz-adv-x="409" 
 />
    <glyph glyph-name="uni200A" unicode="&#x200a;" horiz-adv-x="129" 
 />
    <glyph glyph-name="uni200B" unicode="&#x200b;" horiz-adv-x="0" 
 />
    <glyph glyph-name="endash" unicode="&#x2013;" horiz-adv-x="1024" 
d="M0 424v278h1024v-278h-1024z" />
    <glyph glyph-name="emdash" unicode="&#x2014;" horiz-adv-x="2048" 
d="M0 424v278h2048v-278h-2048z" />
    <glyph glyph-name="quoteleft" unicode="&#x2018;" horiz-adv-x="542" 
d="M51 1071q0 159 101 265.5t264 138.5l47 -172q-78 -14 -145.5 -63t-67.5 -118q31 17 65 17q70 0 118 -50.5t48 -121.5q0 -47 -24 -88q-30 -45 -70 -64q-43 -24 -96 -24q-107 0 -173.5 84.5t-66.5 195.5z" />
    <glyph glyph-name="quoteright" unicode="&#x2019;" horiz-adv-x="542" 
d="M227 1116q-70 0 -118 50.5t-48 121.5q0 50 27 90q26 40 70.5 63t93.5 23q109 0 174.5 -84t65.5 -196q0 -158 -102.5 -267.5t-262.5 -136.5l-47 172q76 10 144.5 61t68.5 120q-31 -17 -66 -17z" />
    <glyph glyph-name="quotesinglbase" unicode="&#x201a;" horiz-adv-x="563" 
d="M258 51q-70 0 -118 50.5t-48 121.5q0 49 27 90q26 40 70.5 63t93.5 23q109 0 174 -83.5t65 -196.5q0 -158 -102 -267.5t-262 -136.5l-47 172q79 12 146 61t67 120q-31 -17 -66 -17z" />
    <glyph glyph-name="quotedblleft" unicode="&#x201c;" horiz-adv-x="1044" 
d="M291 791q-107 0 -173.5 84.5t-66.5 195.5q0 159 101 265.5t264 138.5l47 -172q-78 -14 -145.5 -63t-67.5 -118q31 17 65 17q70 0 118 -50.5t48 -121.5q0 -47 -24 -88q-30 -45 -70 -64q-43 -24 -96 -24zM793 791q-107 0 -173.5 84.5t-66.5 195.5q0 159 101 265.5
t264 138.5l47 -172q-78 -14 -145.5 -63t-67.5 -118q31 17 65 17q70 0 118 -50.5t48 -121.5q0 -46 -25 -88q-30 -45 -69 -64q-43 -24 -96 -24z" />
    <glyph glyph-name="quotedblright" unicode="&#x201d;" horiz-adv-x="1044" 
d="M61 1288q0 50 27 90q26 40 70.5 63t93.5 23q109 0 174.5 -84t65.5 -196q0 -158 -102.5 -267.5t-262.5 -136.5l-47 172q76 10 144.5 61t68.5 120q-31 -17 -66 -17q-70 0 -118 50.5t-48 121.5zM729 1116q-70 0 -118 50.5t-48 121.5q0 50 27 90q26 40 70.5 63t93.5 23
q109 0 174 -83.5t65 -196.5q0 -158 -102 -267.5t-262 -136.5l-47 172q76 10 144.5 61t68.5 120q-31 -17 -66 -17z" />
    <glyph glyph-name="quotedblbase" unicode="&#x201e;" horiz-adv-x="1064" 
d="M760 51q-70 0 -118 50.5t-48 121.5q0 49 27 90q26 40 70.5 63t92.5 23q109 0 174.5 -84t65.5 -196q0 -158 -102.5 -267.5t-262.5 -136.5l-47 172q79 12 146 61t67 120q-31 -17 -65 -17zM92 223q0 49 27 90q26 40 70.5 63t93.5 23q109 0 174 -83.5t65 -196.5
q0 -158 -102 -267.5t-262 -136.5l-47 172q79 12 146 61t67 120q-31 -17 -66 -17q-70 0 -118 50.5t-48 121.5z" />
    <glyph glyph-name="dagger" unicode="&#x2020;" horiz-adv-x="1015" 
d="M61 1128h271v326h352v-326h270v-305h-270v-991h-352v991h-271v305z" />
    <glyph glyph-name="daggerdbl" unicode="&#x2021;" horiz-adv-x="1077" 
d="M92 473h270v350h-270v305h270v326h353v-326h270v-305h-270v-350h270v-305h-270v-336h-353v336h-270v305z" />
    <glyph glyph-name="bullet" unicode="&#x2022;" horiz-adv-x="749" 
d="M375 270q-122 0 -207.5 86t-85.5 209q0 124 84 209.5t209 85.5t209 -84.5t84 -210.5q0 -124 -84.5 -209.5t-208.5 -85.5z" />
    <glyph glyph-name="ellipsis" unicode="&#x2026;" horiz-adv-x="1837" 
d="M1530 -10q-95 0 -160 66t-65 161q0 94 65 160.5t160 66.5t160 -65t65 -162q0 -96 -64.5 -161.5t-160.5 -65.5zM692 217q0 94 65.5 160.5t160.5 66.5t160 -65t65 -162q0 -96 -64.5 -161.5t-160.5 -65.5q-95 0 -160.5 66t-65.5 161zM305 -10q-95 0 -160 66t-65 161
q0 94 65 160.5t160 66.5t160 -65t65 -162q0 -96 -64.5 -161.5t-160.5 -65.5z" />
    <glyph glyph-name="perthousand" unicode="&#x2030;" horiz-adv-x="2367" 
d="M211 0l889 1413h289l-889 -1413h-289zM1962 -18q-141 0 -241.5 91.5t-100.5 233.5q0 143 100.5 236.5t245.5 93.5q143 0 242.5 -91.5t99.5 -234.5t-99.5 -236t-246.5 -93zM59 1102q0 143 101 236.5t246 93.5q143 0 242.5 -91.5t99.5 -234.5t-100 -236.5t-247 -93.5
q-141 0 -241.5 92t-100.5 234zM1194 -18q-141 0 -241.5 91.5t-100.5 233.5q0 143 100.5 236.5t245.5 93.5q143 0 242.5 -91.5t99.5 -234.5t-99.5 -236t-246.5 -93zM1102 309q0 -44 26 -77t68 -33t68 33t26 77q0 46 -25 78.5t-69 32.5t-69 -32.5t-25 -78.5zM309 1104
q0 -42 26.5 -76.5t67.5 -34.5q42 0 68.5 33.5t26.5 77.5q0 45 -25.5 77.5t-69.5 32.5q-42 0 -68 -33.5t-26 -76.5zM1870 309q0 -42 26.5 -76t67.5 -34q42 0 68 33t26 77q0 46 -25 78.5t-69 32.5q-42 0 -68 -34t-26 -77z" />
    <glyph glyph-name="guilsinglleft" unicode="&#x2039;" horiz-adv-x="692" 
d="M307 182l-266 402l266 401h314l-256 -401l256 -402h-314z" />
    <glyph glyph-name="guilsinglright" unicode="&#x203a;" horiz-adv-x="692" 
d="M72 182l256 402l-256 401h313l266 -401l-266 -402h-313z" />
    <glyph glyph-name="fraction" unicode="&#x2044;" horiz-adv-x="186" 
d="M-496 0l904 1413h274l-903 -1413h-275z" />
    <glyph glyph-name="uni2080" unicode="&#x2080;" horiz-adv-x="743" 
d="M47 387q0 80 18.5 151t56.5 130.5t103 94t150 34.5q83 0 146 -34t100 -92t55 -128.5t18 -151.5q0 -64 -11 -121.5t-36 -110.5t-62 -92t-93 -62t-125 -23q-83 0 -146 33.5t-100 91.5t-55.5 128.5t-18.5 151.5zM301 389q0 -91 18 -135q15 -45 50 -45q38 0 55 45
q16 46 16 135t-16 139q-18 43 -55 43q-68 0 -68 -182z" />
    <glyph glyph-name="uni2081" unicode="&#x2081;" horiz-adv-x="743" 
d="M293 0v520l-137 -74l-72 205l238 127h223v-778h-252z" />
    <glyph glyph-name="uni2082" unicode="&#x2082;" horiz-adv-x="743" 
d="M63 553q10 73 57 130t113.5 85.5t139.5 28.5q119 0 204 -69.5t85 -186.5q0 -148 -183 -293q-9 -7 -27.5 -21t-25.5 -20h250v-207h-598v164q33 28 59 47q22 17 70 59q38 31 62.5 53t62 59.5t57 73t19.5 66.5q0 29 -15 47q-17 17 -39 17q-23 0 -39 -19q-17 -17 -20 -45z
" />
    <glyph glyph-name="uni2083" unicode="&#x2083;" horiz-adv-x="743" 
d="M49 197l225 32q3 -20 27 -31.5t47 -11.5q29 0 51.5 15.5t22.5 42.5q0 26 -19.5 39.5t-46.5 13.5h-75v192h59q25 0 49 17q19 16 19 37q0 20 -17 37q-15 12 -39 12q-20 0 -39 -12t-22 -31l-228 35q14 99 105 156t199 57q169 0 247 -107q35 -53 35 -117q0 -113 -104 -167
q125 -52 125 -181q0 -80 -47 -137t-115 -81.5t-148 -24.5q-72 0 -135 21.5t-112.5 71.5t-63.5 122z" />
    <glyph glyph-name="uni2084" unicode="&#x2084;" horiz-adv-x="743" 
d="M27 137v182l307 459h274v-454h72v-187h-72v-137h-229v137h-352zM236 324h143v211z" />
    <glyph glyph-name="colonmonetary" unicode="&#x20a1;" 
d="M88 676q0 97 13 188t45.5 184t82 165.5t128 128t178.5 77.5l43 250h176l-41 -237q34 -2 88 -17l43 254h176l-57 -336q146 -115 188 -327l-379 -56q-13 57 -43 96t-82 39q-164 0 -164 -391q0 -366 164 -366q99 0 131 135l379 -55q-31 -166 -142 -279.5t-278 -142.5
l-45 -273h-176l45 273q-39 3 -88 16l-47 -289h-176l61 373q-223 176 -223 590z" />
    <glyph glyph-name="uni20A8" unicode="&#x20a8;" horiz-adv-x="2306" 
d="M102 0v1413h492q91 0 172.5 -15.5t155.5 -51t128 -88.5t85.5 -132.5t31.5 -177.5q0 -118 -58.5 -220t-160.5 -169l307 -559h-417l-217 453h-41q-48 0 -101 6v-459h-377zM1772 -31q-78 0 -153.5 18t-144.5 53t-121 94t-75 134l344 56q16 -43 57 -64q41 -24 97 -24
q44 0 79 19.5t35 59.5q0 39 -37 60t-127 33l-38 6q-77 11 -142.5 36t-120.5 65.5t-86.5 103.5t-31.5 143q0 90 38.5 162.5t103.5 117t145.5 68t168.5 23.5q162 0 290 -73t173 -218l-340 -56q-35 80 -123 80q-42 0 -73 -19.5t-31 -58.5q0 -22 14 -36q15 -19 47 -27
q30 -10 92 -20l39 -7q62 -10 116 -26t106.5 -44.5t89.5 -65.5t59.5 -91t22.5 -119q0 -94 -40 -169t-107 -120.5t-150.5 -69.5t-175.5 -24zM479 1098v-324q62 -12 125 -12q83 0 130.5 46t47.5 128t-52 122t-136 40h-115z" />
    <glyph glyph-name="uni20A9" unicode="&#x20a9;" horiz-adv-x="1990" 
d="M266 723h-215v205h160l-129 485h410l159 -856l180 856h343l180 -856l159 856h396l-129 -485h159v-205h-215l-30 -117h245v-205h-301l-106 -401h-354l-181 834l-178 -834h-360l-107 401h-301v205h246z" />
    <glyph glyph-name="uni20AA" unicode="&#x20aa;" horiz-adv-x="1906" 
d="M123 0v1413h665q164 0 287.5 -75t188.5 -205.5t65 -296.5v-357h-297v340q0 129 -68.5 193.5t-197.5 64.5h-346v-1077h-297zM1243 0h-665v922h296v-586h347q129 0 197.5 64.5t68.5 193.5v819h297v-835q0 -163 -62.5 -292.5t-187 -207.5t-291.5 -78z" />
    <glyph glyph-name="dong" unicode="&#x20ab;" 
d="M12 487q0 80 19.5 157t58 145t92.5 119.5t128 81.5t159 30q160 0 256 -113v195h-240v205h240v106h383v-106h115v-205h-115v-1102h-354l-9 133q-49 -76 -129.5 -120t-171.5 -44q-98 0 -181 45.5t-137 120t-84 166t-30 186.5zM33 -317v204h1136v-204h-1136zM401 496
q0 -76 45 -137.5t119 -61.5t118 61t44 138q0 78 -43 139t-119 61q-75 0 -119.5 -61t-44.5 -139z" />
    <glyph glyph-name="Euro" unicode="&#x20ac;" 
d="M150 496h-152l43 163h96v17q0 46 2 69h-139l43 164h115q20 114 63.5 208.5t110 169t164.5 116t217 41.5q189 0 317 -100.5t170 -286.5l-348 -56q-40 125 -152 125q-139 0 -182 -217h361l-43 -164h-334v-86h317l-43 -163h-260q41 -209 180 -209q60 0 103.5 33.5t58.5 91.5
l348 -56q-42 -184 -178.5 -285.5t-331.5 -101.5q-236 0 -373.5 142.5t-172.5 384.5z" />
    <glyph glyph-name="uni20AD" unicode="&#x20ad;" 
d="M115 0v604h-144v266h144v543h377v-590l305 590h415l-331 -543h264v-266h-240l381 -604h-463l-331 649v-649h-377z" />
    <glyph glyph-name="uni20B1" unicode="&#x20b1;" 
d="M174 647h-156v205h156v117h-154v205h154v239h440q147 0 264.5 -58.5t180.5 -180.5h172v-205h-117q2 -18 2 -54q0 -23 -4 -63h119v-205h-182q-63 -112 -173.5 -171.5t-242.5 -59.5q-43 0 -92 6v-422h-367v647zM541 1098v-361q35 -6 63 -6q74 0 116 53t42 129
q0 78 -38.5 131.5t-113.5 53.5h-69z" />
    <glyph glyph-name="uni20B9" unicode="&#x20b9;" 
d="M160 1036h434q-52 129 -219 129h-215v248h981l-66 -248h-180q49 -62 72 -129h174l-66 -248h-92q-23 -131 -112.5 -222.5t-221.5 -131.5l492 -434h-490l-489 436h-2v232q110 -21 196 -21q186 0 242 141h-438v248z" />
    <glyph glyph-name="uni20BA" unicode="&#x20ba;" 
d="M90 365v213l135 63v129l-133 -63v213l133 63v430h375v-252l201 96v-213l-201 -96v-129l201 96v-213l-201 -96v-266q191 34 225 278l359 -30q-90 -588 -697 -588h-262v428z" />
    <glyph glyph-name="trademark" unicode="&#x2122;" horiz-adv-x="1679" 
d="M772 735v719h246l153 -328l156 328h240v-719h-228v352l-92 -202h-153l-93 205v-355h-229zM61 1454h617v-211h-186v-508h-242v508h-189v211z" />
    <glyph glyph-name="minus" unicode="&#x2212;" 
d="M170 399v328h895v-328h-895z" />
    <glyph glyph-name="uniFEFF" unicode="&#xfeff;" horiz-adv-x="0" 
 />
    <glyph glyph-name="uniFFFD" unicode="&#xfffd;" horiz-adv-x="1654" 
d="M827 -70l-796 797l796 797l797 -797zM827 1139q-118 0 -209 -59.5t-116 -170.5l217 -43q13 36 39 54q24 18 59 18q39 0 60 -18q22 -22 22 -54q0 -88 -194 -137v-178h221v78q97 32 154 94t57 158q0 122 -90.5 190t-219.5 68zM815 492q-55 0 -92 -37t-37 -93t37 -93.5
t92 -37.5t93 37.5t38 93.5q0 57 -37.5 93.5t-93.5 36.5z" />
    <glyph glyph-name="glyph1" horiz-adv-x="0" 
 />
    <glyph glyph-name="zero.aalt" 
d="M55 702q0 110 18.5 213t61.5 200.5t107 169.5t162 115.5t219 43.5q118 0 214 -42t159.5 -111.5t106 -165t61 -199t18.5 -215.5q0 -111 -18.5 -213.5t-61 -200t-106.5 -169.5t-162 -115.5t-220 -43.5q-118 0 -213.5 42t-159 112t-106.5 165.5t-61.5 198.5t-18.5 215z
M618 1085q-38 0 -67 -20t-46.5 -55.5t-29 -73t-16.5 -85t-6.5 -78.5t-1.5 -66q0 -43 2 -81.5t11.5 -96.5t26 -99t49.5 -71.5t78 -30.5q38 0 67.5 20t46.5 55.5t29 73.5t17 85.5t6.5 79t1.5 65.5t-1.5 65.5t-6.5 79t-17 85t-29 73t-46.5 55.5t-67.5 20z" />
    <glyph glyph-name="one.aalt" 
d="M516 0v1006l-250 -138l-116 324l415 221h340v-1413h-389z" />
    <glyph glyph-name="two.aalt" 
d="M84 1016q32 195 184 311.5t355 116.5q134 0 245.5 -53.5t179.5 -158.5t68 -243q0 -76 -27 -151.5t-75.5 -143.5t-98.5 -121t-114 -110q-32 -32 -72 -64q-54 -44 -78 -61h490v-338h-1035v272q213 170 365 312q250 234 250 383q0 61 -33 100t-92 39q-60 0 -97.5 -41.5
t-45.5 -103.5z" />
    <glyph glyph-name="three.aalt" 
d="M612 -31q-128 0 -239.5 42t-194 132.5t-108.5 216.5l360 56q17 -56 62 -87.5t104 -31.5q64 0 110 35.5t46 97.5t-44.5 97.5t-107.5 35.5h-145v307h123q62 0 104.5 33.5t42.5 93.5q0 55 -35 87t-90 32q-54 0 -92.5 -32.5t-52.5 -86.5l-361 56q22 124 102 214t190.5 133.5
t238.5 43.5q73 0 142.5 -15.5t132 -48t109.5 -79t75 -113t28 -144.5q0 -101 -49 -180t-139 -125q107 -43 164 -129t57 -202q0 -105 -45.5 -190.5t-121 -138.5t-170 -81.5t-196.5 -28.5z" />
    <glyph glyph-name="four.aalt" 
d="M41 262v295l561 856h438v-846h142v-305h-142v-262h-372v262h-627zM375 567h293v443z" />
    <glyph glyph-name="five.aalt" 
d="M94 360l367 48q41 -111 147 -111q67 0 112.5 42.5t45.5 109.5t-43 110t-111 43q-86 0 -145 -53l-305 29v835h893v-338h-527v-209q74 47 179 47q200 0 326 -129t126 -333q0 -142 -76 -253.5t-198 -170t-264 -58.5q-92 0 -178.5 25.5t-158.5 73.5t-123 123.5t-67 168.5z
" />
    <glyph glyph-name="six.aalt" 
d="M57 664q0 125 27.5 239.5t84 213t137 171.5t193.5 114.5t246 41.5q192 0 355 -88l-84 -312q-26 16 -66 31q-107 29 -182 29q-140 0 -221.5 -86t-102.5 -230q106 132 293 132q194 0 323.5 -130.5t129.5 -328.5q0 -141 -73 -254.5t-193.5 -175.5t-261.5 -62q-115 0 -213 36
t-169.5 100.5t-122 152t-75.5 190.5t-25 216zM485 453q0 -68 46 -118t114 -50q69 0 114.5 49t45.5 119q0 71 -45 120.5t-115 49.5q-68 0 -114 -50.5t-46 -119.5z" />
    <glyph glyph-name="seven.aalt" 
d="M231 0l459 1065h-598v348h1028v-283l-461 -1130h-428z" />
    <glyph glyph-name="eight.aalt" 
d="M616 -31q-79 0 -155.5 14.5t-150 47.5t-129 80.5t-89 119.5t-33.5 158q0 120 62.5 211t173.5 137q-92 45 -142.5 123t-50.5 178q0 99 46 179t122 128t166.5 73.5t186.5 25.5q75 0 146.5 -14t138 -45t117 -76.5t80.5 -113t30 -148.5q0 -103 -49.5 -181.5t-141.5 -126.5
q113 -43 173.5 -130t60.5 -208q0 -87 -33 -159.5t-88 -122t-128 -84t-152 -50.5t-161 -16zM442 426q0 -66 53.5 -103.5t122.5 -37.5q70 0 123.5 37t53.5 104q0 69 -52.5 106t-124.5 37t-124 -37t-52 -106zM618 1128q-61 0 -103 -35.5t-42 -95.5t42 -95.5t103 -35.5t103.5 36
t42.5 95t-42.5 95t-103.5 36z" />
    <glyph glyph-name="nine.aalt" 
d="M47 948q0 142 73 256.5t194 177t264 62.5q145 0 261.5 -56t190 -153t112 -223t38.5 -271q0 -126 -26.5 -240t-82 -211.5t-135 -168.5t-192.5 -111.5t-248 -40.5q-187 0 -367 86l84 314q71 -42 166 -52q41 -8 90 -8q151 0 232.5 84t95.5 238q-49 -68 -127.5 -102.5
t-167.5 -34.5q-191 0 -323 130.5t-132 323.5zM432 958q0 -69 46 -118t114 -49q69 0 114.5 48.5t45.5 118.5q0 71 -45 120.5t-115 49.5q-68 0 -114 -50.5t-46 -119.5z" />
    <glyph glyph-name="hyphen.aalt" horiz-adv-x="757" 
d="M82 588v327h594v-327h-594z" />
    <glyph glyph-name="endash.aalt" horiz-adv-x="1024" 
d="M0 612v279h1024v-279h-1024z" />
    <glyph glyph-name="emdash.aalt" horiz-adv-x="2048" 
d="M0 612v279h2048v-279h-2048z" />
    <glyph glyph-name="parenleft.aalt" horiz-adv-x="782" 
d="M82 727q0 517 324 975h356q-328 -488 -328 -975t328 -975h-356q-324 458 -324 975z" />
    <glyph glyph-name="parenright.aalt" horiz-adv-x="782" 
d="M377 -248h-357q328 488 328 975t-328 975h357q323 -457 323 -975t-323 -975z" />
    <glyph glyph-name="slash.case" horiz-adv-x="1052" 
d="M8 -186l688 1826h348l-688 -1826h-348z" />
    <glyph glyph-name="backslash.aalt" horiz-adv-x="1052" 
d="M696 -186l-688 1826h348l688 -1826h-348z" />
    <glyph glyph-name="bracketleft.aalt" horiz-adv-x="804" 
d="M133 1702h590v-293h-254v-1364h254v-293h-590v1950z" />
    <glyph glyph-name="bracketright.aalt" horiz-adv-x="804" 
d="M336 1409h-254v293h590v-1950h-590v293h254v1364z" />
    <glyph glyph-name="braceleft.aalt" horiz-adv-x="845" 
d="M61 588v278h31q123 0 123 111q0 31 -6 80q-25 132 -25 227q0 110 35.5 192t100.5 130.5t150.5 72t193.5 23.5h100v-293h-70q-86 0 -125 -44.5t-39 -131.5q0 -39 9 -86q8 -59 14 -92q8 -41 8 -82q0 -78 -40 -149.5t-109 -96.5q69 -25 109 -96.5t40 -149.5q0 -41 -8 -82
q-6 -33 -14 -92q-9 -46 -9 -86q0 -87 39 -131.5t125 -44.5h70v-293h-100q-108 0 -193.5 23.5t-150.5 72t-100.5 130.5t-35.5 192q0 93 25 229q6 47 6 78q0 111 -123 111h-31z" />
    <glyph glyph-name="braceright.aalt" horiz-adv-x="845" 
d="M182 -248h-100v293h70q87 0 125 43.5t38 132.5q0 45 -8 86q-6 33 -14 92q-8 41 -8 82q0 76 40.5 147.5t108.5 98.5q-68 27 -108.5 98.5t-40.5 147.5q0 41 8 82q8 59 14 92q8 41 8 86q0 89 -38 132.5t-125 43.5h-70v293h100q108 0 193.5 -23.5t150.5 -72t100.5 -130.5
t35.5 -192q0 -62 -9 -121q-2 -13 -14 -106q-8 -44 -8 -80q0 -111 123 -111h30v-278h-30q-123 0 -123 -111q0 -37 8 -78q10 -80 14 -108q9 -59 9 -121q0 -110 -35.5 -192t-100.5 -130.5t-150.5 -72t-193.5 -23.5z" />
    <glyph glyph-name="bullet.aalt" horiz-adv-x="749" 
d="M375 453q-122 0 -207.5 86t-85.5 209q0 124 84 209t209 85t209 -84t84 -210q0 -124 -84.5 -209.5t-208.5 -85.5z" />
    <glyph glyph-name="guilsinglleft.aalt" horiz-adv-x="692" 
d="M307 326l-266 401l266 401h314l-256 -401l256 -401h-314z" />
    <glyph glyph-name="guilsinglright.aalt" horiz-adv-x="692" 
d="M72 326l256 401l-256 401h313l266 -401l-266 -401h-313z" />
    <glyph glyph-name="guillemotleft.aalt" horiz-adv-x="1193" 
d="M41 727l266 401h314l-256 -401l256 -401h-314zM809 326l-266 401l266 401h313l-256 -401l256 -401h-313z" />
    <glyph glyph-name="guillemotright.aalt" horiz-adv-x="1193" 
d="M829 727l-256 401h314l266 -401l-266 -401h-314zM72 326l256 401l-256 401h313l266 -401l-266 -401h-313z" />
    <glyph glyph-name="at.aalt" horiz-adv-x="2095" 
d="M1057 -223q-200 0 -380 68.5t-314 189.5t-212.5 298.5t-78.5 383.5q0 205 78 383.5t211.5 304t317 197t390.5 71.5q151 0 292.5 -36.5t261.5 -109.5t209.5 -175t140 -240.5t50.5 -298.5q0 -86 -15 -164t-49.5 -148.5t-85 -121.5t-126 -81t-168.5 -30q-103 0 -185 41
t-124 127q-41 -79 -120 -124.5t-169 -45.5q-121 0 -218.5 65.5t-149.5 171t-52 226.5q0 118 50.5 223.5t147 173.5t216.5 68q79 0 147 -36t109 -101l6 114h285v-559q0 -44 19 -75t61 -31q44 0 75 33t45 85t19.5 96t5.5 85q0 188 -89 329t-240 213t-341 72q-201 0 -364.5 -86
t-259 -246.5t-95.5 -365.5q0 -191 90 -349t249.5 -249.5t353.5 -91.5q97 0 206 26t195 70l113 -221q-206 -129 -508 -129zM1044 920q-76 0 -124 -55t-48 -132q0 -76 48 -131t124 -55q75 0 124 54.5t49 131.5q0 76 -48.5 131.5t-124.5 55.5z" />
    <glyph glyph-name="periodcentered.case" horiz-adv-x="612" 
d="M80 797q0 94 65 160.5t160 66.5t160 -65t65 -162q0 -96 -64.5 -162t-160.5 -66q-95 0 -160 66t-65 162z" />
    <glyph glyph-name="exclamdown.aalt" horiz-adv-x="593" 
d="M506 0h-418l25 948h368zM80 1247q0 93 62 155t155 62t155 -62t62 -155t-62 -155t-155 -62t-155 62t-62 155z" />
    <glyph glyph-name="questiondown.aalt" horiz-adv-x="1163" 
d="M61 403q0 157 97.5 266.5t255.5 159.5v119h368v-297q-35 -9 -61 -17t-68 -22.5t-72.5 -32t-60 -40.5t-45.5 -52.5t-16 -62.5q0 -53 40 -86t95 -33q58 0 101.5 31.5t62.5 87.5l364 -72q-27 -122 -110.5 -211t-195 -130.5t-238.5 -41.5q-98 0 -189 28t-165 80.5t-118.5 137
t-44.5 188.5zM381 1247q0 93 62 155t155 62t155 -62t62 -155t-62 -155t-155 -62t-155 62t-62 155z" />
    <glyph glyph-name="a.ss01" horiz-adv-x="1341" 
d="M547 -31q-110 0 -203.5 50t-154 131.5t-94.5 183.5t-34 209q0 89 22 174.5t66 160.5t104.5 132t143 90t176.5 33q207 0 314 -164l8 133h354v-1102h-354l-10 156q-53 -90 -142.5 -138.5t-195.5 -48.5zM451 553q0 -95 59 -165.5t152 -70.5t149.5 69.5t56.5 166.5
q0 96 -56 165.5t-150 69.5t-152.5 -69.5t-58.5 -165.5z" />
    <glyph glyph-name="ordfeminine.ss01" horiz-adv-x="1013" 
d="M61 1020q0 107 41 200t124.5 153.5t193.5 60.5q134 0 219 -113l6 92h266v-776h-266l-8 102q-85 -123 -229 -123q-103 0 -184 59t-122 150.5t-41 194.5zM354 1024q0 -62 37 -104.5t98 -42.5q63 0 99.5 41.5t36.5 105.5q0 66 -37 109q-41 41 -99 41q-62 0 -98.5 -43.5
t-36.5 -106.5z" />
    <glyph glyph-name="glyph199" horiz-adv-x="319" 
d="M-20 778q0 74 53 128.5t127 54.5q75 0 127.5 -54t52.5 -129q0 -74 -53 -128t-127 -54q-75 0 -127.5 53.5t-52.5 128.5z" />
    <glyph glyph-name="glyph200" horiz-adv-x="0" 
d="M-455 852q0 50 25 98q27 43 70 70q47 24 98 24q80 0 136 -55.5t56 -136.5q0 -54 -26 -96q-24 -46 -70 -70q-44 -27 -96 -27q-80 0 -136.5 56t-56.5 137z" />
    <glyph glyph-name="glyph205" horiz-adv-x="1245" 
d="M92 1102h383v-533q0 -72 34 -122t103 -50q70 0 114 50t44 122v533h383v-963q0 -246 -149 -399.5t-400 -153.5q-170 0 -306.5 79t-195.5 231l377 71q49 -76 129 -76q45 0 84 25q78 59 78 178v107q-46 -71 -127 -110.5t-170 -39.5q-94 0 -168.5 37.5t-120 102.5t-69 146.5
t-23.5 174.5v590z" />
    <glyph glyph-name="ae.ss01" horiz-adv-x="1990" 
d="M61 543q0 110 34 214.5t95.5 188.5t158.5 135.5t212 51.5q202 0 305 -175l8 144h285l8 -119q55 74 134.5 112t173.5 38q97 0 176 -35t132 -93.5t88.5 -138t51.5 -165t16 -177.5v-69h-714q15 -77 61 -129t119 -52q99 0 164 95l350 -78q-49 -141 -178 -231.5t-279 -90.5
q-190 0 -301 150l-6 -119h-281l-12 164q-51 -91 -137 -143t-190 -52q-86 0 -163 33.5t-132.5 90.5t-96.5 130.5t-61.5 155.5t-20.5 164zM451 553q0 -94 54 -165t146 -71t144.5 70t52.5 166q0 95 -52 165t-145 70q-91 0 -145.5 -70t-54.5 -165zM1221 684h323
q-31 176 -158 176q-71 0 -111 -50t-54 -126z" />
    <glyph glyph-name="glyph234" horiz-adv-x="0" 
d="M-90 -502q-74 0 -193 35l31 193q61 -21 100 -21q84 0 84 57q0 32 -36.5 46t-75.5 14l78 201h241l-37 -105q59 -27 94 -76t35 -112q0 -59 -30 -105.5t-78 -73t-102.5 -40t-110.5 -13.5z" />
    <glyph glyph-name="glyph237" horiz-adv-x="0" 
d="M-182 -258q0 69 48.5 108t121.5 39q86 0 141 -55t55 -143q0 -106 -79 -183t-189 -104l-49 127q103 27 133 86q-19 -8 -45 -8q-60 0 -98.5 36.5t-38.5 96.5z" />
    <glyph glyph-name="glyph240" horiz-adv-x="0" 
d="M-190 -481q-40 0 -77 5.5t-73.5 19.5t-63.5 35t-44 55.5t-17 78.5q0 53 25 104.5t71 96.5t84.5 75.5t91.5 65.5l193 -55q-81 -70 -129 -125q-37 -46 -37 -78q0 -28 19 -47q22 -16 55 -16q44 0 84 18l20 -194q-101 -39 -202 -39z" />
    <glyph glyph-name="glyph241" horiz-adv-x="0" 
d="M-186 -471q-49 0 -94.5 10.5t-85.5 32t-64.5 61t-24.5 91.5q0 54 25 106t72 99t84 77t92 68l223 49q-79 -83 -121 -135q-86 -111 -86 -176q0 -36 19 -58q20 -20 55 -20q44 0 84 18l20 -184q-95 -39 -198 -39z" />
    <glyph glyph-name="glyph242" horiz-adv-x="0" 
d="M-190 -481q-51 0 -97 10t-87.5 31.5t-66 62t-24.5 94.5q0 162 272 357l234 49q-103 -108 -158 -189q-49 -73 -49 -122q0 -36 19 -58q20 -20 55 -20q44 0 84 18l20 -194q-98 -39 -202 -39z" />
    <glyph glyph-name="aogonek.ss01" horiz-adv-x="1341" 
d="M662 317q93 0 149.5 69.5t56.5 166.5q0 96 -56 165.5t-150 69.5t-152.5 -69.5t-58.5 -165.5q0 -95 59 -165.5t152 -70.5zM1063 -471q-49 0 -93.5 9.5t-85 30.5t-65 59.5t-24.5 90.5q0 132 194 281h-94l-10 156q-53 -90 -142.5 -138.5t-195.5 -48.5q-110 0 -203.5 50
t-154 131.5t-94.5 183.5t-34 209q0 89 22 174.5t66 160.5t104.5 132t143 90t176.5 33q207 0 314 -164l8 133h354v-1102q-86 -75 -127 -125q-39 -45 -39 -78q0 -31 21.5 -47t52.5 -16q52 0 84 18l21 -184q-82 -39 -199 -39z" />
    <glyph glyph-name="glyph270" horiz-adv-x="0" 
d="M-274 1597l286 293h469l-370 -293h-385z" />
    <glyph glyph-name="glyph273" horiz-adv-x="0" 
d="M377 1597h-344l266 293h428zM-156 1597h-344l267 293h428z" />
    <glyph glyph-name="Iacute_J_acutecomb.locl" horiz-adv-x="1490" 
d="M758 -41q-245 0 -418 121.5t-236 357.5l398 58q28 -76 88.5 -118t142.5 -42q118 0 182 81t64 204v833h410v-836q0 -142 -42.5 -262.5t-122 -208.5t-199.5 -138t-267 -50zM102 1454h410v-799h-410v799zM1294 1597h-385l287 293h469zM418 1597h-385l286 293h469z" />
    <glyph glyph-name="iacute_j_acutecomb.locl" horiz-adv-x="1245" 
d="M92 512v590h383v-533q0 -72 34 -122t103 -50q70 0 114 50t44 122v533h383v-963q0 -246 -149 -399.5t-400 -153.5q-170 0 -306.5 79t-195.5 231l377 71q49 -76 129 -76q45 0 84 25q78 59 78 178v107q-46 -71 -127 -110.5t-170 -39.5q-94 0 -168.5 37.5t-120 102.5
t-69 146.5t-23.5 174.5zM1085 1243h-354l227 293h418zM408 1243h-355l228 293h417z" />
    <glyph glyph-name="aacute.ss01" horiz-adv-x="1341" 
d="M61 543q0 89 22 174.5t66 160.5t104.5 132t143 90t176.5 33q207 0 314 -164l8 133h354v-1102h-354l-10 156q-53 -90 -142.5 -138.5t-195.5 -48.5q-110 0 -203.5 50t-154 131.5t-94.5 183.5t-34 209zM662 788q-94 0 -152.5 -69.5t-58.5 -165.5q0 -95 59 -165.5t152 -70.5
t149.5 69.5t56.5 166.5q0 96 -56 165.5t-150 69.5zM455 1243l227 293h418l-291 -293h-354z" />
    <glyph glyph-name="glyph309" horiz-adv-x="0" 
d="M-111 1597l-370 293h469l286 -293h-385z" />
    <glyph glyph-name="agrave.ss01" horiz-adv-x="1341" 
d="M547 -31q-110 0 -203.5 50t-154 131.5t-94.5 183.5t-34 209q0 89 22 174.5t66 160.5t104.5 132t143 90t176.5 33q207 0 314 -164l8 133h354v-1102h-354l-10 156q-53 -90 -142.5 -138.5t-195.5 -48.5zM662 788q-94 0 -152.5 -69.5t-58.5 -165.5q0 -95 59 -165.5t152 -70.5
t149.5 69.5t56.5 166.5q0 96 -56 165.5t-150 69.5zM561 1243l-291 293h418l227 -293h-354z" />
    <glyph glyph-name="glyph328" horiz-adv-x="0" 
d="M-487 1597l309 293h358l309 -293h-360l-133 111l-135 -111h-348z" />
    <glyph glyph-name="glyph331" horiz-adv-x="0" 
d="M-211 1597h-223q5 63 25 119.5t54 103t88 74t120 27.5q80 0 163 -47q10 -6 62 -35q25 -14 55 -14q60 0 80 84h223q-5 -63 -24.5 -119t-53.5 -103t-87.5 -74.5t-120.5 -27.5q-87 0 -164 49q-43 22 -62 33q-25 14 -55 14q-61 0 -80 -84z" />
    <glyph glyph-name="acircumflex.ss01" horiz-adv-x="1341" 
d="M547 -31q-110 0 -203.5 50t-154 131.5t-94.5 183.5t-34 209q0 89 22 174.5t66 160.5t104.5 132t143 90t176.5 33q207 0 314 -164l8 133h354v-1102h-354l-10 156q-53 -90 -142.5 -138.5t-195.5 -48.5zM662 788q-94 0 -152.5 -69.5t-58.5 -165.5q0 -95 59 -165.5t152 -70.5
t149.5 69.5t56.5 166.5q0 96 -56 165.5t-150 69.5zM248 1243l289 293h297l288 -293h-319l-123 105l-125 -105h-307z" />
    <glyph glyph-name="atilde.ss01" horiz-adv-x="1341" 
d="M61 543q0 89 22 174.5t66 160.5t104.5 132t143 90t176.5 33q207 0 314 -164l8 133h354v-1102h-354l-10 156q-53 -90 -142.5 -138.5t-195.5 -48.5q-110 0 -203.5 50t-154 131.5t-94.5 183.5t-34 209zM504 1245h-203q6 57 22.5 108t45.5 96.5t76.5 72t107.5 26.5
q45 0 80 -12q23 -10 65 -31q18 -10 54 -28q24 -15 49 -15q52 0 65 74h203q-6 -58 -22 -109t-44.5 -96t-76 -71.5t-109.5 -26.5q-48 0 -80 14q-50 17 -119 60q-24 12 -49 12q-52 0 -65 -74zM451 553q0 -95 59 -165.5t152 -70.5t149.5 69.5t56.5 166.5q0 96 -56 165.5
t-150 69.5t-152.5 -69.5t-58.5 -165.5z" />
    <glyph glyph-name="glyph360" horiz-adv-x="0" 
d="M-178 1597l-309 293h360l133 -110l135 110h348l-309 -293h-358z" />
    <glyph glyph-name="glyph363" horiz-adv-x="0" 
d="M131 1223l16 313h304l-109 -313h-211z" />
    <glyph glyph-name="glyph365" horiz-adv-x="0" 
d="M-397 1608v260h794v-260h-794z" />
    <glyph glyph-name="amacron.ss01" horiz-adv-x="1341" 
d="M547 -31q-110 0 -203.5 50t-154 131.5t-94.5 183.5t-34 209q0 89 22 174.5t66 160.5t104.5 132t143 90t176.5 33q207 0 314 -164l8 133h354v-1102h-354l-10 156q-53 -90 -142.5 -138.5t-195.5 -48.5zM338 1245v240h692v-240h-692zM662 788q-94 0 -152.5 -69.5
t-58.5 -165.5q0 -95 59 -165.5t152 -70.5t149.5 69.5t56.5 166.5q0 96 -56 165.5t-150 69.5z" />
    <glyph glyph-name="glyph396" horiz-adv-x="0" 
d="M268 1563q-83 0 -140.5 55t-57.5 137q0 83 57 138t141 55q83 0 141 -55t58 -138q0 -81 -58.5 -136.5t-140.5 -55.5zM-268 1563q-83 0 -141 55t-58 137q0 83 57.5 138t141.5 55q83 0 140.5 -54.5t57.5 -138.5q0 -81 -58 -136.5t-140 -55.5z" />
    <glyph glyph-name="glyph399" horiz-adv-x="0" 
d="M0 1587q-158 0 -275 86t-145 238h293q9 -48 43.5 -76.5t83.5 -28.5t83.5 28.5t43.5 76.5h293q-29 -152 -145 -238t-275 -86z" />
    <glyph glyph-name="adieresis.ss01" horiz-adv-x="1341" 
d="M547 -31q-110 0 -203.5 50t-154 131.5t-94.5 183.5t-34 209q0 89 22 174.5t66 160.5t104.5 132t143 90t176.5 33q207 0 314 -164l8 133h354v-1102h-354l-10 156q-53 -90 -142.5 -138.5t-195.5 -48.5zM451 553q0 -95 59 -165.5t152 -70.5t149.5 69.5t56.5 166.5
q0 96 -56 165.5t-150 69.5t-152.5 -69.5t-58.5 -165.5zM920 1202q-77 0 -132 53.5t-55 130.5q0 78 54.5 131.5t132.5 53.5q77 0 131.5 -53t54.5 -132q0 -77 -54 -130.5t-132 -53.5zM449 1202q-77 0 -132 53.5t-55 130.5q0 78 54.5 131.5t132.5 53.5q77 0 131.5 -53
t54.5 -132q0 -77 -54 -130.5t-132 -53.5z" />
    <glyph glyph-name="abreve.ss01" horiz-adv-x="1341" 
d="M61 543q0 89 22 174.5t66 160.5t104.5 132t143 90t176.5 33q207 0 314 -164l8 133h354v-1102h-354l-10 156q-53 -90 -142.5 -138.5t-195.5 -48.5q-110 0 -203.5 50t-154 131.5t-94.5 183.5t-34 209zM295 1536h262q9 -44 45 -66q35 -24 82 -24q50 0 84 24q34 20 43 66h262
q-24 -140 -132.5 -219.5t-256.5 -79.5q-146 0 -255.5 78.5t-133.5 220.5zM451 553q0 -95 59 -165.5t152 -70.5t149.5 69.5t56.5 166.5q0 96 -56 165.5t-150 69.5t-152.5 -69.5t-58.5 -165.5z" />
    <glyph glyph-name="glyph422" horiz-adv-x="0" 
d="M-213 1769q0 90 61 148.5t152 58.5t153 -57.5t62 -149.5q0 -90 -61.5 -148t-153.5 -58q-89 0 -151 58.5t-62 147.5z" />
    <glyph glyph-name="glyph425" horiz-adv-x="0" 
d="M-213 -305q0 89 61 148t152 59q89 0 152 -59t63 -148q0 -91 -61 -149t-154 -58q-92 0 -152.5 57.5t-60.5 149.5z" />
    <glyph glyph-name="glyph440" horiz-adv-x="0" 
d="M-266 1790q0 108 77.5 179t188.5 71t188.5 -69.5t77.5 -180.5q0 -108 -77.5 -179t-188.5 -71t-188.5 69.5t-77.5 180.5zM-82 1790q0 -34 24 -59t58 -25t58 25t24 59t-24 59t-58 25t-58 -25t-24 -59z" />
    <glyph glyph-name="aring.ss01" horiz-adv-x="1341" 
d="M61 543q0 89 22 174.5t66 160.5t104.5 132t143 90t176.5 33q207 0 314 -164l8 133h354v-1102h-354l-10 156q-53 -90 -142.5 -138.5t-195.5 -48.5q-110 0 -203.5 50t-154 131.5t-94.5 183.5t-34 209zM684 1188q-104 0 -180 68t-76 171q0 104 75 172t181 68
q107 0 181.5 -67t74.5 -173q0 -104 -75 -171.5t-181 -67.5zM451 553q0 -95 59 -165.5t152 -70.5t149.5 69.5t56.5 166.5q0 96 -56 165.5t-150 69.5t-152.5 -69.5t-58.5 -165.5zM684 1511q-34 0 -58 -25t-24 -59t24 -59t58 -25t58 25t24 59t-24 59t-58 25z" />
    <glyph glyph-name="colon_B_e_l_o_colon.dlig" horiz-adv-x="1599" 
d="M424 -20q-131 0 -227.5 91.5t-96.5 223.5q0 41 15 88q9 35 43 115q17 42 55 120q11 22 34.5 71.5t37.5 76.5q12 25 37.5 78.5t39.5 81.5q24 48 72.5 145.5t73.5 145.5l30 57.5t21 40.5q89 160 240 160q83 0 139 -40.5t100 -119.5q6 -11 23.5 -43.5t28.5 -54.5
q46 -94 69 -136q25 -50 78 -155q5 -11 33.5 -70.5t44.5 -89.5q7 -15 31.5 -68.5t37.5 -79.5q71 -145 101 -235q12 -47 12 -88q0 -132 -94.5 -223.5t-228.5 -91.5q-185 0 -375 208q-190 -208 -375 -208zM207 362q-10 -38 -10 -67q0 -90 67 -155.5t158 -65.5q146 0 313 188
q-192 235 -192 410q0 110 72.5 184t183.5 74t183.5 -72.5t72.5 -185.5q0 -174 -193 -410q167 -188 314 -188q90 0 157.5 65.5t67.5 155.5q0 29 -10 67q-3 10 -39 97q-2 3 -21 44.5t-31 69.5q-11 22 -34 71.5t-37 76.5q-15 29 -41 85t-37 79q-13 27 -39 79.5t-39 77.5
q-32 58 -67 134q-9 17 -18.5 34t-18 32t-11.5 20q-23 40 -40.5 62t-48 39t-70.5 17q-58 0 -92 -29t-68 -89q-68 -123 -190 -377q-7 -14 -35.5 -73.5t-44.5 -90.5q-33 -65 -70 -148q-20 -40 -53 -114q-36 -87 -39 -97zM799 834q-71 0 -115.5 -44t-44.5 -114q0 -76 48.5 -169
t111.5 -171q63 78 111 170.5t48 169.5q0 70 -44 114t-115 44z" />
    </font>
</defs>
</svg>
