<?xml version="1.0" standalone="no"?>
<!DOCTYPE svg PUBLIC "-//W3C//DTD SVG 1.1//EN" "http://www.w3.org/Graphics/SVG/1.1/DTD/svg11.dtd" >
<svg xmlns="http://www.w3.org/2000/svg" xmlns:xlink="http://www.w3.org/1999/xlink" version="1.1">
<metadata>
Created by FontForge 20201107 at Mon Jun  3 13:20:51 2024
 By 
Copyright 2018 Airbnb. All rights reserved.
</metadata>
<defs>
<font id="AirbnbCerealWLt" horiz-adv-x="0" >
  <font-face 
    font-family="AirbnbCereal_W_Lt Light"
    font-weight="300"
    font-stretch="normal"
    units-per-em="2048"
    panose-1="2 11 4 2 2 2 3 2 2 4"
    ascent="1638"
    descent="-410"
    x-height="1049"
    cap-height="1454"
    bbox="-414 -504 2099 1921"
    underline-thickness="129"
    underline-position="-394"
    unicode-range="U+000D-FFFD"
  />
<missing-glyph horiz-adv-x="1024" 
d="M922 0h-820v1536h820v-1536zM205 102h614v1332h-614v-1332z" />
    <glyph glyph-name="f_i.liga" unicode="fi" horiz-adv-x="1177" 
d="M229 946h-198v103h198v108q0 76 18.5 142.5t55.5 120.5t99 85t143 31q101 0 186 -49l-43 -98q-64 34 -141 34q-195 0 -195 -266v-108h674v-1049h-123v946h-551v-946h-123v946zM868 1362q0 38 29.5 67t67.5 29t67 -29t29 -67t-29 -67t-67 -29t-67.5 29t-29.5 67z" />
    <glyph glyph-name="f_f.liga" unicode="ff" horiz-adv-x="1425" 
d="M31 1049h198v108q0 163 84 271t244 108q106 0 195 -53l-43 -99q-70 39 -150 39q-207 0 -207 -266v-108h551v108q0 163 84 271t244 108q105 0 194 -53l-43 -99q-70 39 -149 39q-207 0 -207 -266v-108h348v-103h-348v-946h-123v946h-551v-946h-123v946h-198v103z" />
    <glyph glyph-name="f_f_i.liga" unicode="ffi" horiz-adv-x="1851" 
d="M31 946v103h198v108q0 163 84 271t244 108q106 0 195 -53l-43 -99q-70 39 -150 39q-207 0 -207 -266v-108h551v108q0 76 18.5 142.5t55.5 120.5t99 85t143 31q101 0 186 -49l-43 -98q-64 34 -141 34q-195 0 -195 -266v-108h674v-1049h-123v946h-551v-946h-123v946h-551
v-946h-123v946h-198zM1638 1266q-38 0 -67 29t-29 67t29 67t67 29t67.5 -29t29.5 -67t-29.5 -67t-67.5 -29z" />
    <glyph glyph-name=".notdef" horiz-adv-x="1024" 
d="M922 0h-820v1536h820v-1536zM205 102h614v1332h-614v-1332z" />
    <glyph glyph-name="uni0000" 
 />
    <glyph glyph-name="uni0000" 
 />
    <glyph glyph-name="uni000D" unicode="&#xd;" horiz-adv-x="454" 
 />
    <glyph glyph-name="space" unicode=" " horiz-adv-x="454" 
 />
    <glyph glyph-name="exclam" unicode="!" horiz-adv-x="450" 
d="M162 1454h129l-4 -1089h-121zM125 94q0 40 30 70.5t70 30.5t70.5 -30.5t30.5 -70.5t-30.5 -70t-70.5 -30t-70 30t-30 70z" />
    <glyph glyph-name="quotedbl" unicode="&#x22;" horiz-adv-x="690" 
d="M123 1454h115l-5 -518h-106zM453 1454h114l-4 -518h-106z" />
    <glyph glyph-name="numbersign" unicode="#" horiz-adv-x="1316" 
d="M346 414h-233l8 92h231l35 412h-229l8 92h229l33 403h107l-33 -403h364l33 403h107l-33 -403h231l-8 -92h-231l-35 -412h229l-8 -92h-227l-35 -414h-107l35 414h-364l-35 -414h-107zM459 506h364l35 412h-364z" />
    <glyph glyph-name="dollar" unicode="$" horiz-adv-x="1216" 
d="M571 -18q-156 12 -271.5 102.5t-166.5 239.5l113 30q90 -238 325 -264v598l-10 2q-80 14 -146.5 40.5t-123.5 69t-89 107.5t-32 148q0 165 115 267t286 110v247h99v-247q150 -15 252 -101t145 -231l-113 -31q-41 112 -107.5 175.5t-176.5 76.5v-535l39 -8
q170 -30 272 -125t102 -258q0 -174 -117 -286.5t-296 -126.5v-269h-99v269zM670 670v-580q127 12 210 94.5t83 208.5q0 65 -23 114.5t-66 80.5t-91.5 50t-112.5 32zM291 1063q0 -59 23 -104t65.5 -74.5t87.5 -47.5t104 -32v518q-121 -8 -200.5 -75.5t-79.5 -184.5z" />
    <glyph glyph-name="percent" unicode="%" horiz-adv-x="1464" 
d="M82 1116q0 133 85.5 224.5t219.5 91.5t217.5 -89.5t83.5 -226.5q0 -135 -84.5 -225t-220.5 -90q-132 0 -216.5 90.5t-84.5 224.5zM776 297q0 133 85.5 224t219.5 91q133 0 217 -90t84 -225t-84.5 -225t-220.5 -90q-130 0 -215.5 91.5t-85.5 223.5zM354 0h-125l881 1413
h125zM915 408q-24 -46 -24 -111t24 -111q22 -47 66.5 -74.5t97.5 -27.5t97 27.5t69 74.5q23 51 23 111t-23 111q-54 102 -166 102q-117 0 -164 -102zM385 1329q-86 0 -137 -61.5t-51 -151.5q0 -86 51.5 -149.5t136.5 -63.5t136.5 62.5t51.5 150.5q0 89 -50.5 151t-137.5 62z
" />
    <glyph glyph-name="ampersand" unicode="&#x26;" horiz-adv-x="1392" 
d="M551 -41q-122 0 -225 47t-168.5 142.5t-65.5 220.5q0 134 83.5 242.5t215.5 176.5l-2 3q-188 188 -188 360q0 144 100 239t246 95q140 0 239 -85.5t99 -225.5q0 -70 -24.5 -132t-69.5 -111.5t-94.5 -87t-114.5 -73.5l430 -418q109 172 127 430l121 -12q-13 -134 -54 -267
t-108 -235l274 -268h-172l-176 170q-187 -211 -473 -211zM223 375q0 -136 97.5 -216.5t238.5 -80.5q231 0 381 176l-471 459q-110 -59 -178 -143.5t-68 -194.5zM549 1374q-95 0 -159 -65t-64 -162q0 -128 153 -277l25 -22q260 133 260 321q0 91 -61 148t-154 57z" />
    <glyph glyph-name="quotesingle" unicode="'" horiz-adv-x="360" 
d="M127 936l-4 518h115l-5 -518h-106z" />
    <glyph glyph-name="parenleft" unicode="(" horiz-adv-x="638" 
d="M461 -270q-177 195 -268 432.5t-91 501.5t91 501t268 432h137q-185 -191 -282 -430t-97 -503t98 -504.5t281 -429.5h-137z" />
    <glyph glyph-name="parenright" unicode=")" horiz-adv-x="638" 
d="M178 -270h-137q183 189 281 429.5t98 504.5t-97 503t-282 430h137q359 -395 359 -933q0 -539 -359 -934z" />
    <glyph glyph-name="asterisk" unicode="*" horiz-adv-x="784" 
d="M215 752l-90 65l192 248l-288 84l32 106l285 -102l-10 301h110l-10 -301l285 102l33 -106l-289 -84l192 -248l-90 -65l-176 260z" />
    <glyph glyph-name="plus" unicode="+" horiz-adv-x="1216" 
d="M190 614h361v367h111v-367h360v-102h-360v-377h-111v377h-361v102z" />
    <glyph glyph-name="comma" unicode="," horiz-adv-x="450" 
d="M147 -381l-43 84q168 89 168 248q0 55 -20 94q-22 -25 -55 -25q-36 0 -60 27q-26 26 -26 62t30 63q27 27 72 27q42 0 84 -31q82 -76 82 -207q0 -113 -62.5 -199.5t-169.5 -142.5z" />
    <glyph glyph-name="hyphen" unicode="-" horiz-adv-x="763" 
d="M102 504v119h560v-119h-560z" />
    <glyph glyph-name="period" unicode="." horiz-adv-x="450" 
d="M225 -6q-41 0 -71.5 30.5t-30.5 71.5t30.5 72t71.5 31t72 -31t31 -72t-31 -71.5t-72 -30.5z" />
    <glyph glyph-name="slash" unicode="/" horiz-adv-x="833" 
d="M29 -209l659 1745h117l-660 -1745h-116z" />
    <glyph glyph-name="zero" unicode="0" horiz-adv-x="1224" 
d="M610 -31q-113 0 -202.5 46t-145.5 119t-93 172t-52 198t-15 203t14.5 202t51.5 197.5t93 172.5t147 119t206 46q114 0 204 -45.5t146 -118t92.5 -171.5t51 -197.5t14.5 -204.5q0 -104 -14.5 -202.5t-51.5 -197.5t-93 -172.5t-147 -119.5t-206 -46zM229 707
q0 -68 6.5 -133t21.5 -138t44 -134t69.5 -111t102.5 -78.5t139 -28.5q91 0 161 41.5t111 105t67 150t35 165t9 161.5q0 68 -6.5 133t-21.5 138t-44 133.5t-69.5 110.5t-102.5 78.5t-139 28.5q-91 0 -161 -41.5t-111 -104.5t-67 -149.5t-35 -165t-9 -161.5z" />
    <glyph glyph-name="one" unicode="1" horiz-adv-x="831" 
d="M461 0v1266l-352 -197l-58 100l438 244h97v-1413h-125z" />
    <glyph glyph-name="two" unicode="2" horiz-adv-x="1146" 
d="M1024 0h-911v109q268 212 497 452q46 47 73.5 77.5t68 82t63.5 93t40 94.5t17 104q0 136 -83 226.5t-220 90.5q-126 0 -211.5 -76.5t-124.5 -203.5l-116 34q45 164 166 262.5t290 98.5q182 0 304 -119t122 -303q0 -168 -135 -344q-51 -69 -118.5 -142t-158.5 -156.5
t-141.5 -128.5t-152.5 -132h731v-119z" />
    <glyph glyph-name="three" unicode="3" horiz-adv-x="1150" 
d="M563 -31q-174 0 -302.5 90t-178.5 256l117 35q43 -127 136.5 -196.5t227.5 -69.5q91 0 169 33.5t128.5 104t50.5 165.5q0 75 -29 133t-79 92.5t-113.5 52t-136.5 17.5h-156v115h154q88 0 160.5 28t121 91.5t48.5 154.5q0 122 -90.5 190t-219.5 68q-127 0 -216 -66
t-126 -188l-116 35q42 156 168.5 245t293.5 89q132 0 239 -54.5t163 -166.5q31 -73 31 -150q0 -116 -63.5 -200t-174.5 -128q124 -39 196 -134t72 -224q0 -124 -68 -221.5t-175.5 -147t-231.5 -49.5z" />
    <glyph glyph-name="four" unicode="4" horiz-adv-x="1173" 
d="M82 348v94l694 971h115v-958h190v-107h-190v-348h-119v348h-690zM219 455h553v772z" />
    <glyph glyph-name="five" unicode="5" horiz-adv-x="1118" 
d="M565 -31q-169 0 -301 92.5t-182 253.5l117 35q40 -120 139.5 -193t226.5 -73q148 0 246 99.5t98 250.5q0 153 -95.5 248.5t-250.5 95.5q-80 0 -159.5 -33.5t-129.5 -91.5l-106 17v743h768v-117h-651v-516q113 113 297 113q197 0 325.5 -131t128.5 -332
q0 -194 -137 -327.5t-334 -133.5z" />
    <glyph glyph-name="six" unicode="6" horiz-adv-x="1181" 
d="M102 635q0 115 21 226.5t68.5 218t116.5 186.5t173 129t230 49q182 0 313 -101l-57 -96q-113 82 -250 82q-102 0 -186.5 -42t-140 -110t-94 -158t-55 -183.5t-16.5 -188.5v-29q49 138 158 209.5t260 71.5q194 0 325.5 -132.5t131.5 -328.5q0 -129 -65 -237.5t-176 -170
t-241 -61.5q-104 0 -191.5 38.5t-146.5 103t-100 151t-59.5 180.5t-18.5 193zM625 784q-148 0 -250.5 -94.5t-102.5 -243.5q0 -153 103 -256q43 -50 111 -78t137 -28q148 0 249 104t101 254t-97.5 246t-250.5 96z" />
    <glyph glyph-name="seven" unicode="7" horiz-adv-x="1099" 
d="M307 0l567 1294h-792v119h926v-106l-568 -1307h-133z" />
    <glyph glyph-name="eight" unicode="8" horiz-adv-x="1183" 
d="M592 -31q-93 0 -179 26t-156.5 75.5t-112.5 129t-42 177.5q0 131 74 228t201 136q-104 44 -165.5 129.5t-61.5 196.5q0 113 66 201t166 132t212 44q110 0 209 -43t165 -130.5t66 -201.5q0 -110 -61.5 -196t-165.5 -130q128 -42 201 -135.5t73 -226.5q0 -129 -71 -224.5
t-180.5 -141.5t-237.5 -46zM592 682q-71 0 -134.5 -18t-115.5 -53t-82.5 -93.5t-30.5 -134.5q0 -98 52.5 -167.5t132.5 -100.5t178 -31q71 0 134.5 18t115 53t82 93.5t30.5 134.5q0 145 -105 222t-257 77zM592 1329q-126 0 -221 -71.5t-95 -194.5q0 -121 94.5 -193.5
t221.5 -72.5q126 0 220.5 72t94.5 194q0 123 -93.5 194.5t-221.5 71.5z" />
    <glyph glyph-name="nine" unicode="9" horiz-adv-x="1171" 
d="M532 524q-189 0 -319.5 131.5t-130.5 323.5q0 128 63 235t172 168.5t238 61.5q109 0 197 -41t146 -108.5t97.5 -158.5t56.5 -187.5t17 -198.5q0 -116 -19.5 -224t-64.5 -210.5t-112.5 -178.5t-170 -122t-229.5 -46q-187 0 -326 101l58 98q122 -84 264 -84q106 0 189.5 39
t136.5 103t88 151.5t49 178t14 189.5v72q-42 -140 -152 -216.5t-262 -76.5zM209 975q0 -146 96 -241t244 -95q143 0 243.5 92t100.5 236q0 151 -96.5 256.5t-247.5 105.5q-146 0 -243 -102.5t-97 -251.5z" />
    <glyph glyph-name="colon" unicode=":" horiz-adv-x="450" 
d="M123 952q0 41 30.5 72t71.5 31t72 -31t31 -72t-31 -71.5t-72 -30.5t-71.5 30.5t-30.5 71.5zM225 -6q-41 0 -71.5 30.5t-30.5 71.5t30.5 72t71.5 31t72 -31t31 -72t-31 -71.5t-72 -30.5z" />
    <glyph glyph-name="semicolon" unicode=";" horiz-adv-x="450" 
d="M147 -381l-43 84q168 89 168 248q0 55 -20 94q-22 -25 -55 -25q-36 0 -60 27q-26 26 -26 62t30 63q27 27 72 27q42 0 84 -31q82 -76 82 -207q0 -113 -62.5 -199.5t-169.5 -142.5zM225 850q-41 0 -71.5 30.5t-30.5 71.5t30.5 72t71.5 31t72 -31t31 -72t-31 -71.5
t-72 -30.5z" />
    <glyph glyph-name="less" unicode="&#x3c;" horiz-adv-x="1216" 
d="M221 512v102l711 338v-121l-578 -266l578 -266v-125z" />
    <glyph glyph-name="equal" unicode="=" horiz-adv-x="1216" 
d="M201 739v113h813v-113h-813zM1014 274h-813v113h813v-113z" />
    <glyph glyph-name="greater" unicode="&#x3e;" horiz-adv-x="1216" 
d="M860 561l-577 266v125l710 -338v-102l-710 -338v121z" />
    <glyph glyph-name="question" unicode="?" horiz-adv-x="1005" 
d="M41 1151q43 155 161 244.5t281 89.5q117 0 217 -50t162 -145t62 -215q0 -171 -110.5 -289.5t-285.5 -173.5v-247h-120v321q77 18 142.5 48t121.5 75t88.5 110.5t32.5 145.5q0 135 -87.5 220t-224.5 85q-118 0 -208 -71t-121 -187zM467 -6q-40 0 -70 30t-30 70t30 70.5
t70 30.5t70 -30.5t30 -70.5t-30 -70t-70 -30z" />
    <glyph glyph-name="at" unicode="@" horiz-adv-x="2054" 
d="M113 522q0 156 47 298.5t133.5 255.5t202.5 196.5t261 128.5t302 45q251 0 452 -110.5t316 -312t115 -458.5q0 -67 -10 -135t-35 -137.5t-62.5 -123t-97.5 -87t-135 -33.5q-98 0 -161.5 60.5t-84.5 160.5q-45 -104 -139.5 -162.5t-210.5 -58.5q-129 0 -231 66t-156 175.5
t-54 239.5q0 128 51.5 237.5t153 179t231.5 69.5q111 0 204 -52.5t143 -148.5l8 174h102v-633q0 -49 13.5 -93t48 -76.5t84.5 -32.5t89.5 31t63 77t39 104.5t21.5 108t6 92.5q0 220 -95.5 396t-271 277t-399.5 101q-171 0 -323.5 -62.5t-263 -170.5t-175 -261t-64.5 -327
q0 -168 61.5 -316.5t168 -256t256.5 -170t321 -62.5q269 0 467 127l60 -92q-234 -139 -525 -139q-153 0 -294 43t-255.5 124.5t-199.5 192.5t-131.5 252.5t-46.5 298.5zM1014 909q-152 0 -241 -109.5t-89 -267.5q0 -100 37 -184t114 -138t179 -54q151 0 241.5 109.5
t90.5 266.5q0 156 -89 266.5t-243 110.5z" />
    <glyph glyph-name="A" unicode="A" horiz-adv-x="1413" 
d="M51 0l588 1454h135l588 -1454h-135l-178 449h-689l-178 -449h-131zM705 1317l-297 -752h593z" />
    <glyph glyph-name="B" unicode="B" horiz-adv-x="1220" 
d="M623 0h-455v1454h444q88 0 165 -22t138 -65.5t96.5 -115.5t35.5 -166q0 -219 -216 -313q130 -38 203.5 -135t73.5 -231q0 -100 -39.5 -178.5t-107.5 -127.5t-154 -74.5t-184 -25.5zM293 115h330q73 0 134.5 16.5t112 50t79 91.5t28.5 135q0 78 -27.5 137t-77 93.5
t-112 51.5t-137.5 17h-330v-592zM612 1339h-319v-518h319q138 0 220.5 63.5t82.5 196.5q0 88 -42 147.5t-108.5 85t-152.5 25.5z" />
    <glyph glyph-name="C" unicode="C" horiz-adv-x="1466" 
d="M113 715q0 118 28.5 231t86 212.5t137 174.5t189 118.5t234.5 43.5q184 0 336.5 -91t227.5 -255l-113 -55q-65 134 -181.5 209t-264.5 75q-103 0 -192.5 -37.5t-154 -102t-111 -149t-69 -180t-22.5 -194.5t22.5 -192t69 -174t111 -142t155 -96t195.5 -35q151 0 267 74
t189 210l113 -55q-81 -166 -232.5 -256t-340.5 -90q-153 0 -282 61.5t-215.5 165.5t-134.5 241t-48 288z" />
    <glyph glyph-name="D" unicode="D" horiz-adv-x="1505" 
d="M168 1454h455q166 0 306 -47.5t243.5 -138t162 -229t58.5 -312.5q0 -222 -96.5 -387.5t-269.5 -252.5t-400 -87h-459v1454zM297 117h326q186 0 329 69.5t226.5 209t83.5 331.5q0 281 -175 445.5t-464 164.5h-326v-1220z" />
    <glyph glyph-name="E" unicode="E" horiz-adv-x="1138" 
d="M168 1454h813v-117h-688v-522h633v-117h-633v-581h708v-117h-833v1454z" />
    <glyph glyph-name="F" unicode="F" horiz-adv-x="1075" 
d="M168 1454h795v-117h-670v-553h612v-116h-612v-668h-125v1454z" />
    <glyph glyph-name="G" unicode="G" horiz-adv-x="1583" 
d="M815 -41q-208 0 -369.5 103.5t-247 276.5t-85.5 382q0 121 31.5 235t92.5 211.5t145 171t196.5 115t238.5 41.5q180 0 333 -84t236 -240l-112 -57q-70 125 -191 194.5t-266 69.5q-130 0 -240 -54.5t-181.5 -145.5t-111.5 -209t-40 -246q0 -125 39.5 -241t110.5 -206.5
t180.5 -145t240.5 -54.5q233 0 378.5 149t145.5 387v2h-471v117h602v-104q0 -143 -46.5 -266t-130.5 -212t-207 -139.5t-271 -50.5z" />
    <glyph glyph-name="H" unicode="H" horiz-adv-x="1452" 
d="M168 1454h129v-639h858v639h129v-1454h-129v698h-858v-698h-129v1454z" />
    <glyph glyph-name="I" unicode="I" horiz-adv-x="464" 
d="M168 0v1454h129v-1454h-129z" />
    <glyph glyph-name="J" unicode="J" horiz-adv-x="1056" 
d="M477 -31q-148 0 -261.5 84t-166.5 226l117 47q105 -240 311 -240q147 0 225 105t78 260v1003h129v-1005q0 -134 -47.5 -241t-147 -173t-237.5 -66z" />
    <glyph glyph-name="K" unicode="K" horiz-adv-x="1292" 
d="M168 1454h125v-663l723 663h172l-760 -690l834 -764h-191l-778 719v-719h-125v1454z" />
    <glyph glyph-name="L" unicode="L" horiz-adv-x="1062" 
d="M168 0v1454h129v-1337h664v-117h-793z" />
    <glyph glyph-name="M" unicode="M" horiz-adv-x="1687" 
d="M168 1454h121l557 -1024l559 1024h115v-1454h-125v1217l-496 -914h-111l-495 914v-1217h-125v1454z" />
    <glyph glyph-name="N" unicode="N" horiz-adv-x="1431" 
d="M168 1454h115l856 -1241v1241h125v-1454h-115l-856 1239v-1239h-125v1454z" />
    <glyph glyph-name="O" unicode="O" horiz-adv-x="1619" 
d="M811 -41q-157 0 -289 61.5t-221 166t-138.5 244.5t-49.5 296q0 154 48 292.5t136 244.5t221 168.5t293 62.5q209 0 369.5 -105t243.5 -278.5t83 -384.5q0 -123 -29.5 -236.5t-89 -210t-142 -168.5t-194.5 -112.5t-241 -40.5zM809 1378q-130 0 -238.5 -53.5t-179 -144
t-109 -207.5t-38.5 -246q0 -126 37.5 -242t107 -207.5t179 -146.5t241.5 -55q130 0 239 53.5t179.5 144t109.5 207.5t39 246q0 102 -23 197t-70 177.5t-113.5 144t-159.5 97t-201 35.5z" />
    <glyph glyph-name="P" unicode="P" horiz-adv-x="1148" 
d="M168 0v1454h379q108 0 199.5 -25.5t164.5 -77.5t114.5 -139.5t41.5 -201.5q0 -113 -45 -200t-122.5 -139t-174 -78t-207.5 -26q-81 0 -225 19v-586h-125zM293 1339v-641q96 -16 223 -16q68 0 128 10t114.5 34.5t93 61.5t61.5 94t23 130q0 84 -30 147.5t-83.5 102t-123 58
t-152.5 19.5h-254z" />
    <glyph glyph-name="Q" unicode="Q" horiz-adv-x="1619" 
d="M813 -41q-157 0 -290 60.5t-222 165t-138.5 244.5t-49.5 298q0 121 30.5 234.5t90 210t142.5 169t194.5 113.5t238.5 41q158 0 290.5 -60.5t221 -165t137.5 -244.5t49 -298q0 -172 -60 -326t-181 -266l194 -237l-88 -72l-194 240q-153 -107 -365 -107zM244 727
q0 -126 37.5 -242t107 -207.5t179 -146.5t241.5 -55q162 0 295 82l-281 346l88 71l281 -346q184 176 184 498q0 102 -23 197t-70 177.5t-113.5 144t-159.5 97t-201 35.5q-130 0 -238.5 -53.5t-179 -144t-109 -207.5t-38.5 -246z" />
    <glyph glyph-name="R" unicode="R" horiz-adv-x="1206" 
d="M168 0v1454h373q104 0 195 -24t167 -72.5t120 -132.5t44 -195q0 -143 -79.5 -244.5t-219.5 -152.5l367 -633h-150l-338 602q-52 -8 -139 -8q-103 0 -215 16v-610h-125zM293 1339v-614q96 -16 219 -16q84 0 155.5 15.5t134 49.5t98.5 98t36 152q0 83 -32 145.5t-88 98.5
t-125 53.5t-150 17.5h-248z" />
    <glyph glyph-name="S" unicode="S" horiz-adv-x="1112" 
d="M549 -31q-156 0 -283.5 83t-183.5 227l115 47q46 -113 138.5 -176.5t213.5 -63.5q141 0 241.5 84.5t100.5 224.5q0 218 -285 287l-98 23q-389 88 -389 393q0 116 60.5 205.5t158.5 135.5t215 46q151 0 271 -83.5t171 -225.5l-114 -48q-44 113 -128.5 176.5t-203.5 63.5
q-127 0 -215 -73t-88 -199q0 -51 18 -93.5t46.5 -71.5t70.5 -52t82 -36.5t90 -25.5l98 -22q170 -37 269.5 -138t99.5 -266q0 -127 -65 -224.5t-171.5 -147.5t-234.5 -50z" />
    <glyph glyph-name="T" unicode="T" horiz-adv-x="1247" 
d="M102 1337v117h1043v-117h-457v-1337h-129v1337h-457z" />
    <glyph glyph-name="U" unicode="U" horiz-adv-x="1411" 
d="M147 1454h129v-895q0 -101 27 -187.5t79 -153t135.5 -104.5t189.5 -38q206 0 317 134.5t111 348.5v895h129v-899q0 -171 -64.5 -304.5t-194 -212.5t-305.5 -79q-256 0 -404.5 165.5t-148.5 430.5v899z" />
    <glyph glyph-name="V" unicode="V" horiz-adv-x="1363" 
d="M51 1454h139l494 -1309l496 1309h133l-565 -1454h-132z" />
    <glyph glyph-name="W" unicode="W" horiz-adv-x="2037" 
d="M72 1454h133l373 -1304l370 1304h142l372 -1304l375 1304h129l-434 -1454h-146l-368 1294l-367 -1294h-145z" />
    <glyph glyph-name="X" unicode="X" horiz-adv-x="1275" 
d="M31 0l538 768l-483 686h150l405 -596l406 596h143l-483 -686l538 -768h-155l-455 672l-455 -672h-149z" />
    <glyph glyph-name="Y" unicode="Y" horiz-adv-x="1239" 
d="M41 1454h143l437 -754l438 754h139l-514 -858v-596h-129v592z" />
    <glyph glyph-name="Z" unicode="Z" horiz-adv-x="1243" 
d="M102 0v96l838 1241h-807v117h963v-96l-838 -1241h883v-117h-1039z" />
    <glyph glyph-name="bracketleft" unicode="[" horiz-adv-x="675" 
d="M188 1597h406v-96h-295v-1675h295v-96h-406v1867z" />
    <glyph glyph-name="backslash" unicode="\" horiz-adv-x="833" 
d="M688 -209l-659 1745h116l660 -1745h-117z" />
    <glyph glyph-name="bracketright" unicode="]" horiz-adv-x="675" 
d="M377 1501h-295v96h405v-1867h-405v96h295v1675z" />
    <glyph glyph-name="asciicircum" unicode="^" horiz-adv-x="1216" 
d="M199 723l354 690h111l354 -690h-131l-281 555l-280 -555h-127z" />
    <glyph glyph-name="underscore" unicode="_" horiz-adv-x="1085" 
d="M61 -250v103h963v-103h-963z" />
    <glyph glyph-name="grave" unicode="`" horiz-adv-x="1159" 
d="M649 1223l-270 293h151l248 -293h-129z" />
    <glyph glyph-name="a" unicode="a" horiz-adv-x="1093" 
d="M102 293q0 69 25 125.5t67 94t98.5 63t117 36.5t125.5 11q155 0 296 -64v92q0 136 -77.5 227t-212.5 91q-213 0 -299 -191l-101 47q42 119 156 185.5t248 66.5q187 0 296 -117.5t109 -310.5v-649h-106l-10 168q-51 -97 -145.5 -148t-207.5 -51q-100 0 -184 35
t-139.5 110.5t-55.5 178.5zM225 295q0 -107 78.5 -166t190.5 -59q143 0 240 94t97 239v58q-149 63 -292 63q-59 0 -112 -12t-99.5 -37t-74.5 -71.5t-28 -108.5z" />
    <glyph glyph-name="b" unicode="b" horiz-adv-x="1261" 
d="M152 1516h122v-666q60 110 162.5 169.5t229.5 59.5q147 0 262.5 -78t176 -204t60.5 -273q0 -109 -35.5 -209t-99.5 -177t-159.5 -123t-208.5 -46q-128 0 -231 60.5t-161 173.5l-8 -203h-110v1516zM270 524q0 -115 43.5 -214t133 -163.5t208.5 -64.5q118 0 207 62.5
t133.5 162t44.5 217.5q0 116 -43 215.5t-132.5 163.5t-209.5 64q-118 0 -207 -63t-133.5 -162.5t-44.5 -217.5z" />
    <glyph glyph-name="c" unicode="c" horiz-adv-x="1101" 
d="M96 518q0 107 35 208t98 179.5t158 126t207 47.5q136 0 244 -67t166 -189l-107 -51q-47 89 -126.5 142t-176.5 53q-87 0 -159 -39t-118 -103t-71 -143.5t-25 -163.5q0 -83 24.5 -160.5t70 -139.5t118 -99t160.5 -37q100 0 185.5 52t131.5 140l105 -49
q-53 -118 -170.5 -187t-251.5 -69q-148 0 -263 76t-175 200.5t-60 272.5z" />
    <glyph glyph-name="d" unicode="d" horiz-adv-x="1261" 
d="M596 -31q-146 0 -262 78.5t-177 204.5t-61 272t60.5 271.5t177.5 204.5t266 79q125 0 226 -58.5t161 -166.5v662h123v-1516h-111l-8 207q-60 -115 -162.5 -176.5t-232.5 -61.5zM221 524q0 -115 43.5 -214t133 -163.5t208.5 -64.5q118 0 207 62.5t133.5 162t44.5 217.5
q0 116 -43 215.5t-132.5 163.5t-209.5 64q-118 0 -207 -63t-133.5 -162.5t-44.5 -217.5z" />
    <glyph glyph-name="e" unicode="e" horiz-adv-x="1157" 
d="M96 520q0 146 57.5 271.5t172 205.5t264.5 80q139 0 247.5 -68.5t166 -183.5t57.5 -256v-57h-842q3 -121 47.5 -217.5t135 -156.5t214.5 -60q215 0 328 180l98 -57q-61 -112 -174.5 -172t-246.5 -60q-154 0 -274 72.5t-185.5 197.5t-65.5 281zM590 973
q-147 0 -245.5 -105t-119.5 -258h713q-13 151 -106.5 257t-241.5 106z" />
    <glyph glyph-name="f" unicode="f" horiz-adv-x="751" 
d="M31 1049h198v108q0 163 84 271t244 108q106 0 195 -53l-43 -99q-70 39 -150 39q-207 0 -207 -266v-108h348v-103h-348v-946h-123v946h-198v103z" />
    <glyph glyph-name="g" unicode="g" horiz-adv-x="1261" 
d="M596 0q-145 0 -260.5 74.5t-177.5 198t-62 268.5q0 106 36.5 204t101 172t159.5 118t205 44q125 0 231 -61t162 -170l10 201h109v-971q0 -235 -134 -384t-370 -149q-140 0 -258.5 59t-193.5 173l94 63q132 -184 356 -184q182 0 282.5 116.5t100.5 305.5v153
q-61 -113 -161 -172t-230 -59zM606 967q-174 0 -279.5 -124t-105.5 -304q0 -113 45 -209.5t134 -157.5t206 -61q115 0 204 59.5t135 156.5t46 212t-44 211t-133 156.5t-208 60.5z" />
    <glyph glyph-name="h" unicode="h" horiz-adv-x="1159" 
d="M152 0v1516h122v-629q49 94 140.5 143t201.5 49q99 0 176.5 -37.5t126 -102.5t73 -149t24.5 -182v-608h-123v604q0 74 -15 136.5t-47.5 114t-89.5 81t-135 29.5q-144 0 -238 -95.5t-94 -242.5v-627h-122z" />
    <glyph glyph-name="i" unicode="i" horiz-adv-x="425" 
d="M152 0v1049h122v-1049h-122zM213 1266q-38 0 -67 29t-29 67t29 67t67 29t67 -29t29 -67t-29 -67t-67 -29z" />
    <glyph glyph-name="j" unicode="j" horiz-adv-x="436" 
d="M-156 -397l50 96q51 -31 108 -31q81 0 120.5 55.5t39.5 139.5v1186h123v-1186q0 -132 -74 -219.5t-205 -87.5q-91 0 -162 47zM127 1362q0 38 29 67t67 29t67 -29t29 -67t-29 -67t-67 -29t-67 29t-29 67z" />
    <glyph glyph-name="k" unicode="k" horiz-adv-x="1040" 
d="M152 1516h118v-908l537 441h164l-580 -474l629 -575h-172l-578 539v-539h-118v1516z" />
    <glyph glyph-name="l" unicode="l" horiz-adv-x="425" 
d="M152 0v1516h122v-1516h-122z" />
    <glyph glyph-name="m" unicode="m" horiz-adv-x="1839" 
d="M152 1049h110l6 -164q49 92 137.5 143t194.5 51q122 0 213.5 -63t130.5 -178q44 114 142 177.5t223 63.5q97 0 172.5 -36.5t121.5 -100.5t69.5 -146t23.5 -178v-618h-123v614q0 57 -8.5 106.5t-29 95.5t-51 78.5t-78.5 51.5t-108 19q-136 0 -224.5 -95t-88.5 -233v-637
h-123v614q0 73 -13.5 133t-44 110.5t-85.5 79t-131 28.5q-136 0 -225 -95t-89 -233v-637h-122v1049z" />
    <glyph glyph-name="n" unicode="n" horiz-adv-x="1159" 
d="M152 1049h110l6 -172q48 97 142 149.5t206 52.5q99 0 176.5 -37.5t126 -102.5t73 -149t24.5 -182v-608h-123v604q0 74 -15 136.5t-47.5 114t-89.5 81t-135 29.5q-144 0 -238 -95.5t-94 -242.5v-627h-122v1049z" />
    <glyph glyph-name="o" unicode="o" horiz-adv-x="1212" 
d="M604 -31q-113 0 -209 44.5t-161 120t-101.5 176.5t-36.5 214q0 111 36 212t101 177t162.5 121t212.5 45q151 0 268.5 -75.5t178.5 -201t61 -278.5q0 -111 -36 -212t-100.5 -177t-162 -121t-213.5 -45zM606 967q-118 0 -207 -63t-133.5 -162.5t-44.5 -217.5
q0 -115 43.5 -214t133 -163.5t208.5 -64.5q118 0 207 62.5t133.5 162t44.5 217.5q0 116 -43 215.5t-132.5 163.5t-209.5 64z" />
    <glyph glyph-name="p" unicode="p" horiz-adv-x="1261" 
d="M152 1049h110l8 -207q60 113 164 175t232 62q147 0 262.5 -78t176 -204t60.5 -273q0 -109 -35.5 -209t-99.5 -177t-159.5 -123t-208.5 -46q-122 0 -225 60t-163 166v-619h-122v1473zM270 524q0 -115 43.5 -214t133 -163.5t208.5 -64.5q118 0 207 62.5t133.5 162
t44.5 217.5q0 116 -43 215.5t-132.5 163.5t-209.5 64q-118 0 -207 -63t-133.5 -162.5t-44.5 -217.5z" />
    <glyph glyph-name="q" unicode="q" horiz-adv-x="1261" 
d="M596 -31q-146 0 -262 78.5t-177 204.5t-61 272t60.5 271.5t177.5 204.5t266 79q127 0 229.5 -60t161.5 -173l8 203h111v-1473h-123v623q-60 -110 -162.5 -170t-228.5 -60zM606 967q-118 0 -207 -63t-133.5 -162.5t-44.5 -217.5q0 -115 43.5 -214t133 -163.5t208.5 -64.5
q118 0 207 62.5t133.5 162t44.5 217.5q0 116 -43 215.5t-132.5 163.5t-209.5 64z" />
    <glyph glyph-name="r" unicode="r" horiz-adv-x="751" 
d="M152 1049h110l8 -199q40 99 121 156t187 57q23 0 63 -4q29 -6 49 -15l-16 -114q-31 14 -99 14q-76 0 -135 -31t-94.5 -84.5t-53.5 -119t-18 -138.5v-571h-122v1049z" />
    <glyph glyph-name="s" unicode="s" horiz-adv-x="929" 
d="M82 193l100 53q46 -82 120.5 -125t168.5 -43q101 0 176.5 54.5t75.5 152.5q0 144 -201 188l-88 19q-53 11 -95 24t-86.5 36t-73.5 52.5t-47.5 74t-18.5 99.5q0 93 52 163.5t132 104t172 33.5q124 0 220.5 -56.5t144.5 -166.5l-103 -49q-87 164 -266 164q-92 0 -160.5 -48
t-68.5 -137q0 -36 14.5 -65t35 -47t54 -33t59 -23t62.5 -16l88 -18q299 -62 299 -293q0 -99 -55 -174t-140 -111.5t-184 -36.5q-123 0 -228 59t-159 165z" />
    <glyph glyph-name="t" unicode="t" horiz-adv-x="815" 
d="M31 1049h198v350h123v-350h344v-103h-344v-653q0 -93 43.5 -152t132.5 -59t166 51l49 -94q-91 -70 -221 -70q-144 0 -218.5 88.5t-74.5 235.5v653h-198v103z" />
    <glyph glyph-name="u" unicode="u" horiz-adv-x="1142" 
d="M143 1049h123v-596q0 -75 17.5 -139.5t52.5 -117t95.5 -82.5t139.5 -30q77 0 137 29.5t96 81t54.5 117t18.5 141.5v596h122v-598q0 -135 -47 -242t-147 -173.5t-240 -66.5q-137 0 -234 65t-142.5 172t-45.5 245v598z" />
    <glyph glyph-name="v" unicode="v" horiz-adv-x="1044" 
d="M41 1049h135l348 -920l348 920h132l-418 -1049h-127z" />
    <glyph glyph-name="w" unicode="w" horiz-adv-x="1601" 
d="M397 0l-356 1049h127l287 -902l293 902h114l289 -902l287 902h123l-357 -1049h-117l-284 897l-289 -897h-117z" />
    <glyph glyph-name="x" unicode="x" horiz-adv-x="1026" 
d="M31 0l409 553l-362 496h149l289 -416l291 416h141l-362 -496l409 -553h-155l-332 471l-330 -471h-147z" />
    <glyph glyph-name="y" unicode="y" horiz-adv-x="1044" 
d="M41 1049h135l367 -904l329 904h132l-482 -1235q-48 -123 -119.5 -190.5t-189.5 -67.5q-86 0 -141 36l43 101q42 -25 96 -25q129 0 203 176l65 164z" />
    <glyph glyph-name="z" unicode="z" horiz-adv-x="993" 
d="M92 0v82l627 864h-613v103h760v-82l-626 -865h661v-102h-809z" />
    <glyph glyph-name="braceleft" unicode="{" horiz-adv-x="681" 
d="M92 616h-31v95h31q81 0 122.5 49t41.5 131q0 56 -6 127q-25 204 -25 297q0 138 87 210t231 72h57v-96h-57q-97 0 -151 -50.5t-54 -145.5q0 -110 22 -271q9 -67 9 -127q0 -80 -32 -148t-99 -95q66 -27 98.5 -93.5t32.5 -144.5q0 -56 -9 -127q-22 -165 -22 -276
q0 -95 54 -146t151 -51h57v-96h-57q-142 0 -230 70.5t-88 211.5q0 93 25 297q6 70 6 127q0 82 -41.5 131t-122.5 49z" />
    <glyph glyph-name="bar" unicode="|" horiz-adv-x="487" 
d="M188 -209v1745h111v-1745h-111z" />
    <glyph glyph-name="braceright" unicode="}" horiz-adv-x="681" 
d="M139 -270h-57v96h57q97 0 151 51t54 146q0 70 -8 133q-23 165 -23 264q0 81 32 149t99 95q-63 26 -97 94t-34 143q0 99 23 268q8 63 8 136q0 95 -54 145.5t-151 50.5h-57v96h57q144 0 231 -70t87 -212q0 -109 -23 -297q-8 -63 -8 -127q0 -81 42 -130.5t122 -49.5h31v-95
h-31q-80 0 -122 -49.5t-42 -130.5q0 -64 8 -127q23 -188 23 -297q0 -140 -85.5 -211t-232.5 -71z" />
    <glyph glyph-name="asciitilde" unicode="~" horiz-adv-x="1216" 
d="M166 426q11 55 30.5 103t50 90.5t77.5 67t104 24.5q87 0 164 -64q12 -9 33 -27.5t32 -27.5q74 -66 131 -66q100 0 146 172h115q-11 -55 -30.5 -103t-50.5 -90t-78 -66.5t-104 -24.5q-48 0 -88 18q-45 22 -139 103q-75 63 -133 63q-99 0 -145 -172h-115z" />
    <glyph glyph-name="uni00A0" unicode="&#xa0;" horiz-adv-x="454" 
 />
    <glyph glyph-name="exclamdown" unicode="&#xa1;" horiz-adv-x="450" 
d="M289 -406h-129l4 1090h121zM125 954q0 40 30 70.5t70 30.5t70.5 -30.5t30.5 -70.5t-30.5 -70t-70.5 -30t-70 30t-30 70z" />
    <glyph glyph-name="cent" unicode="&#xa2;" horiz-adv-x="1216" 
d="M152 528q0 99 29.5 193t84 170.5t139 128.5t185.5 65v248h98v-246q124 -9 221.5 -74.5t149.5 -178.5l-107 -52q-40 78 -110.5 132t-153.5 63v-885q88 9 163.5 61.5t115.5 131.5l104 -49q-52 -109 -156 -177t-227 -77v-269h-98v271q-132 13 -233.5 93.5t-153 198.5
t-51.5 252zM590 973q-100 -17 -173 -87t-107 -163t-34 -195t33 -192t106 -157.5t175 -84.5v879z" />
    <glyph glyph-name="sterling" unicode="&#xa3;" horiz-adv-x="1216" 
d="M258 631h-180v102h188l23 262q6 92 35 172t79.5 142.5t128 98.5t173.5 36q160 0 262 -90t141 -250l-117 -35q-30 120 -101 190t-188 70q-70 0 -124.5 -27.5t-88 -75.5t-51.5 -105.5t-24 -125.5l-23 -262h443v-102h-451l-41 -512h770v-119h-1034v119h139z" />
    <glyph glyph-name="currency" unicode="&#xa4;" horiz-adv-x="1216" 
d="M213 248l-82 82l158 168q-76 115 -76 245t76 248l-158 166l82 82l154 -166q109 80 239 80q137 0 238 -82l155 168l82 -82l-157 -168q75 -113 75 -246q0 -132 -75 -245l157 -168l-82 -82l-155 168q-46 -39 -110.5 -60.5t-127.5 -21.5q-62 0 -126 22t-111 60zM606 1047
q-122 0 -198 -89t-76 -215q0 -124 76 -213.5t198 -89.5t198.5 88.5t76.5 214.5q0 125 -75.5 214.5t-199.5 89.5z" />
    <glyph glyph-name="yen" unicode="&#xa5;" horiz-adv-x="1216" 
d="M78 1413h143l387 -713l389 713h140l-412 -717h256v-102h-311v-219h311v-103h-311v-272h-125v272h-312v103h312v219h-312v102h254z" />
    <glyph glyph-name="section" unicode="&#xa7;" horiz-adv-x="997" 
d="M82 29l100 53q107 -168 314 -168q77 0 141 25q127 58 127 178q0 85 -62.5 135t-154.5 70l-117 22q-66 12 -122 34.5t-105 58.5t-77 91t-28 123q0 99 56 175.5t149 109.5q-91 45 -133 104q-45 57 -45 144q0 73 32.5 131.5t87 95t120 55.5t135.5 19q127 0 232.5 -56.5
t154.5 -166.5l-103 -50q-42 80 -118.5 122t-169.5 42q-60 0 -114 -17t-94 -59.5t-40 -105.5q0 -45 22.5 -81.5t60 -59.5t76.5 -37t82 -21l97 -18q67 -12 123 -34.5t104 -58.5t75 -91t27 -125q0 -102 -58 -177t-157 -110q189 -83 189 -256q0 -78 -34.5 -140.5t-91.5 -100.5
t-126.5 -58.5t-144.5 -20.5q-129 0 -240.5 57.5t-169.5 166.5zM221 668q0 -49 19.5 -87t55.5 -62.5t74 -39.5t87 -26l65 -15q27 -6 53 -6q90 0 153 64t63 155q0 51 -19 89t-55.5 62t-73.5 38t-88 26l-66 15q-27 6 -51 6q-89 0 -153 -64t-64 -155z" />
    <glyph glyph-name="dieresis" unicode="&#xa8;" horiz-adv-x="1159" 
d="M395 1270q-37 0 -64.5 27.5t-27.5 64.5q0 40 26 66t66 26t66 -26t26 -66q0 -37 -27.5 -64.5t-64.5 -27.5zM672 1362q0 37 27.5 64.5t64.5 27.5q40 0 66 -26t26 -66q0 -37 -27.5 -64.5t-64.5 -27.5q-35 0 -63.5 28.5t-28.5 63.5z" />
    <glyph glyph-name="copyright" unicode="&#xa9;" horiz-adv-x="1785" 
d="M893 -43q-213 0 -389.5 100t-278.5 277t-102 393q0 213 100 389t277 277.5t393 101.5q214 0 390 -99t278 -275.5t102 -393.5q0 -214 -99.5 -390t-276.5 -278t-394 -102zM893 1393q-181 0 -334.5 -88t-243.5 -241.5t-90 -336.5q0 -181 89 -334.5t243 -243.5t336 -90
q181 0 334.5 88.5t243.5 242.5t90 337q0 136 -52 259.5t-141 212.5t-213 141.5t-262 52.5zM903 301q-116 0 -206 59.5t-137.5 157t-47.5 213.5q0 84 27.5 162.5t77 139.5t124 97.5t162.5 36.5q110 0 196.5 -52t129.5 -152l-94 -45q-35 68 -97 109.5t-135 41.5
q-87 0 -152.5 -50t-96.5 -125.5t-31 -162.5t30.5 -161t95.5 -122.5t154 -48.5q74 0 142 41.5t100 108.5l92 -43q-42 -93 -135.5 -149t-198.5 -56z" />
    <glyph glyph-name="ordfeminine" unicode="&#xaa;" horiz-adv-x="739" 
d="M51 883q0 60 27 106.5t72 72.5t97.5 39t110.5 13q111 0 201 -43v62q0 92 -50 148t-140 56q-69 0 -121 -30.5t-74 -92.5l-96 33q34 89 114 138t179 49q135 0 216 -84t81 -222v-454h-99l-8 117q-33 -66 -98 -101t-144 -35q-109 0 -188.5 60t-79.5 168zM369 1028
q-38 0 -72 -7t-65.5 -22t-50.5 -44.5t-19 -69.5q0 -64 49 -101q45 -39 127 -39q93 0 157 61t64 155v26q-53 21 -96 31q-55 10 -94 10z" />
    <glyph glyph-name="guillemotleft" unicode="&#xab;" horiz-adv-x="917" 
d="M707 203l-287 381l287 381h139l-283 -381l283 -381h-139zM41 584l287 381h139l-283 -381l283 -381h-139z" />
    <glyph glyph-name="logicalnot" unicode="&#xac;" horiz-adv-x="1216" 
d="M180 590v106h813v-479h-114v373h-699z" />
    <glyph glyph-name="registered" unicode="&#xae;" horiz-adv-x="1097" 
d="M82 1014q0 195 134.5 328t332.5 133q197 0 332 -131.5t135 -329.5q0 -195 -134.5 -329t-332.5 -134q-128 0 -235 60t-169.5 167t-62.5 236zM549 1401q-160 0 -272.5 -112.5t-112.5 -274.5q0 -161 111.5 -275t273.5 -114q161 0 273 113t112 276q0 162 -111 274.5
t-274 112.5zM393 1266h150q80 0 137 -38t57 -114q0 -46 -24.5 -82t-67.5 -55l119 -207h-90l-99 186h-24q-6 -2 -16 -2q-15 0 -62 7v-191h-80v496zM543 1198h-70v-170q35 -6 66 -6q116 0 116 88q0 42 -30 66q-31 22 -82 22z" />
    <glyph glyph-name="macron" unicode="&#xaf;" horiz-adv-x="1159" 
d="M291 1253v109h577v-109h-577z" />
    <glyph glyph-name="degree" unicode="&#xb0;" horiz-adv-x="737" 
d="M86 1108q-25 58 -25 119q0 128 90 220.5t220 92.5q123 0 217 -88q88 -94 88 -223q0 -128 -90.5 -219.5t-218.5 -91.5q-92 0 -170.5 52.5t-110.5 137.5zM174 1229q0 -59 27 -105q23 -47 69 -75.5t99 -28.5q84 0 139 61.5t55 147.5q0 57 -24 106q-64 103 -170 103
q-85 0 -140 -61t-55 -148z" />
    <glyph glyph-name="plusminus" unicode="&#xb1;" horiz-adv-x="1216" 
d="M190 614v103h361v346h111v-346h362v-103h-362v-356h-111v356h-361zM211 0v113h793v-113h-793z" />
    <glyph glyph-name="acute" unicode="&#xb4;" horiz-adv-x="1159" 
d="M379 1223l248 293h151l-270 -293h-129z" />
    <glyph glyph-name="paragraph" unicode="&#xb6;" horiz-adv-x="1185" 
d="M102 1010q0 111 40.5 197.5t112 139.5t165 80t203.5 27h92v-1642h-115v757q-100 4 -188 33t-158 81.5t-111 137t-41 189.5zM1001 -188h-114v1642h114v-1642z" />
    <glyph glyph-name="periodcentered" unicode="&#xb7;" horiz-adv-x="450" 
d="M225 461q-41 0 -71.5 30.5t-30.5 71.5t30.5 72t71.5 31t72 -31t31 -72t-31 -71.5t-72 -30.5z" />
    <glyph glyph-name="cedilla" unicode="&#xb8;" horiz-adv-x="1159" 
d="M541 -451q-81 0 -148 31l31 94q32 -11 63 -18q36 -4 52 -4q42 0 74 18.5t32 57.5q0 84 -158 84l58 211h94l-35 -136q66 -8 113 -52t47 -109q0 -85 -66.5 -131t-156.5 -46z" />
    <glyph glyph-name="ordmasculine" unicode="&#xba;" horiz-adv-x="839" 
d="M420 655q-161 0 -265 112t-104 277q0 163 103 276.5t266 113.5q162 0 265 -111.5t103 -278.5q0 -164 -101.5 -276.5t-266.5 -112.5zM420 1331q-116 0 -185 -83.5t-69 -203.5q0 -118 68.5 -202t185.5 -84q116 0 185 83t69 203q0 119 -68.5 203t-185.5 84z" />
    <glyph glyph-name="guillemotright" unicode="&#xbb;" horiz-adv-x="917" 
d="M733 584l-282 381h139l287 -381l-287 -381h-139zM72 203l282 381l-282 381h139l287 -381l-287 -381h-139z" />
    <glyph glyph-name="onequarter" unicode="&#xbc;" horiz-adv-x="1636" 
d="M973 262l373 516h114v-510h96v-90h-96v-178h-104v178h-383v84zM457 0h-117l889 1413h117zM139 1282l250 131h96v-778h-112v657l-193 -102zM1083 268h273v373z" />
    <glyph glyph-name="onehalf" unicode="&#xbd;" horiz-adv-x="1636" 
d="M1012 590q23 93 98 150t172 57q106 0 179 -66t73 -172q0 -53 -23.5 -107.5t-67.5 -105.5t-79.5 -85.5t-85.5 -76.5q-18 -16 -96 -82h366v-102h-534v86q102 79 216 184.5t156 173.5q33 53 33 107q0 65 -39 106t-104 41q-59 0 -102.5 -36.5t-57.5 -94.5zM418 0h-117
l889 1413h117zM180 1190l-41 92l250 131h96v-778h-112v657z" />
    <glyph glyph-name="threequarters" unicode="&#xbe;" horiz-adv-x="1636" 
d="M973 262l373 516h114v-510h96v-90h-96v-178h-104v178h-383v84zM354 616q-102 0 -177 51t-105 146l104 23q18 -57 66 -89t110 -32q69 0 117.5 37t48.5 104q0 68 -47 101.5t-117 33.5h-92v94h86q66 0 110 32.5t44 96.5q0 58 -44 88.5t-104 30.5q-58 0 -101 -30.5t-60 -85.5
l-105 22q24 94 97 143.5t175 49.5t177 -55.5t75 -155.5q0 -121 -123 -179q64 -21 105 -71q37 -52 37 -121q0 -107 -83 -170.5t-194 -63.5zM344 0l889 1413h117l-889 -1413h-117zM1083 268h273v373z" />
    <glyph glyph-name="questiondown" unicode="&#xbf;" horiz-adv-x="944" 
d="M502 -436q-117 0 -217 50t-162 145t-62 214q0 168 112 289t284 174v248h121v-322q-61 -14 -114.5 -35t-104 -54t-86.5 -73.5t-58 -96t-22 -119.5q0 -133 88.5 -219.5t222.5 -86.5q75 0 145 31q141 74 185 228l110 -39q-43 -155 -161 -244.5t-281 -89.5zM418 954
q0 40 30 70.5t70 30.5t70 -30.5t30 -70.5t-30 -70t-70 -30t-70 30t-30 70z" />
    <glyph glyph-name="Agrave" unicode="&#xc0;" horiz-adv-x="1413" 
d="M51 0l588 1454h135l588 -1454h-135l-178 449h-689l-178 -449h-131zM408 565h593l-296 752zM414 1860h174l276 -242h-147z" />
    <glyph glyph-name="Aacute" unicode="&#xc1;" horiz-adv-x="1413" 
d="M51 0l588 1454h135l588 -1454h-135l-178 449h-689l-178 -449h-131zM408 565h593l-296 752zM696 1618h-147l276 242h174z" />
    <glyph glyph-name="Acircumflex" unicode="&#xc2;" horiz-adv-x="1413" 
d="M51 0l588 1454h135l588 -1454h-135l-178 449h-689l-178 -449h-131zM705 1317l-297 -752h593zM500 1618h-146l287 242h133l287 -242h-148l-206 154z" />
    <glyph glyph-name="Atilde" unicode="&#xc3;" horiz-adv-x="1413" 
d="M51 0l588 1454h135l588 -1454h-135l-178 449h-689l-178 -449h-131zM705 1317l-297 -752h593zM356 1628q15 92 67 150.5t140 58.5q46 0 80 -13t78 -42q42 -30 61 -39q31 -17 62 -17q42 0 70 29.5t36 73.5h109q-15 -92 -67.5 -150.5t-139.5 -58.5q-79 0 -156 55
q-10 6 -30.5 20t-30.5 19q-34 17 -64 17q-42 0 -70 -29.5t-36 -73.5h-109z" />
    <glyph glyph-name="Adieresis" unicode="&#xc4;" horiz-adv-x="1413" 
d="M51 0l588 1454h135l588 -1454h-135l-178 449h-689l-178 -449h-131zM705 1317l-297 -752h593zM494 1624q-40 0 -67.5 27t-27.5 67q0 41 27 67.5t68 26.5t67.5 -26.5t26.5 -67.5q0 -40 -27 -67t-67 -27zM827 1718q0 40 27.5 67t67.5 27q41 0 67.5 -26.5t26.5 -67.5
q0 -40 -27 -67t-67 -27q-37 0 -66 28.5t-29 65.5z" />
    <glyph glyph-name="Aring" unicode="&#xc5;" horiz-adv-x="1413" 
d="M51 0l588 1454h135l588 -1454h-135l-178 449h-689l-178 -449h-131zM408 565h593l-296 752zM510 1729q0 79 58.5 135.5t138.5 56.5q79 0 137.5 -56.5t58.5 -135.5t-58 -136t-138 -57q-79 0 -138 57t-59 136zM608 1729q0 -43 29 -72q28 -31 70 -31q41 0 69 31q29 29 29 72
q0 41 -29 73q-29 29 -69 29q-41 0 -70 -29q-29 -32 -29 -73z" />
    <glyph glyph-name="AE" unicode="&#xc6;" horiz-adv-x="2027" 
d="M51 0l971 1454h848v-117h-668v-522h613v-117h-613v-581h688v-117h-813v449h-585l-295 -449h-146zM1077 1339l-508 -774h508v774z" />
    <glyph glyph-name="Ccedilla" unicode="&#xc7;" horiz-adv-x="1466" 
d="M113 715q0 118 28.5 231t86 212.5t137 174.5t189 118.5t234.5 43.5q184 0 336.5 -91t227.5 -255l-113 -55q-65 134 -181.5 209t-264.5 75q-103 0 -192.5 -37.5t-154 -102t-111 -149t-69 -180t-22.5 -194.5t22.5 -192t69 -174t111 -142t155 -96t195.5 -35q151 0 267 74
t189 210l113 -55q-75 -153 -211.5 -243t-308.5 -101l-23 -86q65 -8 112.5 -52t47.5 -108q0 -86 -66.5 -132t-158.5 -46q-91 0 -158 31l31 96q38 -12 67 -18q36 -4 58 -4q42 0 74 18t32 57q0 82 -157 82l43 162q-144 7 -265 72.5t-201 170t-124.5 236.5t-44.5 275z" />
    <glyph glyph-name="Egrave" unicode="&#xc8;" horiz-adv-x="1138" 
d="M168 1454h813v-117h-688v-522h633v-117h-633v-581h708v-117h-833v1454zM281 1860h174l276 -242h-147z" />
    <glyph glyph-name="Eacute" unicode="&#xc9;" horiz-adv-x="1138" 
d="M168 0v1454h813v-117h-688v-522h633v-117h-633v-581h708v-117h-833zM563 1618h-147l276 242h174z" />
    <glyph glyph-name="Ecircumflex" unicode="&#xca;" horiz-adv-x="1138" 
d="M168 1454h813v-117h-688v-522h633v-117h-633v-581h708v-117h-833v1454zM367 1618h-146l287 242h133l287 -242h-148l-207 154z" />
    <glyph glyph-name="Edieresis" unicode="&#xcb;" horiz-adv-x="1138" 
d="M168 1454h813v-117h-688v-522h633v-117h-633v-581h708v-117h-833v1454zM360 1624q-40 0 -67 27t-27 67q0 41 26.5 67.5t67.5 26.5t68 -26.5t27 -67.5q0 -40 -27.5 -67t-67.5 -27zM694 1718q0 40 27 67t67 27q41 0 68 -26.5t27 -67.5q0 -40 -27.5 -67t-67.5 -27
q-37 0 -65.5 28.5t-28.5 65.5z" />
    <glyph glyph-name="Igrave" unicode="&#xcc;" horiz-adv-x="464" 
d="M168 0v1454h129v-1454h-129zM240 1618l-303 242h174l276 -242h-147z" />
    <glyph glyph-name="Iacute" unicode="&#xcd;" horiz-adv-x="464" 
d="M168 0v1454h129v-1454h-129zM72 1618l276 242h174l-303 -242h-147z" />
    <glyph glyph-name="Icircumflex" unicode="&#xce;" horiz-adv-x="464" 
d="M297 0h-129v1454h129v-1454zM23 1618h-146l287 242h133l287 -242h-148l-207 154z" />
    <glyph glyph-name="Idieresis" unicode="&#xcf;" horiz-adv-x="464" 
d="M168 1454h129v-1454h-129v1454zM16 1624q-40 0 -67 27t-27 67q0 41 26.5 67.5t67.5 26.5t68 -26.5t27 -67.5q0 -40 -27.5 -67t-67.5 -27zM350 1718q0 40 27 67t67 27q41 0 68 -26.5t27 -67.5q0 -40 -27.5 -67t-67.5 -27q-37 0 -65.5 28.5t-28.5 65.5z" />
    <glyph glyph-name="Eth" unicode="&#xd0;" horiz-adv-x="1525" 
d="M0 809h188v645h455q166 0 306 -47.5t243.5 -138t162 -229t58.5 -312.5q0 -222 -96.5 -387.5t-269.5 -252.5t-400 -87h-459v705h-188v104zM643 1337h-326v-528h365v-104h-365v-588h326q186 0 329 69.5t226.5 209t83.5 331.5q0 281 -175 445.5t-464 164.5z" />
    <glyph glyph-name="Ntilde" unicode="&#xd1;" horiz-adv-x="1431" 
d="M168 0v1454h115l856 -1241v1241h125v-1454h-115l-856 1239v-1239h-125zM365 1628q15 92 66.5 150.5t139.5 58.5q46 0 80 -13t78 -42q40 -28 62 -39q31 -17 61 -17q42 0 70 29.5t36 73.5h109q-15 -92 -67.5 -150.5t-139.5 -58.5q-78 0 -155 55q-9 6 -30.5 19.5t-31.5 19.5
q-34 17 -63 17q-42 0 -70.5 -29.5t-36.5 -73.5h-108z" />
    <glyph glyph-name="Ograve" unicode="&#xd2;" horiz-adv-x="1619" 
d="M811 -41q-157 0 -289 61.5t-221 166t-138.5 244.5t-49.5 296q0 154 48 292.5t136 244.5t221 168.5t293 62.5q209 0 369.5 -105t243.5 -278.5t83 -384.5q0 -123 -29.5 -236.5t-89 -210t-142 -168.5t-194.5 -112.5t-241 -40.5zM809 1378q-130 0 -238.5 -53.5t-179 -144
t-109 -207.5t-38.5 -246q0 -126 37.5 -242t107 -207.5t179 -146.5t241.5 -55q130 0 239 53.5t179.5 144t109.5 207.5t39 246q0 102 -23 197t-70 177.5t-113.5 144t-159.5 97t-201 35.5zM516 1860h174l277 -242h-148z" />
    <glyph glyph-name="Oacute" unicode="&#xd3;" horiz-adv-x="1619" 
d="M811 -41q-157 0 -289 61.5t-221 166t-138.5 244.5t-49.5 296q0 154 48 292.5t136 244.5t221 168.5t293 62.5q209 0 369.5 -105t243.5 -278.5t83 -384.5q0 -123 -29.5 -236.5t-89 -210t-142 -168.5t-194.5 -112.5t-241 -40.5zM809 1378q-130 0 -238.5 -53.5t-179 -144
t-109 -207.5t-38.5 -246q0 -126 37.5 -242t107 -207.5t179 -146.5t241.5 -55q130 0 239 53.5t179.5 144t109.5 207.5t39 246q0 102 -23 197t-70 177.5t-113.5 144t-159.5 97t-201 35.5zM799 1618h-148l277 242h174z" />
    <glyph glyph-name="Ocircumflex" unicode="&#xd4;" horiz-adv-x="1619" 
d="M811 -41q-157 0 -289 61.5t-221 166t-138.5 244.5t-49.5 296q0 154 48 292.5t136 244.5t221 168.5t293 62.5q209 0 369.5 -105t243.5 -278.5t83 -384.5q0 -123 -29.5 -236.5t-89 -210t-142 -168.5t-194.5 -112.5t-241 -40.5zM244 727q0 -126 37.5 -242t107 -207.5
t179 -146.5t241.5 -55q130 0 239 53.5t179.5 144t109.5 207.5t39 246q0 102 -23 197t-70 177.5t-113.5 144t-159.5 97t-201 35.5q-130 0 -238.5 -53.5t-179 -144t-109 -207.5t-38.5 -246zM602 1618h-145l286 242h134l286 -242h-147l-207 154z" />
    <glyph glyph-name="Otilde" unicode="&#xd5;" horiz-adv-x="1619" 
d="M811 -41q-157 0 -289 61.5t-221 166t-138.5 244.5t-49.5 296q0 154 48 292.5t136 244.5t221 168.5t293 62.5q209 0 369.5 -105t243.5 -278.5t83 -384.5q0 -123 -29.5 -236.5t-89 -210t-142 -168.5t-194.5 -112.5t-241 -40.5zM809 1378q-130 0 -238.5 -53.5t-179 -144
t-109 -207.5t-38.5 -246q0 -126 37.5 -242t107 -207.5t179 -146.5t241.5 -55q130 0 239 53.5t179.5 144t109.5 207.5t39 246q0 102 -23 197t-70 177.5t-113.5 144t-159.5 97t-201 35.5zM567 1628h-108q15 92 67 150.5t140 58.5q46 0 79 -13t78 -42q40 -28 62 -39
q31 -17 61 -17q42 0 70.5 29.5t36.5 73.5h108q-15 -92 -67.5 -150.5t-139.5 -58.5q-78 0 -155 55q-9 6 -30.5 19.5t-31.5 19.5q-34 17 -63 17q-42 0 -70.5 -29.5t-36.5 -73.5z" />
    <glyph glyph-name="Odieresis" unicode="&#xd6;" horiz-adv-x="1619" 
d="M811 -41q-157 0 -289 61.5t-221 166t-138.5 244.5t-49.5 296q0 154 48 292.5t136 244.5t221 168.5t293 62.5q209 0 369.5 -105t243.5 -278.5t83 -384.5q0 -123 -29.5 -236.5t-89 -210t-142 -168.5t-194.5 -112.5t-241 -40.5zM244 727q0 -126 37.5 -242t107 -207.5
t179 -146.5t241.5 -55q130 0 239 53.5t179.5 144t109.5 207.5t39 246q0 102 -23 197t-70 177.5t-113.5 144t-159.5 97t-201 35.5q-130 0 -238.5 -53.5t-179 -144t-109 -207.5t-38.5 -246zM502 1718q0 41 26.5 67.5t67.5 26.5t67.5 -26.5t26.5 -67.5q0 -40 -27 -67t-67 -27
t-67 27t-27 67zM1024 1624q-37 0 -65.5 28.5t-28.5 65.5q0 40 27 67t67 27q41 0 67.5 -26.5t26.5 -67.5q0 -40 -27 -67t-67 -27z" />
    <glyph glyph-name="multiply" unicode="&#xd7;" horiz-adv-x="1216" 
d="M297 182l-72 74l312 309l-297 297l71 74l297 -297l297 297l72 -74l-297 -297l311 -309l-71 -74l-312 312z" />
    <glyph glyph-name="Oslash" unicode="&#xd8;" horiz-adv-x="1619" 
d="M315 170q-99 107 -150.5 254.5t-51.5 302.5q0 154 48 292.5t136 244.5t221 168.5t293 62.5q235 0 410 -135l127 166h139l-182 -240q102 -108 152 -254t50 -305q0 -123 -29.5 -236.5t-89 -210t-142 -168.5t-194.5 -112.5t-241 -40.5q-240 0 -412 135l-127 -166h-139z
M473 190q140 -116 336 -116q131 0 240 53.5t180 144t110 208t39 247.5q0 276 -151 457zM242 727q0 -126 38 -245.5t113 -211.5l754 994q-149 116 -338 116q-105 0 -196 -35t-158.5 -97t-116 -144t-72.5 -178.5t-24 -198.5z" />
    <glyph glyph-name="Ugrave" unicode="&#xd9;" horiz-adv-x="1411" 
d="M147 1454h129v-895q0 -101 27 -187.5t79 -153t135.5 -104.5t189.5 -38q206 0 317 134.5t111 348.5v895h129v-899q0 -171 -64.5 -304.5t-194 -212.5t-305.5 -79q-256 0 -404.5 165.5t-148.5 430.5v899zM412 1860h174l276 -242h-147z" />
    <glyph glyph-name="Uacute" unicode="&#xda;" horiz-adv-x="1411" 
d="M700 -41q-256 0 -404.5 165.5t-148.5 430.5v899h129v-895q0 -101 27 -187.5t79 -153t135.5 -104.5t189.5 -38q206 0 317 134.5t111 348.5v895h129v-899q0 -171 -64.5 -304.5t-194 -212.5t-305.5 -79zM694 1618h-147l276 242h174z" />
    <glyph glyph-name="Ucircumflex" unicode="&#xdb;" horiz-adv-x="1411" 
d="M700 -41q-256 0 -404.5 165.5t-148.5 430.5v899h129v-895q0 -101 27 -187.5t79 -153t135.5 -104.5t189.5 -38q206 0 317 134.5t111 348.5v895h129v-899q0 -171 -64.5 -304.5t-194 -212.5t-305.5 -79zM498 1618h-146l287 242h133l287 -242h-148l-206 154z" />
    <glyph glyph-name="Udieresis" unicode="&#xdc;" horiz-adv-x="1411" 
d="M147 1454h129v-895q0 -101 27 -187.5t79 -153t135.5 -104.5t189.5 -38q206 0 317 134.5t111 348.5v895h129v-899q0 -171 -64.5 -304.5t-194 -212.5t-305.5 -79q-256 0 -404.5 165.5t-148.5 430.5v899zM397 1718q0 41 27 67.5t68 26.5t67.5 -26.5t26.5 -67.5
q0 -40 -27 -67t-67 -27t-67.5 27t-27.5 67zM920 1624q-37 0 -66 28.5t-29 65.5q0 40 27.5 67t67.5 27q41 0 67.5 -26.5t26.5 -67.5q0 -40 -27 -67t-67 -27z" />
    <glyph glyph-name="Yacute" unicode="&#xdd;" horiz-adv-x="1239" 
d="M555 592l-514 862h143l437 -754l438 754h139l-514 -858v-596h-129v592zM608 1618h-147l276 242h174z" />
    <glyph glyph-name="Thorn" unicode="&#xde;" horiz-adv-x="1148" 
d="M168 1454h123v-278h256q108 0 199.5 -26t164.5 -78t114.5 -139.5t41.5 -201.5q0 -91 -29.5 -165t-81 -125t-121.5 -85.5t-149.5 -50.5t-167.5 -16t-225 18v-307h-125v1454zM293 1061v-641q102 -17 223 -17q68 0 128 10t114.5 34.5t93 61.5t61.5 94t23 130q0 111 -53 186
t-138.5 108.5t-197.5 33.5h-254z" />
    <glyph glyph-name="germandbls" unicode="&#xdf;" horiz-adv-x="1175" 
d="M274 0h-122v1087q0 125 52 227t151 162t227 60q173 0 296 -105.5t123 -277.5q0 -107 -54 -194.5t-150 -137.5q131 -47 206.5 -156t75.5 -251q0 -187 -128 -310.5t-318 -123.5q-121 0 -205 40l31 107q75 -35 176 -35q140 0 229.5 94t89.5 238q0 143 -100 237.5t-246 94.5
h-69v108h49q123 0 206 80t83 203q0 76 -38.5 139.5t-105.5 102.5q-67 34 -151 34q-141 0 -224.5 -94t-83.5 -239v-1090z" />
    <glyph glyph-name="agrave" unicode="&#xe0;" horiz-adv-x="1093" 
d="M481 -31q-100 0 -184 35t-139.5 110.5t-55.5 178.5q0 69 25 125.5t67 94t98.5 63t117 36.5t125.5 11q155 0 296 -64v92q0 136 -77.5 227t-212.5 91q-213 0 -299 -191l-101 47q42 119 156 185.5t248 66.5q187 0 296 -117.5t109 -310.5v-649h-106l-10 168
q-51 -97 -145.5 -148t-207.5 -51zM539 524q-59 0 -112 -12t-99.5 -37t-74.5 -71.5t-28 -108.5q0 -107 78.5 -166t190.5 -59q143 0 240 94t97 239v58q-149 63 -292 63zM281 1516h151l248 -293h-129z" />
    <glyph glyph-name="aacute" unicode="&#xe1;" horiz-adv-x="1093" 
d="M481 -31q-100 0 -184 35t-139.5 110.5t-55.5 178.5q0 69 25 125.5t67 94t98.5 63t117 36.5t125.5 11q155 0 296 -64v92q0 136 -77.5 227t-212.5 91q-213 0 -299 -191l-101 47q42 119 156 185.5t248 66.5q187 0 296 -117.5t109 -310.5v-649h-106l-10 168
q-51 -97 -145.5 -148t-207.5 -51zM539 524q-59 0 -112 -12t-99.5 -37t-74.5 -71.5t-28 -108.5q0 -107 78.5 -166t190.5 -59q143 0 240 94t97 239v58q-149 63 -292 63zM535 1223h-129l247 293h152z" />
    <glyph glyph-name="acircumflex" unicode="&#xe2;" horiz-adv-x="1093" 
d="M102 293q0 69 25 125.5t67 94t98.5 63t117 36.5t125.5 11q155 0 296 -64v92q0 136 -77.5 227t-212.5 91q-213 0 -299 -191l-101 47q42 119 156 185.5t248 66.5q187 0 296 -117.5t109 -310.5v-649h-106l-10 168q-51 -97 -145.5 -148t-207.5 -51q-100 0 -184 35
t-139.5 110.5t-55.5 178.5zM225 295q0 -107 78.5 -166t190.5 -59q143 0 240 94t97 239v58q-149 63 -292 63q-59 0 -112 -12t-99.5 -37t-74.5 -71.5t-28 -108.5zM246 1223l241 293h113l242 -293h-127l-172 194l-172 -194h-125z" />
    <glyph glyph-name="atilde" unicode="&#xe3;" horiz-adv-x="1093" 
d="M102 293q0 69 25 125.5t67 94t98.5 63t117 36.5t125.5 11q155 0 296 -64v92q0 136 -77.5 227t-212.5 91q-213 0 -299 -191l-101 47q42 119 156 185.5t248 66.5q187 0 296 -117.5t109 -310.5v-649h-106l-10 168q-51 -97 -145.5 -148t-207.5 -51q-100 0 -184 35
t-139.5 110.5t-55.5 178.5zM225 295q0 -107 78.5 -166t190.5 -59q143 0 240 94t97 239v58q-149 63 -292 63q-59 0 -112 -12t-99.5 -37t-74.5 -71.5t-28 -108.5zM336 1223h-103q14 90 59 149.5t128 59.5q41 0 80 -17q31 -16 63 -41q38 -30 53 -39q24 -18 54 -18q64 0 82 106
h102q-12 -89 -57 -149t-129 -60q-44 0 -80 19q-31 14 -64 39q-45 35 -53 41q-29 16 -53 16q-64 0 -82 -106z" />
    <glyph glyph-name="adieresis" unicode="&#xe4;" horiz-adv-x="1093" 
d="M102 293q0 69 25 125.5t67 94t98.5 63t117 36.5t125.5 11q155 0 296 -64v92q0 136 -77.5 227t-212.5 91q-213 0 -299 -191l-101 47q42 119 156 185.5t248 66.5q187 0 296 -117.5t109 -310.5v-649h-106l-10 168q-51 -97 -145.5 -148t-207.5 -51q-100 0 -184 35
t-139.5 110.5t-55.5 178.5zM225 295q0 -107 78.5 -166t190.5 -59q143 0 240 94t97 239v58q-149 63 -292 63q-59 0 -112 -12t-99.5 -37t-74.5 -71.5t-28 -108.5zM358 1270q-37 0 -64.5 27.5t-27.5 64.5q0 40 26 66t66 26t66.5 -26t26.5 -66q0 -37 -28 -64.5t-65 -27.5z
M635 1362q0 37 27.5 64.5t64.5 27.5q40 0 66 -26t26 -66q0 -37 -27.5 -64.5t-64.5 -27.5q-35 0 -63.5 28.5t-28.5 63.5z" />
    <glyph glyph-name="aring" unicode="&#xe5;" horiz-adv-x="1093" 
d="M481 -31q-100 0 -184 35t-139.5 110.5t-55.5 178.5q0 69 25 125.5t67 94t98.5 63t117 36.5t125.5 11q155 0 296 -64v92q0 136 -77.5 227t-212.5 91q-213 0 -299 -191l-101 47q42 119 156 185.5t248 66.5q187 0 296 -117.5t109 -310.5v-649h-106l-10 168
q-51 -97 -145.5 -148t-207.5 -51zM539 524q-59 0 -112 -12t-99.5 -37t-74.5 -71.5t-28 -108.5q0 -107 78.5 -166t190.5 -59q143 0 240 94t97 239v58q-149 63 -292 63zM543 1169q-79 0 -138 57t-59 136t58.5 135.5t138.5 56.5q79 0 137.5 -56.5t58.5 -135.5q0 -78 -59 -135.5
t-137 -57.5zM543 1468q-42 0 -72.5 -31.5t-30.5 -74.5t30.5 -75t72.5 -32t72 32t30 75t-30 74.5t-72 31.5z" />
    <glyph glyph-name="ae" unicode="&#xe6;" horiz-adv-x="1843" 
d="M102 293q0 66 23.5 121t63 93t93 64.5t112.5 39t122 12.5q170 0 295 -64v92q0 138 -74 228t-211 90q-98 0 -173.5 -50t-110.5 -141l-101 47q41 118 149.5 185t239.5 67q128 0 224 -64.5t137 -183.5q61 116 164.5 182t232.5 66q103 0 190 -41t145.5 -111t91 -162
t32.5 -194v-57h-821q2 -88 27.5 -165.5t72.5 -138t121.5 -95.5t167.5 -35q209 0 315 180l99 -57q-61 -113 -172 -172.5t-244 -59.5q-146 0 -262 73t-181 204q-34 -131 -143.5 -204t-249.5 -73q-99 0 -183 36t-138 111.5t-54 176.5zM225 295q0 -70 33 -117q32 -54 93.5 -81
t129.5 -27q143 0 236.5 93.5t93.5 239.5v60q-131 61 -287 61q-58 0 -109 -12.5t-95 -38t-69.5 -71.5t-25.5 -107zM1286 973q-97 0 -175 -53t-121.5 -133.5t-57.5 -176.5h692q-5 95 -46 176.5t-117.5 134t-174.5 52.5z" />
    <glyph glyph-name="ccedilla" unicode="&#xe7;" horiz-adv-x="1101" 
d="M537 -29q-136 17 -237.5 96.5t-152.5 196.5t-51 254q0 107 35 208t98 179.5t158 126t207 47.5q136 0 244 -67t166 -189l-107 -51q-47 89 -126.5 142t-176.5 53q-87 0 -159 -39t-118 -103t-71 -143.5t-25 -163.5q0 -83 24.5 -160.5t70 -139.5t118 -99t160.5 -37
q100 0 185.5 52t131.5 140l105 -49q-49 -109 -157 -179t-228 -75l-21 -84q66 -8 113 -52t47 -109q0 -85 -66.5 -131t-156.5 -46q-81 0 -148 31l31 94q30 -10 64 -18q36 -4 51 -4q42 0 74 18.5t32 57.5q0 84 -157 84z" />
    <glyph glyph-name="egrave" unicode="&#xe8;" horiz-adv-x="1157" 
d="M96 520q0 146 57.5 271.5t172 205.5t264.5 80q139 0 247.5 -68.5t166 -183.5t57.5 -256v-57h-842q3 -121 47.5 -217.5t135 -156.5t214.5 -60q215 0 328 180l98 -57q-61 -112 -174.5 -172t-246.5 -60q-154 0 -274 72.5t-185.5 197.5t-65.5 281zM225 610h713
q-13 151 -106.5 257t-241.5 106q-147 0 -245.5 -105t-119.5 -258zM328 1516h151l248 -293h-129z" />
    <glyph glyph-name="eacute" unicode="&#xe9;" horiz-adv-x="1157" 
d="M96 520q0 146 57.5 271.5t172 205.5t264.5 80q139 0 247.5 -68.5t166 -183.5t57.5 -256v-57h-842q3 -121 47.5 -217.5t135 -156.5t214.5 -60q215 0 328 180l98 -57q-61 -112 -174.5 -172t-246.5 -60q-154 0 -274 72.5t-185.5 197.5t-65.5 281zM225 610h713
q-13 151 -106.5 257t-241.5 106q-147 0 -245.5 -105t-119.5 -258zM582 1223h-129l247 293h152z" />
    <glyph glyph-name="ecircumflex" unicode="&#xea;" horiz-adv-x="1157" 
d="M621 -31q-154 0 -274 72.5t-185.5 197.5t-65.5 281q0 146 57.5 271.5t172 205.5t264.5 80q139 0 247.5 -68.5t166 -183.5t57.5 -256v-57h-842q3 -121 47.5 -217.5t135 -156.5t214.5 -60q215 0 328 180l98 -57q-61 -112 -174.5 -172t-246.5 -60zM590 973
q-147 0 -245.5 -105t-119.5 -258h713q-13 151 -106.5 257t-241.5 106zM418 1223h-125l242 293h112l242 -293h-127l-172 194z" />
    <glyph glyph-name="edieresis" unicode="&#xeb;" horiz-adv-x="1157" 
d="M621 -31q-154 0 -274 72.5t-185.5 197.5t-65.5 281q0 146 57.5 271.5t172 205.5t264.5 80q139 0 247.5 -68.5t166 -183.5t57.5 -256v-57h-842q3 -121 47.5 -217.5t135 -156.5t214.5 -60q215 0 328 180l98 -57q-61 -112 -174.5 -172t-246.5 -60zM590 973
q-147 0 -245.5 -105t-119.5 -258h713q-13 151 -106.5 257t-241.5 106zM406 1270q-37 0 -65 27.5t-28 64.5q0 40 26.5 66t66.5 26t66 -26t26 -66q0 -37 -27.5 -64.5t-64.5 -27.5zM682 1362q0 37 27.5 64.5t64.5 27.5q40 0 66 -26t26 -66q0 -37 -27.5 -64.5t-64.5 -27.5
q-35 0 -63.5 28.5t-28.5 63.5z" />
    <glyph glyph-name="igrave" unicode="&#xec;" horiz-adv-x="425" 
d="M152 0v1049h122v-1049h-122zM221 1223l-270 293h151l248 -293h-129z" />
    <glyph glyph-name="iacute" unicode="&#xed;" horiz-adv-x="425" 
d="M152 0v1049h122v-1049h-122zM76 1223l248 293h151l-270 -293h-129z" />
    <glyph glyph-name="icircumflex" unicode="&#xee;" horiz-adv-x="425" 
d="M274 0h-122v1049h122v-1049zM-84 1223l242 293h112l242 -293h-127l-172 194l-172 -194h-125z" />
    <glyph glyph-name="idieresis" unicode="&#xef;" horiz-adv-x="425" 
d="M152 1049h122v-1049h-122v1049zM305 1362q0 37 27.5 64.5t64.5 27.5q40 0 66 -26t26 -66q0 -37 -27.5 -64.5t-64.5 -27.5q-35 0 -63.5 28.5t-28.5 63.5zM29 1270q-37 0 -64.5 27.5t-27.5 64.5q0 40 26 66t66 26t66 -26t26 -66q0 -37 -27.5 -64.5t-64.5 -27.5z" />
    <glyph glyph-name="eth" unicode="&#xf0;" horiz-adv-x="1222" 
d="M604 -31q-146 0 -263 74t-181 198t-64 271q0 141 61.5 265.5t177 203t259.5 78.5q106 0 197 -44t153 -128q-64 184 -233 379l-207 -111l-45 84l184 98q-75 75 -164 136l127 53q84 -64 146 -129l184 98l45 -84l-164 -88q137 -159 218 -361t81 -403q0 -119 -32 -224
t-93 -187.5t-161 -130.5t-226 -48zM221 514q0 -114 44.5 -211.5t133.5 -159t207 -61.5q174 0 279.5 126t105.5 306q0 116 -43.5 212.5t-133 158t-208.5 61.5q-117 0 -206 -60t-134 -157t-45 -215z" />
    <glyph glyph-name="ntilde" unicode="&#xf1;" horiz-adv-x="1159" 
d="M152 1049h110l6 -172q48 97 142 149.5t206 52.5q99 0 176.5 -37.5t126 -102.5t73 -149t24.5 -182v-608h-123v604q0 74 -15 136.5t-47.5 114t-89.5 81t-135 29.5q-144 0 -238 -95.5t-94 -242.5v-627h-122v1049zM274 1223q14 90 59 149.5t128 59.5q41 0 80 -17
q31 -16 63 -41q38 -30 53 -39q24 -18 54 -18q64 0 82 106h102q-12 -89 -57 -149t-129 -60q-44 0 -80 19q-31 14 -64 39q-45 35 -53 41q-29 16 -53 16q-64 0 -82 -106h-103z" />
    <glyph glyph-name="ograve" unicode="&#xf2;" horiz-adv-x="1212" 
d="M604 -31q-113 0 -209 44.5t-161 120t-101.5 176.5t-36.5 214q0 111 36 212t101 177t162.5 121t212.5 45q151 0 268.5 -75.5t178.5 -201t61 -278.5q0 -111 -36 -212t-100.5 -177t-162 -121t-213.5 -45zM221 524q0 -115 43.5 -214t133 -163.5t208.5 -64.5q118 0 207 62.5
t133.5 162t44.5 217.5q0 116 -43 215.5t-132.5 163.5t-209.5 64q-118 0 -207 -63t-133.5 -162.5t-44.5 -217.5zM344 1516h152l247 -293h-129z" />
    <glyph glyph-name="oacute" unicode="&#xf3;" horiz-adv-x="1212" 
d="M604 -31q-113 0 -209 44.5t-161 120t-101.5 176.5t-36.5 214q0 111 36 212t101 177t162.5 121t212.5 45q151 0 268.5 -75.5t178.5 -201t61 -278.5q0 -111 -36 -212t-100.5 -177t-162 -121t-213.5 -45zM606 967q-118 0 -207 -63t-133.5 -162.5t-44.5 -217.5
q0 -115 43.5 -214t133 -163.5t208.5 -64.5q118 0 207 62.5t133.5 162t44.5 217.5q0 116 -43 215.5t-132.5 163.5t-209.5 64zM598 1223h-129l248 293h151z" />
    <glyph glyph-name="ocircumflex" unicode="&#xf4;" horiz-adv-x="1212" 
d="M604 -31q-113 0 -209 44.5t-161 120t-101.5 176.5t-36.5 214q0 111 36 212t101 177t162.5 121t212.5 45q151 0 268.5 -75.5t178.5 -201t61 -278.5q0 -111 -36 -212t-100.5 -177t-162 -121t-213.5 -45zM221 524q0 -115 43.5 -214t133 -163.5t208.5 -64.5q118 0 207 62.5
t133.5 162t44.5 217.5q0 116 -43 215.5t-132.5 163.5t-209.5 64q-118 0 -207 -63t-133.5 -162.5t-44.5 -217.5zM434 1223h-125l242 293h113l241 -293h-127l-172 194z" />
    <glyph glyph-name="otilde" unicode="&#xf5;" horiz-adv-x="1212" 
d="M604 -31q-113 0 -209 44.5t-161 120t-101.5 176.5t-36.5 214q0 111 36 212t101 177t162.5 121t212.5 45q151 0 268.5 -75.5t178.5 -201t61 -278.5q0 -111 -36 -212t-100.5 -177t-162 -121t-213.5 -45zM221 524q0 -115 43.5 -214t133 -163.5t208.5 -64.5q118 0 207 62.5
t133.5 162t44.5 217.5q0 116 -43 215.5t-132.5 163.5t-209.5 64q-118 0 -207 -63t-133.5 -162.5t-44.5 -217.5zM399 1223h-102q14 90 58.5 149.5t127.5 59.5q41 0 80 -17q34 -18 64 -41q38 -30 53 -39q24 -18 53 -18q64 0 82 106h103q-12 -89 -57.5 -149t-129.5 -60
q-44 0 -80 19q-29 13 -63 39q-45 35 -53 41q-29 16 -54 16q-64 0 -82 -106z" />
    <glyph glyph-name="odieresis" unicode="&#xf6;" horiz-adv-x="1212" 
d="M604 -31q-113 0 -209 44.5t-161 120t-101.5 176.5t-36.5 214q0 111 36 212t101 177t162.5 121t212.5 45q151 0 268.5 -75.5t178.5 -201t61 -278.5q0 -111 -36 -212t-100.5 -177t-162 -121t-213.5 -45zM221 524q0 -115 43.5 -214t133 -163.5t208.5 -64.5q118 0 207 62.5
t133.5 162t44.5 217.5q0 116 -43 215.5t-132.5 163.5t-209.5 64q-118 0 -207 -63t-133.5 -162.5t-44.5 -217.5zM330 1362q0 40 26 66t66 26t66 -26t26 -66q0 -37 -27.5 -64.5t-64.5 -27.5t-64.5 27.5t-27.5 64.5zM791 1270q-35 0 -64 28.5t-29 63.5q0 37 28 64.5t65 27.5
q40 0 66 -26t26 -66q0 -37 -27.5 -64.5t-64.5 -27.5z" />
    <glyph glyph-name="divide" unicode="&#xf7;" horiz-adv-x="1216" 
d="M211 621h793v-113h-793v113zM608 776q-35 0 -63.5 28.5t-28.5 63.5q0 37 27.5 65t64.5 28q38 0 65 -27.5t27 -65.5q0 -37 -27.5 -64.5t-64.5 -27.5zM608 168q-35 0 -63.5 28.5t-28.5 63.5q0 37 27.5 64.5t64.5 27.5q38 0 65 -27t27 -65q0 -37 -27.5 -64.5t-64.5 -27.5z
" />
    <glyph glyph-name="oslash" unicode="&#xf8;" horiz-adv-x="1212" 
d="M242 125q-72 80 -109 184t-37 215t36 212t101 177t162.5 121t212.5 45q154 0 281 -86l80 107h133l-131 -176q72 -80 108.5 -184t36.5 -216q0 -111 -36 -212t-100.5 -177t-162 -121t-213.5 -45q-156 0 -280 86l-80 -106h-133zM391 145q46 -34 101 -49q52 -18 114 -18
q120 0 210 63t134.5 163t44.5 220q0 182 -96 303zM606 971q-119 0 -209 -63.5t-135 -164.5t-45 -219q0 -181 96 -303l508 682q-44 32 -98 51q-63 17 -117 17z" />
    <glyph glyph-name="ugrave" unicode="&#xf9;" horiz-adv-x="1142" 
d="M565 -31q-137 0 -234 65t-142.5 172t-45.5 245v598h123v-596q0 -75 17.5 -139.5t52.5 -117t95.5 -82.5t139.5 -30q77 0 137 29.5t96 81t54.5 117t18.5 141.5v596h122v-598q0 -135 -47 -242t-147 -173.5t-240 -66.5zM580 1223l-271 293h152l248 -293h-129z" />
    <glyph glyph-name="uacute" unicode="&#xfa;" horiz-adv-x="1142" 
d="M565 -31q-137 0 -234 65t-142.5 172t-45.5 245v598h123v-596q0 -75 17.5 -139.5t52.5 -117t95.5 -82.5t139.5 -30q77 0 137 29.5t96 81t54.5 117t18.5 141.5v596h122v-598q0 -135 -47 -242t-147 -173.5t-240 -66.5zM563 1223h-129l248 293h152z" />
    <glyph glyph-name="ucircumflex" unicode="&#xfb;" horiz-adv-x="1142" 
d="M143 451v598h123v-596q0 -75 17.5 -139.5t52.5 -117t95.5 -82.5t139.5 -30q77 0 137 29.5t96 81t54.5 117t18.5 141.5v596h122v-598q0 -135 -47 -242t-147 -173.5t-240 -66.5q-137 0 -234 65t-142.5 172t-45.5 245zM274 1223l242 293h113l241 -293h-127l-172 194
l-172 -194h-125z" />
    <glyph glyph-name="udieresis" unicode="&#xfc;" horiz-adv-x="1142" 
d="M565 -31q-137 0 -234 65t-142.5 172t-45.5 245v598h123v-596q0 -75 17.5 -139.5t52.5 -117t95.5 -82.5t139.5 -30q77 0 137 29.5t96 81t54.5 117t18.5 141.5v596h122v-598q0 -135 -47 -242t-147 -173.5t-240 -66.5zM387 1270q-37 0 -64.5 27.5t-27.5 64.5q0 40 26 66
t66 26t66 -26t26 -66q0 -37 -27.5 -64.5t-64.5 -27.5zM756 1270q-35 0 -63.5 28.5t-28.5 63.5q0 37 27.5 64.5t64.5 27.5q40 0 66 -26t26 -66q0 -37 -27.5 -64.5t-64.5 -27.5z" />
    <glyph glyph-name="yacute" unicode="&#xfd;" horiz-adv-x="1044" 
d="M479 8l-438 1041h135l367 -904l329 904h132l-482 -1235q-48 -123 -119.5 -190.5t-189.5 -67.5q-86 0 -141 36l43 101q42 -25 96 -25q129 0 203 176zM514 1223h-129l248 293h151z" />
    <glyph glyph-name="thorn" unicode="&#xfe;" horiz-adv-x="1261" 
d="M152 1516h122v-666q60 110 162.5 169.5t229.5 59.5q147 0 262.5 -78t176 -204t60.5 -273q0 -109 -35.5 -209t-99.5 -177t-159.5 -123t-208.5 -46q-122 0 -225 60t-163 166v-619h-122v1940zM270 524q0 -115 43.5 -214t133 -163.5t208.5 -64.5q118 0 207 62.5t133.5 162
t44.5 217.5q0 116 -43 215.5t-132.5 163.5t-209.5 64q-118 0 -207 -63t-133.5 -162.5t-44.5 -217.5z" />
    <glyph glyph-name="ydieresis" unicode="&#xff;" horiz-adv-x="1044" 
d="M41 1049h135l367 -904l329 904h132l-482 -1235q-48 -123 -119.5 -190.5t-189.5 -67.5q-86 0 -141 36l43 101q42 -25 96 -25q129 0 203 176l65 164zM338 1270q-37 0 -64.5 27.5t-27.5 64.5q0 40 26 66t66 26t66 -26t26 -66q0 -37 -27.5 -64.5t-64.5 -27.5zM614 1362
q0 37 28 64.5t65 27.5q40 0 66 -26t26 -66q0 -37 -27.5 -64.5t-64.5 -27.5q-35 0 -64 28.5t-29 63.5z" />
    <glyph glyph-name="Amacron" unicode="&#x100;" horiz-adv-x="1413" 
d="M51 0l588 1454h135l588 -1454h-135l-178 449h-689l-178 -449h-131zM408 565h593l-296 752zM1036 1628h-659v111h659v-111z" />
    <glyph glyph-name="amacron" unicode="&#x101;" horiz-adv-x="1093" 
d="M481 -31q-100 0 -184 35t-139.5 110.5t-55.5 178.5q0 69 25 125.5t67 94t98.5 63t117 36.5t125.5 11q155 0 296 -64v92q0 136 -77.5 227t-212.5 91q-213 0 -299 -191l-101 47q42 119 156 185.5t248 66.5q187 0 296 -117.5t109 -310.5v-649h-106l-10 168
q-51 -97 -145.5 -148t-207.5 -51zM225 295q0 -107 78.5 -166t190.5 -59q143 0 240 94t97 239v58q-149 63 -292 63q-59 0 -112 -12t-99.5 -37t-74.5 -71.5t-28 -108.5zM254 1362h577v-109h-577v109z" />
    <glyph glyph-name="Abreve" unicode="&#x102;" horiz-adv-x="1413" 
d="M182 0h-131l588 1454h135l588 -1454h-135l-178 449h-689zM408 565h593l-296 752zM395 1860h113q22 -72 73 -110t126 -38q151 0 198 148h113q-23 -119 -105.5 -185.5t-205.5 -66.5q-120 0 -204 66.5t-108 185.5z" />
    <glyph glyph-name="abreve" unicode="&#x103;" horiz-adv-x="1093" 
d="M481 -31q-100 0 -184 35t-139.5 110.5t-55.5 178.5q0 69 25 125.5t67 94t98.5 63t117 36.5t125.5 11q155 0 296 -64v92q0 136 -77.5 227t-212.5 91q-213 0 -299 -191l-101 47q42 119 156 185.5t248 66.5q187 0 296 -117.5t109 -310.5v-649h-106l-10 168
q-51 -97 -145.5 -148t-207.5 -51zM225 295q0 -107 78.5 -166t190.5 -59q143 0 240 94t97 239v58q-149 63 -292 63q-59 0 -112 -12t-99.5 -37t-74.5 -71.5t-28 -108.5zM252 1475h108q18 -71 64.5 -111.5t118.5 -40.5t118 40.5t64 111.5h109q-22 -116 -98.5 -184t-192.5 -68
t-192.5 68t-98.5 184z" />
    <glyph glyph-name="Aogonek" unicode="&#x104;" horiz-adv-x="1413" 
d="M51 0l588 1454h135l588 -1454q-88 -71 -121 -106q-46 -43 -61 -78q-19 -36 -19 -64q0 -39 23.5 -60.5t62.5 -21.5q32 0 62 6q29 9 53 19l29 -96q-70 -33 -154 -33q-56 0 -102 22q-46 25 -66 64q-25 42 -25 92q0 67 52 137q35 53 127 129l-174 439h-689l-178 -449h-131z
M408 565h593l-296 752z" />
    <glyph glyph-name="aogonek" unicode="&#x105;" horiz-adv-x="1093" 
d="M481 -31q-100 0 -184 35t-139.5 110.5t-55.5 178.5q0 69 25 125.5t67 94t98.5 63t117 36.5t125.5 11q155 0 296 -64v92q0 136 -77.5 227t-212.5 91q-213 0 -299 -191l-101 47q42 119 156 185.5t248 66.5q187 0 296 -117.5t109 -310.5v-649q-88 -71 -121 -106
q-46 -43 -61 -78q-18 -34 -18 -64q0 -39 23.5 -60.5t62.5 -21.5q31 0 61 6q29 9 53 19l29 -92q-67 -33 -152 -33q-54 0 -100 22q-45 25 -65 64q-25 42 -25 88q0 133 205 287l-8 137q-51 -97 -145.5 -148t-207.5 -51zM225 295q0 -107 78.5 -166t190.5 -59q143 0 240 94
t97 239v58q-149 63 -292 63q-59 0 -112 -12t-99.5 -37t-74.5 -71.5t-28 -108.5z" />
    <glyph glyph-name="Cacute" unicode="&#x106;" horiz-adv-x="1466" 
d="M113 715q0 118 28.5 231t86 212.5t137 174.5t189 118.5t234.5 43.5q184 0 336.5 -91t227.5 -255l-113 -55q-65 134 -181.5 209t-264.5 75q-103 0 -192.5 -37.5t-154 -102t-111 -149t-69 -180t-22.5 -194.5t22.5 -192t69 -174t111 -142t155 -96t195.5 -35q151 0 267 74
t189 210l113 -55q-81 -166 -232.5 -256t-340.5 -90q-153 0 -282 61.5t-215.5 165.5t-134.5 241t-48 288zM633 1618l276 242h174l-303 -242h-147z" />
    <glyph glyph-name="cacute" unicode="&#x107;" horiz-adv-x="1101" 
d="M96 518q0 107 35 208t98 179.5t158 126t207 47.5q136 0 244 -67t166 -189l-107 -51q-47 89 -126.5 142t-176.5 53q-87 0 -159 -39t-118 -103t-71 -143.5t-25 -163.5q0 -83 24.5 -160.5t70 -139.5t118 -99t160.5 -37q100 0 185.5 52t131.5 140l105 -49
q-53 -118 -170.5 -187t-251.5 -69q-148 0 -263 76t-175 200.5t-60 272.5zM586 1223h-129l248 293h151z" />
    <glyph glyph-name="Cdotaccent" unicode="&#x10a;" horiz-adv-x="1466" 
d="M793 -41q-153 0 -282 61.5t-215.5 165.5t-134.5 241t-48 288q0 118 28.5 231t86 212.5t137 174.5t189 118.5t234.5 43.5q184 0 336.5 -91t227.5 -255l-113 -55q-65 134 -181.5 209t-264.5 75q-103 0 -192.5 -37.5t-154 -102t-111 -149t-69 -180t-22.5 -194.5t22.5 -192
t69 -174t111 -142t155 -96t195.5 -35q151 0 267 74t189 210l113 -55q-81 -166 -232.5 -256t-340.5 -90zM692 1722q0 41 29 70t70 29t69.5 -29t28.5 -70t-28.5 -69.5t-69.5 -28.5t-70 28.5t-29 69.5z" />
    <glyph glyph-name="cdotaccent" unicode="&#x10b;" horiz-adv-x="1101" 
d="M96 518q0 107 35 208t98 179.5t158 126t207 47.5q136 0 244 -67t166 -189l-107 -51q-47 89 -126.5 142t-176.5 53q-87 0 -159 -39t-118 -103t-71 -143.5t-25 -163.5q0 -83 24.5 -160.5t70 -139.5t118 -99t160.5 -37q100 0 185.5 52t131.5 140l105 -49
q-53 -118 -170.5 -187t-251.5 -69q-148 0 -263 76t-175 200.5t-60 272.5zM498 1362q0 38 29 67t67 29t67 -29t29 -67t-29 -67t-67 -29t-67 29t-29 67z" />
    <glyph glyph-name="Ccaron" unicode="&#x10c;" horiz-adv-x="1466" 
d="M793 -41q-153 0 -282 61.5t-215.5 165.5t-134.5 241t-48 288q0 118 28.5 231t86 212.5t137 174.5t189 118.5t234.5 43.5q184 0 336.5 -91t227.5 -255l-113 -55q-65 134 -181.5 209t-264.5 75q-103 0 -192.5 -37.5t-154 -102t-111 -149t-69 -180t-22.5 -194.5t22.5 -192
t69 -174t111 -142t155 -96t195.5 -35q151 0 267 74t189 210l113 -55q-81 -166 -232.5 -256t-340.5 -90zM438 1860h148l207 -154l206 154h146l-287 -242h-133z" />
    <glyph glyph-name="ccaron" unicode="&#x10d;" horiz-adv-x="1101" 
d="M96 518q0 107 35 208t98 179.5t158 126t207 47.5q136 0 244 -67t166 -189l-107 -51q-47 89 -126.5 142t-176.5 53q-87 0 -159 -39t-118 -103t-71 -143.5t-25 -163.5q0 -83 24.5 -160.5t70 -139.5t118 -99t160.5 -37q100 0 185.5 52t131.5 140l105 -49
q-53 -118 -170.5 -187t-251.5 -69q-148 0 -263 76t-175 200.5t-60 272.5zM539 1223l-242 293h127l172 -195l172 195h125l-242 -293h-112z" />
    <glyph glyph-name="Dcaron" unicode="&#x10e;" horiz-adv-x="1505" 
d="M627 0h-459v1454h455q166 0 306 -47.5t243.5 -138t162 -229t58.5 -312.5q0 -222 -96.5 -387.5t-269.5 -252.5t-400 -87zM623 1337h-326v-1220h326q186 0 329 69.5t226.5 209t83.5 331.5q0 281 -175 445.5t-464 164.5zM633 1618l-287 242h148l206 -154l207 154h146
l-287 -242h-133z" />
    <glyph glyph-name="dcaron" unicode="&#x10f;" horiz-adv-x="1261" 
d="M96 524q0 146 60.5 271.5t177.5 204.5t266 79q125 0 226 -58.5t161 -166.5v662h123v-1516h-111l-8 207q-60 -115 -162.5 -176.5t-232.5 -61.5q-146 0 -262 78.5t-177 204.5t-61 272zM221 524q0 -115 43.5 -214t133 -163.5t208.5 -64.5q118 0 207 62.5t133.5 162
t44.5 217.5q0 116 -43 215.5t-132.5 163.5t-209.5 64q-118 0 -207 -63t-133.5 -162.5t-44.5 -217.5zM1364 1161h-96l43 355h119z" />
    <glyph glyph-name="Dcroat" unicode="&#x110;" horiz-adv-x="1525" 
d="M0 809h188v645h455q166 0 306 -47.5t243.5 -138t162 -229t58.5 -312.5q0 -222 -96.5 -387.5t-269.5 -252.5t-400 -87h-459v705h-188v104zM643 1337h-326v-528h365v-104h-365v-588h326q186 0 329 69.5t226.5 209t83.5 331.5q0 281 -175 445.5t-464 164.5z" />
    <glyph glyph-name="dcroat" unicode="&#x111;" horiz-adv-x="1261" 
d="M96 524q0 146 60.5 271.5t177.5 204.5t266 79q125 0 226 -58.5t161 -166.5v381h-356v94h356v187h123v-187h168v-94h-168v-1235h-111l-8 207q-60 -115 -162.5 -176.5t-232.5 -61.5q-146 0 -262 78.5t-177 204.5t-61 272zM221 524q0 -115 43.5 -214t133 -163.5t208.5 -64.5
q118 0 207 62.5t133.5 162t44.5 217.5q0 116 -43 215.5t-132.5 163.5t-209.5 64q-118 0 -207 -63t-133.5 -162.5t-44.5 -217.5z" />
    <glyph glyph-name="Emacron" unicode="&#x112;" horiz-adv-x="1138" 
d="M168 0v1454h813v-117h-688v-522h633v-117h-633v-581h708v-117h-833zM903 1628h-659v111h659v-111z" />
    <glyph glyph-name="emacron" unicode="&#x113;" horiz-adv-x="1157" 
d="M621 -31q-154 0 -274 72.5t-185.5 197.5t-65.5 281q0 146 57.5 271.5t172 205.5t264.5 80q139 0 247.5 -68.5t166 -183.5t57.5 -256v-57h-842q3 -121 47.5 -217.5t135 -156.5t214.5 -60q215 0 328 180l98 -57q-61 -112 -174.5 -172t-246.5 -60zM590 973
q-147 0 -245.5 -105t-119.5 -258h713q-13 151 -106.5 257t-241.5 106zM879 1253h-578v109h578v-109z" />
    <glyph glyph-name="Edotaccent" unicode="&#x116;" horiz-adv-x="1138" 
d="M168 1454h813v-117h-688v-522h633v-117h-633v-581h708v-117h-833v1454zM475 1722q0 41 28.5 70t69.5 29t70 -29t29 -70t-29 -69.5t-70 -28.5t-69.5 28.5t-28.5 69.5z" />
    <glyph glyph-name="edotaccent" unicode="&#x117;" horiz-adv-x="1157" 
d="M96 520q0 146 57.5 271.5t172 205.5t264.5 80q139 0 247.5 -68.5t166 -183.5t57.5 -256v-57h-842q3 -121 47.5 -217.5t135 -156.5t214.5 -60q215 0 328 180l98 -57q-61 -112 -174.5 -172t-246.5 -60q-154 0 -274 72.5t-185.5 197.5t-65.5 281zM225 610h713
q-13 151 -106.5 257t-241.5 106q-147 0 -245.5 -105t-119.5 -258zM494 1362q0 38 29 67t67 29t67 -29t29 -67t-29 -67t-67 -29t-67 29t-29 67z" />
    <glyph glyph-name="Eogonek" unicode="&#x118;" horiz-adv-x="1138" 
d="M877 -434q-57 0 -103 22q-45 25 -65 64q-25 42 -25 92q0 119 166 256h-682v1454h813v-117h-688v-522h633v-117h-633v-581h708v-117q-84 -68 -120 -106q-47 -44 -62 -78q-18 -34 -18 -64q0 -39 23.5 -60.5t62.5 -21.5q31 0 61 6q29 9 53 19l29 -96q-70 -33 -153 -33z" />
    <glyph glyph-name="eogonek" unicode="&#x119;" horiz-adv-x="1157" 
d="M96 520q0 146 57.5 271.5t172 205.5t264.5 80q139 0 247.5 -68.5t166 -183.5t57.5 -256v-57h-842q3 -121 47.5 -217.5t135 -156.5t214.5 -60q215 0 328 180l98 -57q-56 -102 -149 -156q-164 -172 -164 -283q0 -45 27 -69q30 -23 67 -23q28 0 58 6q21 7 49 19l28 -92
q-67 -33 -141 -33q-89 0 -145 46t-56 132q0 83 60 168q4 6 49 64q-61 -11 -104 -11q-154 0 -274 72.5t-185.5 197.5t-65.5 281zM590 973q-147 0 -245.5 -105t-119.5 -258h713q-13 151 -106.5 257t-241.5 106z" />
    <glyph glyph-name="Ecaron" unicode="&#x11a;" horiz-adv-x="1138" 
d="M168 1454h813v-117h-688v-522h633v-117h-633v-581h708v-117h-833v1454zM221 1860h148l206 -154l207 154h146l-287 -242h-133z" />
    <glyph glyph-name="ecaron" unicode="&#x11b;" horiz-adv-x="1157" 
d="M621 -31q-154 0 -274 72.5t-185.5 197.5t-65.5 281q0 146 57.5 271.5t172 205.5t264.5 80q139 0 247.5 -68.5t166 -183.5t57.5 -256v-57h-842q3 -121 47.5 -217.5t135 -156.5t214.5 -60q215 0 328 180l98 -57q-61 -112 -174.5 -172t-246.5 -60zM590 973
q-147 0 -245.5 -105t-119.5 -258h713q-13 151 -106.5 257t-241.5 106zM293 1516h127l172 -195l172 195h125l-242 -293h-112z" />
    <glyph glyph-name="Gbreve" unicode="&#x11e;" horiz-adv-x="1583" 
d="M113 721q0 121 31.5 235t92.5 211.5t145 171t196.5 115t238.5 41.5q180 0 333 -84t236 -240l-112 -57q-70 125 -191 194.5t-266 69.5q-130 0 -240 -54.5t-181.5 -145.5t-111.5 -209t-40 -246q0 -125 39.5 -241t110.5 -206.5t180.5 -145t240.5 -54.5q233 0 378.5 149
t145.5 387v2h-471v117h602v-104q0 -143 -46.5 -266t-130.5 -212t-207 -139.5t-271 -50.5q-208 0 -369.5 103.5t-247 276.5t-85.5 382zM823 1608q-120 0 -203 66.5t-108 185.5h113q45 -148 198 -148q152 0 199 148h113q-23 -118 -106 -185t-206 -67z" />
    <glyph glyph-name="gbreve" unicode="&#x11f;" horiz-adv-x="1261" 
d="M96 541q0 106 36.5 204t101 172t159.5 118t205 44q125 0 231 -61t162 -170l10 201h109v-971q0 -235 -134 -384t-370 -149q-140 0 -258.5 59t-193.5 173l94 63q132 -184 356 -184q182 0 282.5 116.5t100.5 305.5v153q-61 -113 -161 -172t-230 -59q-145 0 -260.5 74.5
t-177.5 198t-62 268.5zM606 967q-174 0 -279.5 -124t-105.5 -304q0 -113 45 -209.5t134 -157.5t206 -61q115 0 204 59.5t135 156.5t46 212t-44 211t-133 156.5t-208 60.5zM606 1223q-116 0 -192.5 68t-98.5 184h109q18 -71 64 -111.5t118 -40.5t118 40.5t64 111.5h109
q-22 -116 -98.5 -184t-192.5 -68z" />
    <glyph glyph-name="Gdotaccent" unicode="&#x120;" horiz-adv-x="1583" 
d="M113 721q0 121 31.5 235t92.5 211.5t145 171t196.5 115t238.5 41.5q180 0 333 -84t236 -240l-112 -57q-70 125 -191 194.5t-266 69.5q-130 0 -240 -54.5t-181.5 -145.5t-111.5 -209t-40 -246q0 -125 39.5 -241t110.5 -206.5t180.5 -145t240.5 -54.5q233 0 378.5 149
t145.5 387v2h-471v117h602v-104q0 -143 -46.5 -266t-130.5 -212t-207 -139.5t-271 -50.5q-208 0 -369.5 103.5t-247 276.5t-85.5 382zM823 1624q-41 0 -69.5 28.5t-28.5 69.5t28.5 70t69.5 29t70 -29t29 -70t-29 -69.5t-70 -28.5z" />
    <glyph glyph-name="gdotaccent" unicode="&#x121;" horiz-adv-x="1261" 
d="M96 541q0 106 36.5 204t101 172t159.5 118t205 44q125 0 231 -61t162 -170l10 201h109v-971q0 -235 -134 -384t-370 -149q-140 0 -258.5 59t-193.5 173l94 63q132 -184 356 -184q182 0 282.5 116.5t100.5 305.5v153q-61 -113 -161 -172t-230 -59q-145 0 -260.5 74.5
t-177.5 198t-62 268.5zM606 967q-174 0 -279.5 -124t-105.5 -304q0 -113 45 -209.5t134 -157.5t206 -61q115 0 204 59.5t135 156.5t46 212t-44 211t-133 156.5t-208 60.5zM606 1266q-38 0 -67 29t-29 67t29 67t67 29t67 -29t29 -67t-29 -67t-67 -29z" />
    <glyph glyph-name="uni0122" unicode="&#x122;" horiz-adv-x="1583" 
d="M113 721q0 121 31.5 235t92.5 211.5t145 171t196.5 115t238.5 41.5q180 0 333 -84t236 -240l-112 -57q-70 125 -191 194.5t-266 69.5q-130 0 -240 -54.5t-181.5 -145.5t-111.5 -209t-40 -246q0 -125 39.5 -241t110.5 -206.5t180.5 -145t240.5 -54.5q233 0 378.5 149
t145.5 387v2h-471v117h602v-104q0 -143 -46.5 -266t-130.5 -212t-207 -139.5t-271 -50.5q-208 0 -369.5 103.5t-247 276.5t-85.5 382zM784 -309q-31 0 -51 23t-20 55q0 37 26 57q24 24 64 24q54 0 84.5 -42.5t30.5 -98.5q0 -73 -45.5 -130t-116.5 -83l-37 80q49 25 74 57
q24 34 24 68q-17 -10 -33 -10z" />
    <glyph glyph-name="uni0123" unicode="&#x123;" horiz-adv-x="1261" 
d="M96 541q0 106 36.5 204t101 172t159.5 118t205 44q125 0 231 -61t162 -170l10 201h109v-971q0 -235 -134 -384t-370 -149q-140 0 -258.5 59t-193.5 173l94 63q132 -184 356 -184q182 0 282.5 116.5t100.5 305.5v153q-61 -113 -161 -172t-230 -59q-145 0 -260.5 74.5
t-177.5 198t-62 268.5zM606 967q-174 0 -279.5 -124t-105.5 -304q0 -113 45 -209.5t134 -157.5t206 -61q115 0 204 59.5t135 156.5t46 212t-44 211t-133 156.5t-208 60.5zM565 1208q-26 18 -41.5 53.5t-15.5 69.5q0 71 44 128.5t114 84.5l36 -80q-46 -24 -71 -55
q-27 -30 -27 -74q18 11 37 11q31 0 49.5 -22.5t18.5 -53.5q0 -34 -25 -56q-24 -24 -63 -24q-32 0 -56 18z" />
    <glyph glyph-name="Hbar" unicode="&#x126;" horiz-adv-x="1492" 
d="M0 1116v105h188v233h129v-233h859v233h129v-233h188v-105h-188v-1116h-129v698h-859v-698h-129v1116h-188zM317 815h859v301h-859v-301z" />
    <glyph glyph-name="hbar" unicode="&#x127;" horiz-adv-x="1159" 
d="M152 1235h-168v94h168v187h122v-187h357v-94h-357v-348q49 94 140.5 143t201.5 49q99 0 176.5 -37.5t126 -102.5t73 -149t24.5 -182v-608h-123v604q0 74 -15 136.5t-47.5 114t-89.5 81t-135 29.5q-144 0 -238 -95.5t-94 -242.5v-627h-122v1235z" />
    <glyph glyph-name="Itilde" unicode="&#x128;" horiz-adv-x="464" 
d="M168 1454h129v-1454h-129v1454zM-121 1628q15 92 67 150.5t140 58.5q46 0 80 -13t78 -42q42 -30 61 -39q31 -17 62 -17q42 0 70 29.5t36 73.5h109q-15 -92 -67.5 -150.5t-139.5 -58.5q-79 0 -156 55q-10 6 -30.5 20t-30.5 19q-34 17 -64 17q-42 0 -70 -29.5t-36 -73.5
h-109z" />
    <glyph glyph-name="itilde" unicode="&#x129;" horiz-adv-x="425" 
d="M274 0h-122v1049h122v-1049zM-96 1223q32 209 186 209q41 0 80 -17q31 -16 63 -41q34 -27 54 -39q24 -18 53 -18q64 0 82 106h102q-12 -89 -57 -149t-129 -60q-44 0 -80 19q-29 13 -63 39q-18 14 -54 41q-29 16 -53 16q-64 0 -82 -106h-102z" />
    <glyph glyph-name="Imacron" unicode="&#x12a;" horiz-adv-x="464" 
d="M168 0v1454h129v-1454h-129zM-100 1628v111h659v-111h-659z" />
    <glyph glyph-name="imacron" unicode="&#x12b;" horiz-adv-x="425" 
d="M152 0v1049h122v-1049h-122zM-76 1253v109h578v-109h-578z" />
    <glyph glyph-name="Iogonek" unicode="&#x12e;" horiz-adv-x="464" 
d="M172 -434q-56 0 -102 22q-46 25 -66 64q-24 40 -24 92q0 126 188 274v1436h129v-1454q-88 -71 -121 -106q-46 -43 -61 -78q-19 -36 -19 -64q0 -39 23.5 -60.5t62.5 -21.5q32 0 62 6q29 9 53 19l29 -96q-70 -33 -154 -33z" />
    <glyph glyph-name="iogonek" unicode="&#x12f;" horiz-adv-x="425" 
d="M152 -430q-55 0 -101 22q-43 24 -67 64q-23 44 -23 88q0 40 17 80t50 77.5t59 62t65 56.5v1029h122v-1049q-84 -68 -120 -106q-47 -44 -62 -78q-18 -34 -18 -64q0 -39 23.5 -60.5t62.5 -21.5q31 0 61 6q29 9 53 19l29 -92q-67 -33 -151 -33zM309 1362q0 -38 -29 -67
t-67 -29t-67 29t-29 67t29 67t67 29t67 -29t29 -67z" />
    <glyph glyph-name="Idotaccent" unicode="&#x130;" horiz-adv-x="464" 
d="M297 0h-129v1454h129v-1454zM131 1722q0 41 28.5 70t69.5 29t70 -29t29 -70t-29 -69.5t-70 -28.5t-69.5 28.5t-28.5 69.5z" />
    <glyph glyph-name="dotlessi" unicode="&#x131;" horiz-adv-x="425" 
d="M152 0v1049h122v-1049h-122z" />
    <glyph glyph-name="IJ" unicode="&#x132;" horiz-adv-x="1357" 
d="M156 299l116 47q57 -128 157.5 -199t236.5 -71q137 0 232.5 66t139 172.5t43.5 244.5v895h129v-895q0 -125 -35.5 -233t-102 -190.5t-172 -129.5t-236.5 -47q-174 0 -311 89.5t-197 250.5zM147 1454h129v-870h-129v870z" />
    <glyph glyph-name="ij" unicode="&#x133;" horiz-adv-x="1159" 
d="M143 471v578h123v-574q0 -74 15.5 -136t48 -113.5t89.5 -81t134 -29.5q144 0 238 95.5t94 242.5v596h123v-1012q0 -216 -118.5 -354t-334.5 -138q-122 0 -230.5 51.5t-170.5 149.5l92 66q113 -156 305 -156q164 0 249 104.5t85 276.5v156q-48 -91 -142 -142t-200 -51
q-98 0 -176 37.5t-126 103t-73 149.5t-25 181zM946 1266q-38 0 -67 29t-29 67t29 67t67 29q41 0 68.5 -27.5t27.5 -68.5t-27.5 -68.5t-68.5 -27.5zM109 1362q0 38 29 67t67 29q41 0 68.5 -27.5t27.5 -68.5t-27.5 -68.5t-68.5 -27.5q-38 0 -67 29t-29 67z" />
    <glyph glyph-name="uni0136" unicode="&#x136;" horiz-adv-x="1292" 
d="M293 0h-125v1454h125v-663l723 663h172l-760 -690l834 -764h-191l-778 719v-719zM629 -309q-31 0 -51.5 23t-20.5 55q0 36 27 57q24 24 63 24q54 0 84.5 -42.5t30.5 -98.5q0 -73 -45.5 -130t-116.5 -83l-37 80q49 25 74 57q25 36 25 68q-17 -10 -33 -10z" />
    <glyph glyph-name="uni0137" unicode="&#x137;" horiz-adv-x="1040" 
d="M152 0v1516h118v-908l537 441h164l-580 -474l629 -575h-172l-578 539v-539h-118zM455 -203q0 36 26 58t62 22q30 0 57 -18q55 -41 55 -123q0 -72 -43.5 -129t-113.5 -84l-37 80q46 24 74 55q24 30 24 74q-18 -11 -37 -11q-31 0 -49 22.5t-18 53.5z" />
    <glyph glyph-name="kgreenlandic" unicode="&#x138;" horiz-adv-x="1040" 
d="M152 0v1049h118v-469l537 469h164l-582 -500l631 -549h-172l-578 510v-510h-118z" />
    <glyph glyph-name="Lacute" unicode="&#x139;" horiz-adv-x="1062" 
d="M168 0v1454h129v-1337h664v-117h-793zM74 1618l276 242h174l-303 -242h-147z" />
    <glyph glyph-name="lacute" unicode="&#x13a;" horiz-adv-x="425" 
d="M152 0v1516h122v-1516h-122zM76 1628l248 293h151l-270 -293h-129z" />
    <glyph glyph-name="uni013B" unicode="&#x13b;" horiz-adv-x="1062" 
d="M168 0v1454h129v-1337h664v-117h-793zM461 -231q0 37 26 57q24 24 64 24q54 0 84.5 -42.5t30.5 -98.5q0 -73 -45.5 -130t-116.5 -83l-37 80q49 25 74 57q24 34 24 68q-17 -10 -33 -10q-31 0 -51 23t-20 55z" />
    <glyph glyph-name="uni013C" unicode="&#x13c;" horiz-adv-x="425" 
d="M152 1516h122v-1516h-122v1516zM182 -279q-31 0 -49 22.5t-18 53.5q0 36 26 58t62 22q30 0 57 -18q55 -41 55 -123q0 -72 -43.5 -129t-113.5 -84l-37 80q46 24 74 55q24 30 24 74q-18 -11 -37 -11z" />
    <glyph glyph-name="Lcaron" unicode="&#x13d;" horiz-adv-x="1062" 
d="M168 0v1454h129v-1337h664v-117h-793zM455 1161l43 355h118l-65 -355h-96z" />
    <glyph glyph-name="lcaron" unicode="&#x13e;" horiz-adv-x="425" 
d="M152 1516h122v-1516h-122v1516zM528 1161h-96l43 355h119z" />
    <glyph glyph-name="Lslash" unicode="&#x141;" horiz-adv-x="1083" 
d="M0 395v127l188 142v790h129v-694l283 213v-127l-283 -213v-516h664v-117h-793v537z" />
    <glyph glyph-name="lslash" unicode="&#x142;" horiz-adv-x="458" 
d="M168 0v651l-168 -125v119l168 125v746h123v-652l168 125v-119l-168 -125v-745h-123z" />
    <glyph glyph-name="Nacute" unicode="&#x143;" horiz-adv-x="1431" 
d="M168 0v1454h115l856 -1241v1241h125v-1454h-115l-856 1239v-1239h-125zM705 1618h-148l277 242h174z" />
    <glyph glyph-name="nacute" unicode="&#x144;" horiz-adv-x="1159" 
d="M152 0v1049h110l6 -172q48 97 142 149.5t206 52.5q99 0 176.5 -37.5t126 -102.5t73 -149t24.5 -182v-608h-123v604q0 74 -15 136.5t-47.5 114t-89.5 81t-135 29.5q-144 0 -238 -95.5t-94 -242.5v-627h-122zM575 1223h-129l248 293h152z" />
    <glyph glyph-name="uni0145" unicode="&#x145;" horiz-adv-x="1431" 
d="M293 0h-125v1454h115l856 -1241v1241h125v-1454h-115l-856 1239v-1239zM684 -309q-31 0 -51.5 23t-20.5 55q0 36 27 57q24 24 63 24q54 0 84.5 -42.5t30.5 -98.5q0 -73 -45.5 -130t-116.5 -83l-37 80q49 25 74 57q25 36 25 68q-17 -10 -33 -10z" />
    <glyph glyph-name="uni0146" unicode="&#x146;" horiz-adv-x="1159" 
d="M152 1049h110l6 -172q48 97 142 149.5t206 52.5q99 0 176.5 -37.5t126 -102.5t73 -149t24.5 -182v-608h-123v604q0 74 -15 136.5t-47.5 114t-89.5 81t-135 29.5q-144 0 -238 -95.5t-94 -242.5v-627h-122v1049zM485 -203q0 36 26 58t62 22q31 0 58 -18q55 -41 55 -123
q0 -71 -44 -128.5t-114 -84.5l-36 80q44 23 73 55q25 31 25 74q-18 -11 -37 -11q-31 0 -49.5 22.5t-18.5 53.5z" />
    <glyph glyph-name="Ncaron" unicode="&#x147;" horiz-adv-x="1431" 
d="M293 0h-125v1454h115l856 -1241v1241h125v-1454h-115l-856 1239v-1239zM362 1860h148l207 -154l207 154h145l-287 -242h-133z" />
    <glyph glyph-name="ncaron" unicode="&#x148;" horiz-adv-x="1159" 
d="M152 0v1049h110l6 -172q48 97 142 149.5t206 52.5q99 0 176.5 -37.5t126 -102.5t73 -149t24.5 -182v-608h-123v604q0 74 -15 136.5t-47.5 114t-89.5 81t-135 29.5q-144 0 -238 -95.5t-94 -242.5v-627h-122zM528 1223l-241 293h127l172 -195l172 195h125l-242 -293h-113z
" />
    <glyph glyph-name="Eng" unicode="&#x14a;" horiz-adv-x="1431" 
d="M168 0v1454h115l856 -1241v1241h125v-1528q0 -169 -92.5 -274t-262.5 -105q-128 0 -229 78l57 99q34 -26 82 -43t90 -17q114 0 172 74t58 192v84l-846 1225v-1239h-125z" />
    <glyph glyph-name="eng" unicode="&#x14b;" horiz-adv-x="1159" 
d="M152 1049h110l6 -172q48 97 142 149.5t206 52.5q99 0 176.5 -37.5t126 -102.5t73 -149t24.5 -182v-745q0 -133 -79 -220t-212 -87q-99 0 -170 47l49 96q54 -31 117 -31q86 0 129 53.5t43 141.5v741q0 74 -15 136.5t-47.5 114t-89.5 81t-135 29.5q-144 0 -238 -95.5
t-94 -242.5v-627h-122v1049z" />
    <glyph glyph-name="Ohungarumlaut" unicode="&#x150;" horiz-adv-x="1619" 
d="M113 727q0 154 48 292.5t136 244.5t221 168.5t293 62.5q209 0 369.5 -105t243.5 -278.5t83 -384.5q0 -123 -29.5 -236.5t-89 -210t-142 -168.5t-194.5 -112.5t-241 -40.5q-157 0 -289 61.5t-221 166t-138.5 244.5t-49.5 296zM244 727q0 -126 37.5 -242t107 -207.5
t179 -146.5t241.5 -55q130 0 239 53.5t179.5 144t109.5 207.5t39 246q0 102 -23 197t-70 177.5t-113.5 144t-159.5 97t-201 35.5q-130 0 -238.5 -53.5t-179 -144t-109 -207.5t-38.5 -246zM979 1618h-139l297 242h166zM492 1618l296 242h166l-323 -242h-139z" />
    <glyph glyph-name="ohungarumlaut" unicode="&#x151;" horiz-adv-x="1212" 
d="M604 -31q-113 0 -209 44.5t-161 120t-101.5 176.5t-36.5 214q0 111 36 212t101 177t162.5 121t212.5 45q151 0 268.5 -75.5t178.5 -201t61 -278.5q0 -111 -36 -212t-100.5 -177t-162 -121t-213.5 -45zM221 524q0 -115 43.5 -214t133 -163.5t208.5 -64.5q118 0 207 62.5
t133.5 162t44.5 217.5q0 116 -43 215.5t-132.5 163.5t-209.5 64q-118 0 -207 -63t-133.5 -162.5t-44.5 -217.5zM776 1223h-119l207 293h142zM371 1223l207 293h141l-230 -293h-118z" />
    <glyph glyph-name="OE" unicode="&#x152;" horiz-adv-x="2127" 
d="M883 0q-165 0 -305 48.5t-244 138.5t-162.5 229t-58.5 311q0 221 97.5 386.5t270.5 253t398 87.5h1091v-117h-667v-522h612v-117h-612v-581h688v-117h-1108zM244 727q0 -280 175.5 -445t463.5 -165h295v1220h-295q-185 0 -328.5 -70t-227 -209.5t-83.5 -330.5z" />
    <glyph glyph-name="oe" unicode="&#x153;" horiz-adv-x="2013" 
d="M96 524q0 87 22 169t65 152t102.5 122.5t140 82t172.5 29.5q148 0 265 -81t173 -220q55 137 166 218t256 81q135 0 241.5 -71t162 -186t55.5 -251v-57h-821q2 -88 27.5 -165.5t72.5 -138t121.5 -95.5t167.5 -35q208 0 315 180l98 -57q-61 -113 -171.5 -172.5
t-243.5 -59.5q-151 0 -271 78t-180 217q-61 -137 -175.5 -216t-262.5 -79q-149 0 -264 77t-174.5 202.5t-59.5 275.5zM221 524q0 -67 15 -131t46.5 -120.5t75 -99t105 -67t133.5 -24.5q89 0 161.5 37t118 99t70.5 141t25 165q0 85 -24.5 163.5t-69.5 141.5t-118 100.5
t-163 37.5q-88 0 -160.5 -37.5t-118.5 -100t-71 -141.5t-25 -164zM1456 973q-97 0 -175 -53t-121.5 -133.5t-57.5 -176.5h692q-5 95 -46 176.5t-117.5 134t-174.5 52.5z" />
    <glyph glyph-name="Racute" unicode="&#x154;" horiz-adv-x="1206" 
d="M168 0v1454h373q104 0 195 -24t167 -72.5t120 -132.5t44 -195q0 -143 -79.5 -244.5t-219.5 -152.5l367 -633h-150l-338 602q-52 -8 -139 -8q-103 0 -215 16v-610h-125zM293 1339v-614q96 -16 219 -16q84 0 155.5 15.5t134 49.5t98.5 98t36 152q0 83 -32 145.5t-88 98.5
t-125 53.5t-150 17.5h-248zM520 1618h-147l276 242h174z" />
    <glyph glyph-name="racute" unicode="&#x155;" horiz-adv-x="751" 
d="M274 0h-122v1049h110l8 -199q40 99 121 156t187 57q23 0 63 -4q29 -6 49 -15l-16 -114q-31 14 -99 14q-76 0 -135 -31t-94.5 -84.5t-53.5 -119t-18 -138.5v-571zM283 1223l247 293h152l-270 -293h-129z" />
    <glyph glyph-name="Rcaron" unicode="&#x158;" horiz-adv-x="1206" 
d="M168 1454h373q104 0 195 -24t167 -72.5t120 -132.5t44 -195q0 -143 -79.5 -244.5t-219.5 -152.5l367 -633h-150l-338 602q-52 -8 -139 -8q-103 0 -215 16v-610h-125v1454zM541 1339h-248v-614q96 -16 219 -16q84 0 155.5 15.5t134 49.5t98.5 98t36 152q0 83 -32 145.5
t-88 98.5t-125 53.5t-150 17.5zM178 1860h148l206 -154l207 154h146l-287 -242h-133z" />
    <glyph glyph-name="rcaron" unicode="&#x159;" horiz-adv-x="751" 
d="M274 0h-122v1049h110l8 -199q40 99 121 156t187 57q23 0 63 -4q29 -6 49 -15l-16 -114q-31 14 -99 14q-76 0 -135 -31t-94.5 -84.5t-53.5 -119t-18 -138.5v-571zM365 1223l-242 293h127l172 -195l172 195h125l-242 -293h-112z" />
    <glyph glyph-name="Sacute" unicode="&#x15a;" horiz-adv-x="1112" 
d="M82 279l115 47q46 -113 138.5 -176.5t213.5 -63.5q141 0 241.5 84.5t100.5 224.5q0 218 -285 287l-98 23q-389 88 -389 393q0 116 60.5 205.5t158.5 135.5t215 46q151 0 271 -83.5t171 -225.5l-114 -48q-44 113 -128.5 176.5t-203.5 63.5q-127 0 -215 -73t-88 -199
q0 -51 18 -93.5t46.5 -71.5t70.5 -52t82 -36.5t90 -25.5l98 -22q170 -37 269.5 -138t99.5 -266q0 -127 -65 -224.5t-171.5 -147.5t-234.5 -50q-156 0 -283.5 83t-183.5 227zM541 1618h-148l277 242h174z" />
    <glyph glyph-name="sacute" unicode="&#x15b;" horiz-adv-x="929" 
d="M469 -31q-123 0 -228 59t-159 165l100 53q46 -82 120.5 -125t168.5 -43q101 0 176.5 54.5t75.5 152.5q0 144 -201 188l-88 19q-53 11 -95 24t-86.5 36t-73.5 52.5t-47.5 74t-18.5 99.5q0 93 52 163.5t132 104t172 33.5q124 0 220.5 -56.5t144.5 -166.5l-103 -49
q-87 164 -266 164q-92 0 -160.5 -48t-68.5 -137q0 -36 14.5 -65t35 -47t54 -33t59 -23t62.5 -16l88 -18q299 -62 299 -293q0 -99 -55 -174t-140 -111.5t-184 -36.5zM457 1223h-129l247 293h152z" />
    <glyph glyph-name="Scedilla" unicode="&#x15e;" horiz-adv-x="1112" 
d="M506 -29q-142 11 -257 93.5t-167 214.5l115 47q46 -113 138.5 -176.5t213.5 -63.5q141 0 241.5 84.5t100.5 224.5q0 218 -285 287l-98 23q-389 88 -389 393q0 116 60.5 205.5t158.5 135.5t215 46q151 0 271 -83.5t171 -225.5l-114 -48q-44 113 -128.5 176.5t-203.5 63.5
q-127 0 -215 -73t-88 -199q0 -51 18 -93.5t46.5 -71.5t70.5 -52t82 -36.5t90 -25.5l98 -22q170 -37 269.5 -138t99.5 -266q0 -176 -119 -290.5t-299 -129.5l-24 -96q65 -8 112 -51.5t47 -108.5q0 -86 -66.5 -132t-158.5 -46q-91 0 -158 31l31 96q37 -12 68 -18q36 -4 57 -4
q42 0 74 18t32 57q0 82 -157 82z" />
    <glyph glyph-name="scedilla" unicode="&#x15f;" horiz-adv-x="929" 
d="M82 193l100 53q46 -82 120.5 -125t168.5 -43q101 0 176.5 54.5t75.5 152.5q0 144 -201 188l-88 19q-53 11 -95 24t-86.5 36t-73.5 52.5t-47.5 74t-18.5 99.5q0 93 52 163.5t132 104t172 33.5q124 0 220.5 -56.5t144.5 -166.5l-103 -49q-87 164 -266 164q-92 0 -160.5 -48
t-68.5 -137q0 -36 14.5 -65t35 -47t54 -33t59 -23t62.5 -16l88 -18q299 -62 299 -293q0 -136 -102.5 -225.5t-243.5 -94.5l-21 -84q66 -8 113 -52t47 -109q0 -85 -66.5 -131t-156.5 -46q-81 0 -148 31l31 94q30 -10 64 -18q36 -4 51 -4q42 0 74 18.5t32 57.5q0 84 -157 84
l43 161q-40 5 -101 23q-159 64 -225 197z" />
    <glyph glyph-name="Scaron" unicode="&#x160;" horiz-adv-x="1112" 
d="M82 279l115 47q46 -113 138.5 -176.5t213.5 -63.5q141 0 241.5 84.5t100.5 224.5q0 218 -285 287l-98 23q-389 88 -389 393q0 116 60.5 205.5t158.5 135.5t215 46q151 0 271 -83.5t171 -225.5l-114 -48q-44 113 -128.5 176.5t-203.5 63.5q-127 0 -215 -73t-88 -199
q0 -51 18 -93.5t46.5 -71.5t70.5 -52t82 -36.5t90 -25.5l98 -22q170 -37 269.5 -138t99.5 -266q0 -127 -65 -224.5t-171.5 -147.5t-234.5 -50q-156 0 -283.5 83t-183.5 227zM485 1618l-286 242h147l207 -154l207 154h145l-287 -242h-133z" />
    <glyph glyph-name="scaron" unicode="&#x161;" horiz-adv-x="929" 
d="M469 -31q-123 0 -228 59t-159 165l100 53q46 -82 120.5 -125t168.5 -43q101 0 176.5 54.5t75.5 152.5q0 144 -201 188l-88 19q-53 11 -95 24t-86.5 36t-73.5 52.5t-47.5 74t-18.5 99.5q0 93 52 163.5t132 104t172 33.5q124 0 220.5 -56.5t144.5 -166.5l-103 -49
q-87 164 -266 164q-92 0 -160.5 -48t-68.5 -137q0 -36 14.5 -65t35 -47t54 -33t59 -23t62.5 -16l88 -18q299 -62 299 -293q0 -99 -55 -174t-140 -111.5t-184 -36.5zM410 1223l-242 293h127l172 -195l172 195h125l-242 -293h-112z" />
    <glyph glyph-name="Tcaron" unicode="&#x164;" horiz-adv-x="1247" 
d="M102 1337v117h1043v-117h-457v-1337h-129v1337h-457zM270 1860h148l207 -154l206 154h146l-287 -242h-133z" />
    <glyph glyph-name="tcaron" unicode="&#x165;" horiz-adv-x="815" 
d="M31 946v103h198v350h123v-350h344v-103h-344v-653q0 -93 43.5 -152t132.5 -59t166 51l49 -94q-91 -70 -221 -70q-144 0 -218.5 88.5t-74.5 235.5v653h-198zM647 1202h-96l37 314h119z" />
    <glyph glyph-name="Tbar" unicode="&#x166;" horiz-adv-x="1247" 
d="M102 1337v117h1043v-117h-457v-559h270v-104h-270v-674h-129v674h-270v104h270v559h-457z" />
    <glyph glyph-name="tbar" unicode="&#x167;" horiz-adv-x="815" 
d="M229 946h-198v103h198v350h123v-350h344v-103h-344v-346h324v-94h-324v-213q0 -93 43.5 -152t132.5 -59t166 51l49 -94q-91 -70 -221 -70q-144 0 -218.5 88.5t-74.5 235.5v213h-178v94h178v346z" />
    <glyph glyph-name="Utilde" unicode="&#x168;" horiz-adv-x="1411" 
d="M147 555v899h129v-895q0 -101 27 -187.5t79 -153t135.5 -104.5t189.5 -38q206 0 317 134.5t111 348.5v895h129v-899q0 -171 -64.5 -304.5t-194 -212.5t-305.5 -79q-256 0 -404.5 165.5t-148.5 430.5zM354 1628q15 92 67 150.5t140 58.5q46 0 80 -13t78 -42q43 -30 61 -39
q31 -17 62 -17q42 0 70 29.5t36 73.5h109q-15 -92 -67.5 -150.5t-139.5 -58.5q-79 0 -156 55q-10 6 -30.5 20t-30.5 19q-34 17 -64 17q-42 0 -70 -29.5t-36 -73.5h-109z" />
    <glyph glyph-name="utilde" unicode="&#x169;" horiz-adv-x="1142" 
d="M143 451v598h123v-596q0 -75 17.5 -139.5t52.5 -117t95.5 -82.5t139.5 -30q77 0 137 29.5t96 81t54.5 117t18.5 141.5v596h122v-598q0 -135 -47 -242t-147 -173.5t-240 -66.5q-137 0 -234 65t-142.5 172t-45.5 245zM262 1223q14 90 59 149.5t128 59.5q40 0 79 -17
q34 -18 64 -41q38 -30 53 -39q24 -18 53 -18q64 0 82 106h103q-12 -89 -57.5 -149t-129.5 -60q-44 0 -80 19q-29 13 -63 39q-45 35 -53 41q-29 16 -54 16q-63 0 -81 -106h-103z" />
    <glyph glyph-name="Umacron" unicode="&#x16a;" horiz-adv-x="1411" 
d="M700 -41q-256 0 -404.5 165.5t-148.5 430.5v899h129v-895q0 -101 27 -187.5t79 -153t135.5 -104.5t189.5 -38q206 0 317 134.5t111 348.5v895h129v-899q0 -171 -64.5 -304.5t-194 -212.5t-305.5 -79zM375 1739h659v-111h-659v111z" />
    <glyph glyph-name="umacron" unicode="&#x16b;" horiz-adv-x="1142" 
d="M143 451v598h123v-596q0 -75 17.5 -139.5t52.5 -117t95.5 -82.5t139.5 -30q77 0 137 29.5t96 81t54.5 117t18.5 141.5v596h122v-598q0 -135 -47 -242t-147 -173.5t-240 -66.5q-137 0 -234 65t-142.5 172t-45.5 245zM860 1253h-577v109h577v-109z" />
    <glyph glyph-name="Uring" unicode="&#x16e;" horiz-adv-x="1411" 
d="M700 -41q-256 0 -404.5 165.5t-148.5 430.5v899h129v-895q0 -101 27 -187.5t79 -153t135.5 -104.5t189.5 -38q206 0 317 134.5t111 348.5v895h129v-899q0 -171 -64.5 -304.5t-194 -212.5t-305.5 -79zM705 1536q-79 0 -138 57t-59 136t58.5 135.5t138.5 56.5
q79 0 137.5 -56.5t58.5 -135.5t-58 -136t-138 -57zM635 1802q-29 -32 -29 -73q0 -43 29 -72q28 -31 70 -31q41 0 69 31q29 29 29 72q0 41 -29 73q-29 29 -69 29q-41 0 -70 -29z" />
    <glyph glyph-name="uring" unicode="&#x16f;" horiz-adv-x="1142" 
d="M143 451v598h123v-596q0 -75 17.5 -139.5t52.5 -117t95.5 -82.5t139.5 -30q77 0 137 29.5t96 81t54.5 117t18.5 141.5v596h122v-598q0 -135 -47 -242t-147 -173.5t-240 -66.5q-137 0 -234 65t-142.5 172t-45.5 245zM571 1169q-79 0 -137.5 57t-58.5 136t58 135.5
t138 56.5q79 0 138 -56.5t59 -135.5q0 -78 -59.5 -135.5t-137.5 -57.5zM571 1468q-42 0 -72 -31.5t-30 -74.5t30 -75t72 -32t72.5 32t30.5 75t-30.5 74.5t-72.5 31.5z" />
    <glyph glyph-name="Uhungarumlaut" unicode="&#x170;" horiz-adv-x="1411" 
d="M700 -41q-256 0 -404.5 165.5t-148.5 430.5v899h129v-895q0 -101 27 -187.5t79 -153t135.5 -104.5t189.5 -38q206 0 317 134.5t111 348.5v895h129v-899q0 -171 -64.5 -304.5t-194 -212.5t-305.5 -79zM874 1618h-139l297 242h166zM526 1618h-139l297 242h166z" />
    <glyph glyph-name="uhungarumlaut" unicode="&#x171;" horiz-adv-x="1142" 
d="M143 451v598h123v-596q0 -75 17.5 -139.5t52.5 -117t95.5 -82.5t139.5 -30q77 0 137 29.5t96 81t54.5 117t18.5 141.5v596h122v-598q0 -135 -47 -242t-147 -173.5t-240 -66.5q-137 0 -234 65t-142.5 172t-45.5 245zM741 1223h-118l206 293h142zM336 1223l207 293h141
l-229 -293h-119z" />
    <glyph glyph-name="Uogonek" unicode="&#x172;" horiz-adv-x="1411" 
d="M700 -41q-256 0 -404.5 165.5t-148.5 430.5v899h129v-895q0 -101 27 -187.5t79 -153t135.5 -104.5t189.5 -38q206 0 317 134.5t111 348.5v895h129v-899q0 -145 -50 -272t-155 -209q-68 -70 -121 -153t-53 -154q0 -45 25 -71t69 -26q27 0 57 6q21 7 49 19l29 -96
q-65 -33 -143 -33q-91 0 -147 48.5t-56 137.5q0 85 59 174q8 13 39 54q-76 -21 -166 -21z" />
    <glyph glyph-name="uogonek" unicode="&#x173;" horiz-adv-x="1142" 
d="M143 451v598h123v-596q0 -75 17.5 -139.5t52.5 -117t95.5 -82.5t139.5 -30q77 0 137 29.5t96 81t54.5 117t18.5 141.5v596h122v-598q0 -117 -38 -219.5t-119 -168.5q-180 -185 -180 -301q0 -46 26 -69q30 -23 68 -23q27 0 57 6q21 7 49 19l29 -92q-67 -33 -141 -33
q-89 0 -145 46t-56 132q0 85 59 168q16 26 47 61q-39 -8 -90 -8q-137 0 -234 65t-142.5 172t-45.5 245z" />
    <glyph glyph-name="Wcircumflex" unicode="&#x174;" horiz-adv-x="2037" 
d="M72 1454h133l373 -1304l370 1304h142l372 -1304l375 1304h129l-434 -1454h-146l-368 1294l-367 -1294h-145zM811 1618h-145l286 242h133l287 -242h-147l-207 154z" />
    <glyph glyph-name="wcircumflex" unicode="&#x175;" horiz-adv-x="1601" 
d="M41 1049h127l287 -902l293 902h114l289 -902l287 902h123l-357 -1049h-117l-284 897l-289 -897h-117zM504 1223l241 293h113l242 -293h-127l-172 194l-172 -194h-125z" />
    <glyph glyph-name="Ycircumflex" unicode="&#x176;" horiz-adv-x="1239" 
d="M41 1454h143l437 -754l438 754h139l-514 -858v-596h-129v592zM266 1618l287 242h133l287 -242h-148l-207 154l-206 -154h-146z" />
    <glyph glyph-name="ycircumflex" unicode="&#x177;" horiz-adv-x="1044" 
d="M479 8l-438 1041h135l367 -904l329 904h132l-482 -1235q-48 -123 -119.5 -190.5t-189.5 -67.5q-86 0 -141 36l43 101q42 -25 96 -25q129 0 203 176zM350 1223h-125l242 293h113l241 -293h-127l-172 194z" />
    <glyph glyph-name="Ydieresis" unicode="&#x178;" horiz-adv-x="1239" 
d="M555 592l-514 862h143l437 -754l438 754h139l-514 -858v-596h-129v592zM311 1718q0 41 27 67.5t68 26.5t67.5 -26.5t26.5 -67.5q0 -40 -27 -67t-67 -27t-67.5 27t-27.5 67zM834 1624q-37 0 -66 28.5t-29 65.5q0 40 27.5 67t67.5 27q41 0 67.5 -26.5t26.5 -67.5
q0 -40 -27 -67t-67 -27z" />
    <glyph glyph-name="Zacute" unicode="&#x179;" horiz-adv-x="1243" 
d="M102 0v96l838 1241h-807v117h963v-96l-838 -1241h883v-117h-1039zM457 1618l276 242h174l-303 -242h-147z" />
    <glyph glyph-name="zacute" unicode="&#x17a;" horiz-adv-x="993" 
d="M92 0v82l627 864h-613v103h760v-82l-626 -865h661v-102h-809zM348 1223l248 293h152l-271 -293h-129z" />
    <glyph glyph-name="Zdotaccent" unicode="&#x17b;" horiz-adv-x="1243" 
d="M102 96l838 1241h-807v117h963v-96l-838 -1241h883v-117h-1039v96zM614 1624q-41 0 -69.5 28.5t-28.5 69.5t28.5 70t69.5 29t70 -29t29 -70t-29 -69.5t-70 -28.5z" />
    <glyph glyph-name="zdotaccent" unicode="&#x17c;" horiz-adv-x="993" 
d="M901 0h-809v82l627 864h-613v103h760v-82l-626 -865h661v-102zM485 1266q-38 0 -67 29t-29 67t29 67t67 29t67.5 -29t29.5 -67t-29.5 -67t-67.5 -29z" />
    <glyph glyph-name="Zcaron" unicode="&#x17d;" horiz-adv-x="1243" 
d="M102 0v96l838 1241h-807v117h963v-96l-838 -1241h883v-117h-1039zM262 1860h148l206 -154l207 154h146l-287 -242h-133z" />
    <glyph glyph-name="zcaron" unicode="&#x17e;" horiz-adv-x="993" 
d="M92 0v82l627 864h-613v103h760v-82l-626 -865h661v-102h-809zM188 1516h127l172 -195l172 195h125l-241 -293h-113z" />
    <glyph glyph-name="uni0218" unicode="&#x218;" horiz-adv-x="1112" 
d="M549 -31q-156 0 -283.5 83t-183.5 227l115 47q46 -113 138.5 -176.5t213.5 -63.5q141 0 241.5 84.5t100.5 224.5q0 218 -285 287l-98 23q-389 88 -389 393q0 116 60.5 205.5t158.5 135.5t215 46q151 0 271 -83.5t171 -225.5l-114 -48q-44 113 -128.5 176.5t-203.5 63.5
q-127 0 -215 -73t-88 -199q0 -51 18 -93.5t46.5 -71.5t70.5 -52t82 -36.5t90 -25.5l98 -22q170 -37 269.5 -138t99.5 -266q0 -127 -65 -224.5t-171.5 -147.5t-234.5 -50zM446 -231q0 36 27 57q24 24 64 24q54 0 84 -42.5t30 -98.5q0 -73 -45.5 -130t-116.5 -83l-36 80
q48 25 73 57q25 36 25 68q-17 -10 -33 -10q-31 0 -51.5 23t-20.5 55z" />
    <glyph glyph-name="uni0219" unicode="&#x219;" horiz-adv-x="929" 
d="M469 -31q-123 0 -228 59t-159 165l100 53q46 -82 120.5 -125t168.5 -43q101 0 176.5 54.5t75.5 152.5q0 144 -201 188l-88 19q-53 11 -95 24t-86.5 36t-73.5 52.5t-47.5 74t-18.5 99.5q0 93 52 163.5t132 104t172 33.5q124 0 220.5 -56.5t144.5 -166.5l-103 -49
q-87 164 -266 164q-92 0 -160.5 -48t-68.5 -137q0 -36 14.5 -65t35 -47t54 -33t59 -23t62.5 -16l88 -18q299 -62 299 -293q0 -99 -55 -174t-140 -111.5t-184 -36.5zM434 -279q-31 0 -49 22.5t-18 53.5q0 36 26 58t62 22q30 0 57 -18q55 -41 55 -123q0 -72 -43.5 -129
t-113.5 -84l-37 80q44 23 73 55q25 31 25 74q-18 -11 -37 -11z" />
    <glyph glyph-name="uni021A" unicode="&#x21a;" horiz-adv-x="1247" 
d="M102 1454h1043v-117h-457v-1337h-129v1337h-457v117zM592 -309q-31 0 -51.5 23t-20.5 55q0 36 27 57q24 24 63 24q54 0 84.5 -42.5t30.5 -98.5q0 -73 -45.5 -130t-116.5 -83l-37 80q49 25 74 57q25 36 25 68q-17 -10 -33 -10z" />
    <glyph glyph-name="uni021B" unicode="&#x21b;" horiz-adv-x="815" 
d="M31 946v103h198v350h123v-350h344v-103h-344v-653q0 -93 43.5 -152t132.5 -59t166 51l49 -94q-91 -70 -221 -70q-144 0 -218.5 88.5t-74.5 235.5v653h-198zM383 -203q0 36 26 58t62 22q30 0 57 -18q56 -42 56 -123q0 -71 -44 -128.5t-114 -84.5l-37 80q46 24 74 55
q24 30 24 74q-18 -11 -36 -11q-31 0 -49.5 22.5t-18.5 53.5z" />
    <glyph glyph-name="uni0237" unicode="&#x237;" horiz-adv-x="436" 
d="M-156 -397l50 96q51 -31 108 -31q81 0 120.5 55.5t39.5 139.5v1186h123v-1186q0 -132 -74 -219.5t-205 -87.5q-91 0 -162 47z" />
    <glyph glyph-name="circumflex" unicode="&#x2c6;" horiz-adv-x="1159" 
d="M283 1223l241 293h113l242 -293h-127l-172 194l-172 -194h-125z" />
    <glyph glyph-name="caron" unicode="&#x2c7;" horiz-adv-x="1159" 
d="M281 1516h127l172 -195l172 195h125l-242 -293h-113z" />
    <glyph glyph-name="uni02C9" unicode="&#x2c9;" horiz-adv-x="1159" 
d="M291 1253v109h577v-109h-577z" />
    <glyph glyph-name="uni02CB" unicode="&#x2cb;" horiz-adv-x="1159" 
d="M649 1223l-270 293h151l248 -293h-129z" />
    <glyph glyph-name="breve" unicode="&#x2d8;" horiz-adv-x="1159" 
d="M289 1475h108q18 -71 64.5 -111.5t118.5 -40.5t118 40.5t64 111.5h108q-22 -116 -98 -184t-192 -68t-192.5 68t-98.5 184z" />
    <glyph glyph-name="dotaccent" unicode="&#x2d9;" horiz-adv-x="1159" 
d="M483 1362q0 38 29.5 67t67.5 29t67 -29t29 -67t-29 -67t-67 -29t-67.5 29t-29.5 67z" />
    <glyph glyph-name="ring" unicode="&#x2da;" horiz-adv-x="1159" 
d="M383 1362q0 79 58.5 135.5t138.5 56.5q79 0 137.5 -56.5t58.5 -135.5q0 -78 -59 -135.5t-137 -57.5q-79 0 -138 57t-59 136zM477 1362q0 -43 30.5 -75t72.5 -32t72 32t30 75t-30 74.5t-72 31.5t-72.5 -31.5t-30.5 -74.5z" />
    <glyph glyph-name="ogonek" unicode="&#x2db;" horiz-adv-x="1159" 
d="M418 -344q-25 42 -25 88q0 134 223 301l91 -45q-88 -71 -121 -106q-47 -44 -62 -78q-18 -34 -18 -64q0 -39 23.5 -60.5t62.5 -21.5q31 0 61 6q32 10 54 19l28 -92q-67 -33 -151 -33q-55 0 -101 22q-45 25 -65 64z" />
    <glyph glyph-name="tilde" unicode="&#x2dc;" horiz-adv-x="1159" 
d="M268 1223q14 90 59 149.5t128 59.5q41 0 80 -17q31 -16 63 -41q38 -30 53 -39q24 -18 54 -18q63 0 81 106h103q-12 -89 -57.5 -149t-129.5 -60q-43 0 -79 19q-31 14 -64 39q-45 35 -53 41q-29 16 -53 16q-64 0 -82 -106h-103z" />
    <glyph glyph-name="hungarumlaut" unicode="&#x2dd;" horiz-adv-x="1159" 
d="M549 1223l207 293h141l-229 -293h-119zM381 1223h-119l207 293h141z" />
    <glyph glyph-name="gravecomb" unicode="&#x300;" 
d="M8 1223l-270 293h151l248 -293h-129z" />
    <glyph glyph-name="acutecomb" unicode="&#x301;" 
d="M-137 1223l248 293h151l-270 -293h-129z" />
    <glyph glyph-name="uni0302" unicode="&#x302;" 
d="M-297 1223l242 293h112l242 -293h-127l-172 194l-172 -194h-125z" />
    <glyph glyph-name="tildecomb" unicode="&#x303;" 
d="M-309 1223q32 209 186 209q41 0 80 -17q31 -16 63 -41q34 -27 54 -39q24 -18 53 -18q64 0 82 106h102q-12 -89 -57 -149t-129 -60q-44 0 -80 19q-29 13 -63 39q-33 26 -56 41q-26 16 -51 16q-64 0 -82 -106h-102z" />
    <glyph glyph-name="uni0304" unicode="&#x304;" 
d="M-289 1253v109h578v-109h-578z" />
    <glyph glyph-name="uni0306" unicode="&#x306;" 
d="M-291 1475h109q18 -71 64 -111.5t118 -40.5t118 40.5t64 111.5h109q-22 -116 -98.5 -184t-192.5 -68t-192.5 68t-98.5 184z" />
    <glyph glyph-name="uni0307" unicode="&#x307;" 
d="M-96 1362q0 38 29 67t67 29t67 -29t29 -67t-29 -67t-67 -29t-67 29t-29 67z" />
    <glyph glyph-name="uni0308" unicode="&#x308;" 
d="M-184 1270q-37 0 -64.5 27.5t-27.5 64.5q0 40 26 66t66 26q37 0 64.5 -27.5t27.5 -64.5q0 -35 -28.5 -63.5t-63.5 -28.5zM92 1362q0 37 27.5 64.5t64.5 27.5q40 0 66 -26t26 -66q0 -37 -27.5 -64.5t-64.5 -27.5q-35 0 -63.5 28.5t-28.5 63.5z" />
    <glyph glyph-name="uni030A" unicode="&#x30a;" 
d="M-197 1362q0 79 58.5 135.5t138.5 56.5q79 0 138 -56.5t59 -135.5q0 -78 -59.5 -135.5t-137.5 -57.5q-79 0 -138 57t-59 136zM-102 1362q0 -43 30 -75t72 -32t72 32t30 75t-30 74.5t-72 31.5t-72 -31.5t-30 -74.5z" />
    <glyph glyph-name="uni030B" unicode="&#x30b;" 
d="M51 1223l207 293h141l-229 -293h-119zM-117 1223h-119l207 293h142z" />
    <glyph glyph-name="uni030C" unicode="&#x30c;" 
d="M-297 1516h127l172 -195l172 195h125l-242 -293h-112z" />
    <glyph glyph-name="uni0312" unicode="&#x312;" 
d="M-98 1331q0 72 43.5 129t113.5 84l37 -80q-46 -24 -71 -55q-27 -30 -27 -74q18 11 37 11q31 0 49 -22.5t18 -53.5q0 -35 -24 -56q-24 -24 -64 -24q-30 0 -57 18q-55 44 -55 123z" />
    <glyph glyph-name="uni0315" unicode="&#x315;" 
d="M158 1161l43 355h118l-65 -355h-96z" />
    <glyph glyph-name="dotbelowcomb" unicode="&#x323;" 
d="M-96 -313q0 38 29 67t67 29t67 -29t29 -67t-29 -67.5t-67 -29.5t-67 29.5t-29 67.5z" />
    <glyph glyph-name="uni0326" unicode="&#x326;" 
d="M-98 -203q0 36 26 58t62 22q30 0 57 -18q55 -41 55 -123q0 -72 -43.5 -129t-113.5 -84l-37 80q48 25 72 55q26 29 26 74q-18 -11 -37 -11q-31 0 -49 22.5t-18 53.5z" />
    <glyph glyph-name="uni0327" unicode="&#x327;" 
d="M-47 -451q-81 0 -148 31l31 94q34 -12 62 -18q36 -4 53 -4q42 0 74 18.5t32 57.5q0 84 -157 84l57 211h94l-35 -136q66 -8 113 -52t47 -109q0 -85 -66.5 -131t-156.5 -46z" />
    <glyph glyph-name="uni0328" unicode="&#x328;" 
d="M-291 -344q-22 42 -22 88q0 134 223 301l90 -45q-87 -70 -123 -106q-42 -42 -61 -78q-17 -39 -17 -64q0 -39 23.5 -60.5t62.5 -21.5q32 0 62 6q29 9 53 19l29 -92q-67 -33 -152 -33q-54 0 -100 22q-45 25 -68 64z" />
    <glyph glyph-name="uni0E3F" unicode="&#xe3f;" horiz-adv-x="1216" 
d="M186 1413h367v256h98v-256q82 -4 151.5 -27.5t124.5 -66.5t86 -110.5t31 -153.5q0 -106 -47 -184.5t-141 -118.5q121 -41 185.5 -135.5t64.5 -223.5q0 -95 -36.5 -170t-100 -122.5t-144.5 -73t-174 -27.5v-287h-98v287h-367v1413zM651 688v-582q68 2 126.5 20.5t105 52.5
t73.5 90t27 128q0 141 -93 216t-239 75zM303 106h250v582h-250v-582zM553 1307h-250v-512h250v512zM651 1307v-512q126 6 198.5 69.5t72.5 184.5q0 120 -74.5 186t-196.5 72z" />
    <glyph glyph-name="uni1E24" unicode="&#x1e24;" horiz-adv-x="1452" 
d="M168 1454h129v-639h858v639h129v-1454h-129v698h-858v-698h-129v1454zM725 -424q-41 0 -69.5 28.5t-28.5 69.5t28.5 70t69.5 29t69.5 -29t28.5 -70t-28.5 -69.5t-69.5 -28.5z" />
    <glyph glyph-name="uni1E25" unicode="&#x1e25;" horiz-adv-x="1159" 
d="M152 0v1516h122v-629q49 94 140.5 143t201.5 49q99 0 176.5 -37.5t126 -102.5t73 -149t24.5 -182v-608h-123v604q0 74 -15 136.5t-47.5 114t-89.5 81t-135 29.5q-144 0 -238 -95.5t-94 -242.5v-627h-122zM584 -410q-38 0 -67.5 29.5t-29.5 67.5t29.5 67t67.5 29t67 -29
t29 -67t-29 -67.5t-67 -29.5z" />
    <glyph glyph-name="uni1E36" unicode="&#x1e36;" horiz-adv-x="1062" 
d="M168 0v1454h129v-1337h664v-117h-793zM465 -326q0 41 28.5 70t69.5 29t70 -29t29 -70t-29 -69.5t-70 -28.5t-69.5 28.5t-28.5 69.5z" />
    <glyph glyph-name="uni1E37" unicode="&#x1e37;" horiz-adv-x="425" 
d="M152 0v1516h122v-1516h-122zM213 -410q-38 0 -67 29.5t-29 67.5t29 67t67 29t67 -29t29 -67t-29 -67.5t-67 -29.5z" />
    <glyph glyph-name="Wgrave" unicode="&#x1e80;" horiz-adv-x="2037" 
d="M72 1454h133l373 -1304l370 1304h142l372 -1304l375 1304h129l-434 -1454h-146l-368 1294l-367 -1294h-145zM725 1860h174l277 -242h-148z" />
    <glyph glyph-name="wgrave" unicode="&#x1e81;" horiz-adv-x="1601" 
d="M397 0l-356 1049h127l287 -902l293 902h114l289 -902l287 902h123l-357 -1049h-117l-284 897l-289 -897h-117zM539 1516h151l248 -293h-129z" />
    <glyph glyph-name="Wacute" unicode="&#x1e82;" horiz-adv-x="2037" 
d="M72 1454h133l373 -1304l370 1304h142l372 -1304l375 1304h129l-434 -1454h-146l-368 1294l-367 -1294h-145zM1008 1618h-148l277 242h174z" />
    <glyph glyph-name="wacute" unicode="&#x1e83;" horiz-adv-x="1601" 
d="M397 0l-356 1049h127l287 -902l293 902h114l289 -902l287 902h123l-357 -1049h-117l-284 897l-289 -897h-117zM793 1223h-129l247 293h152z" />
    <glyph glyph-name="Wdieresis" unicode="&#x1e84;" horiz-adv-x="2037" 
d="M506 0l-434 1454h133l373 -1304l370 1304h142l372 -1304l375 1304h129l-434 -1454h-146l-368 1294l-367 -1294h-145zM805 1624q-40 0 -67 27t-27 67q0 41 26.5 67.5t67.5 26.5t67.5 -26.5t26.5 -67.5q0 -40 -27 -67t-67 -27zM1233 1624q-37 0 -65.5 28.5t-28.5 65.5
q0 40 27 67t67 27q41 0 67.5 -26.5t26.5 -67.5q0 -40 -27 -67t-67 -27z" />
    <glyph glyph-name="wdieresis" unicode="&#x1e85;" horiz-adv-x="1601" 
d="M397 0l-356 1049h127l287 -902l293 902h114l289 -902l287 902h123l-357 -1049h-117l-284 897l-289 -897h-117zM616 1270q-37 0 -64.5 27.5t-27.5 64.5q0 40 26 66t66 26t66.5 -26t26.5 -66q0 -37 -28 -64.5t-65 -27.5zM985 1270q-35 0 -63.5 28.5t-28.5 63.5
q0 37 27.5 64.5t64.5 27.5q40 0 66 -26t26 -66q0 -37 -27.5 -64.5t-64.5 -27.5z" />
    <glyph glyph-name="Germandbls" unicode="&#x1e9e;" horiz-adv-x="1261" 
d="M276 0h-129v899q0 118 34 223t97.5 186.5t164.5 129t225 47.5q148 0 271.5 -69t209.5 -195l-315 -377q159 -28 257.5 -145t98.5 -279q0 -200 -135 -325.5t-340 -125.5q-151 0 -285 84l62 99q40 -34 105 -52t126 -18q146 0 241 93t95 241q0 153 -98.5 245t-255.5 97
l-21 80l313 376q-60 72 -146.5 113t-180.5 41q-97 0 -174 -38.5t-124 -104.5t-71.5 -150t-24.5 -180v-895z" />
    <glyph glyph-name="Ygrave" unicode="&#x1ef2;" horiz-adv-x="1239" 
d="M555 592l-514 862h143l437 -754l438 754h139l-514 -858v-596h-129v592zM326 1860h174l276 -242h-147z" />
    <glyph glyph-name="ygrave" unicode="&#x1ef3;" horiz-adv-x="1044" 
d="M479 8l-438 1041h135l367 -904l329 904h132l-482 -1235q-48 -123 -119.5 -190.5t-189.5 -67.5q-86 0 -141 36l43 101q42 -25 96 -25q129 0 203 176zM530 1223l-270 293h152l247 -293h-129z" />
    <glyph glyph-name="uni2000" unicode="&#x2000;" horiz-adv-x="1024" 
 />
    <glyph glyph-name="uni2001" unicode="&#x2001;" horiz-adv-x="2048" 
 />
    <glyph glyph-name="uni2002" unicode="&#x2002;" horiz-adv-x="1024" 
 />
    <glyph glyph-name="uni2003" unicode="&#x2003;" horiz-adv-x="2048" 
 />
    <glyph glyph-name="uni2004" unicode="&#x2004;" horiz-adv-x="681" 
 />
    <glyph glyph-name="uni2005" unicode="&#x2005;" horiz-adv-x="512" 
 />
    <glyph glyph-name="uni2006" unicode="&#x2006;" horiz-adv-x="339" 
 />
    <glyph glyph-name="uni2007" unicode="&#x2007;" horiz-adv-x="1216" 
 />
    <glyph glyph-name="uni2008" unicode="&#x2008;" horiz-adv-x="450" 
 />
    <glyph glyph-name="uni2009" unicode="&#x2009;" horiz-adv-x="409" 
 />
    <glyph glyph-name="uni200A" unicode="&#x200a;" horiz-adv-x="129" 
 />
    <glyph glyph-name="uni200B" unicode="&#x200b;" 
 />
    <glyph glyph-name="endash" unicode="&#x2013;" horiz-adv-x="1024" 
d="M0 510v106h1024v-106h-1024z" />
    <glyph glyph-name="emdash" unicode="&#x2014;" horiz-adv-x="2048" 
d="M0 510v106h2048v-106h-2048z" />
    <glyph glyph-name="quoteleft" unicode="&#x2018;" horiz-adv-x="452" 
d="M113 1065q-21 49 -21 109q0 100 56.5 178.5t150.5 128.5l41 -80q-66 -38 -106.5 -93.5t-40.5 -125.5q0 -45 16 -82q18 18 47 18q32 0 55 -23t23 -55q0 -36 -27.5 -59t-64.5 -23q-44 0 -78.5 31t-50.5 76z" />
    <glyph glyph-name="quoteright" unicode="&#x2019;" horiz-adv-x="452" 
d="M113 1018q147 82 147 219q0 45 -16 82q-19 -19 -47 -19q-32 0 -54 25q-24 21 -24 53q0 37 26 60q28 22 66 22q47 0 77 -27.5t54 -76.5q18 -50 18 -111q0 -100 -56 -178.5t-150 -128.5z" />
    <glyph glyph-name="quotesinglbase" unicode="&#x201a;" horiz-adv-x="423" 
d="M104 -244q148 83 148 219q0 45 -16 82q-18 -18 -48 -18q-32 0 -53 24q-24 21 -24 54q0 36 26 59q30 23 66 23q47 0 77 -28t54 -77q18 -49 18 -110q0 -100 -56.5 -179t-150.5 -129z" />
    <glyph glyph-name="quotedblleft" unicode="&#x201c;" horiz-adv-x="800" 
d="M113 1065q-21 49 -21 109q0 100 56.5 178.5t150.5 128.5l41 -80q-66 -38 -106.5 -93.5t-40.5 -125.5q0 -45 16 -82q18 18 47 18q32 0 55 -23t23 -55q0 -36 -27.5 -59t-64.5 -23q-44 0 -78.5 31t-50.5 76zM461 1065q-21 49 -21 109q0 100 56.5 178.5t150.5 128.5l41 -80
q-66 -38 -106.5 -93.5t-40.5 -125.5q0 -45 16 -82q18 18 47 18q32 0 55 -23t23 -55q0 -36 -27.5 -59t-64.5 -23q-44 0 -78.5 31t-50.5 76z" />
    <glyph glyph-name="quotedblright" unicode="&#x201d;" horiz-adv-x="800" 
d="M154 938l-41 80q147 82 147 219q0 45 -16 82q-19 -19 -47 -19q-32 0 -54 25q-24 21 -24 53q0 37 26 60q28 22 66 22q47 0 77 -27.5t54 -76.5q18 -50 18 -111q0 -100 -56 -178.5t-150 -128.5zM461 1018q147 82 147 219q0 45 -16 82q-19 -19 -47 -19q-31 0 -53 25
q-25 22 -25 53q0 36 27 60q28 22 65 22q47 0 77 -27.5t54 -76.5q19 -52 19 -111q0 -100 -56.5 -178.5t-150.5 -128.5z" />
    <glyph glyph-name="quotedblbase" unicode="&#x201e;" horiz-adv-x="772" 
d="M453 -244q147 82 147 219q0 45 -16 82q-18 -18 -47 -18q-33 0 -54 24q-24 21 -24 54q0 36 26 59q30 23 66 23q47 0 77 -28t54 -77q18 -50 18 -110q0 -100 -56 -179t-150 -129zM145 -324l-41 80q148 83 148 219q0 45 -16 82q-18 -18 -48 -18q-32 0 -53 24q-24 21 -24 54
q0 36 26 59q30 23 66 23q47 0 77 -28t54 -77q18 -49 18 -110q0 -100 -56.5 -179t-150.5 -129z" />
    <glyph glyph-name="dagger" unicode="&#x2020;" horiz-adv-x="925" 
d="M61 1067h347v387h110v-387h346v-100h-346v-1135h-110v1135h-347v100z" />
    <glyph glyph-name="daggerdbl" unicode="&#x2021;" horiz-adv-x="1048" 
d="M123 330h346v637h-346v100h346v387h111v-387h346v-100h-346v-637h346v-101h-346v-397h-111v397h-346v101z" />
    <glyph glyph-name="bullet" unicode="&#x2022;" horiz-adv-x="462" 
d="M92 563q0 57 41 97t98 40q74 0 121 -67q19 -36 19 -70q0 -57 -41.5 -97t-98.5 -40q-79 0 -118 70q-21 30 -21 67z" />
    <glyph glyph-name="ellipsis" unicode="&#x2026;" horiz-adv-x="1351" 
d="M1024 96q0 41 30.5 72t71.5 31t72 -31t31 -72t-31 -71.5t-72 -30.5t-71.5 30.5t-30.5 71.5zM225 -6q-41 0 -71.5 30.5t-30.5 71.5t30.5 72t71.5 31t72 -31t31 -72t-31 -71.5t-72 -30.5zM676 -6q-41 0 -72 30.5t-31 71.5t31 72t72 31t71.5 -31t30.5 -72t-30.5 -71.5
t-71.5 -30.5z" />
    <glyph glyph-name="perthousand" unicode="&#x2030;" horiz-adv-x="2181" 
d="M82 1116q0 133 85.5 224.5t219.5 91.5t217.5 -89.5t83.5 -226.5q0 -135 -84.5 -225t-220.5 -90q-132 0 -216.5 90.5t-84.5 224.5zM776 297q0 133 85.5 224t219.5 91q133 0 217 -90t84 -225t-84.5 -225t-220.5 -90q-130 0 -215.5 91.5t-85.5 223.5zM1493 297
q0 133 85.5 224t219.5 91q133 0 217 -90t84 -225t-84.5 -225t-220.5 -90q-130 0 -215.5 91.5t-85.5 223.5zM354 0h-125l881 1413h125zM915 408q-24 -46 -24 -111t24 -111q22 -47 66.5 -74.5t97.5 -27.5t97 27.5t69 74.5q23 51 23 111t-23 111q-54 102 -166 102
q-117 0 -164 -102zM1608 297q0 -65 24 -111q22 -47 66.5 -74.5t97.5 -27.5q85 0 137 62.5t52 150.5q0 89 -51 151t-138 62q-118 0 -164 -102q-24 -46 -24 -111zM385 1329q-86 0 -137 -61.5t-51 -151.5q0 -86 51.5 -149.5t136.5 -63.5t136.5 62.5t51.5 150.5q0 89 -50.5 151
t-137.5 62z" />
    <glyph glyph-name="guilsinglleft" unicode="&#x2039;" horiz-adv-x="538" 
d="M328 203l-287 381l287 381h139l-283 -381l283 -381h-139z" />
    <glyph glyph-name="guilsinglright" unicode="&#x203a;" horiz-adv-x="538" 
d="M72 203l282 381l-282 381h139l287 -381l-287 -381h-139z" />
    <glyph glyph-name="fraction" unicode="&#x2044;" horiz-adv-x="194" 
d="M-406 0l889 1413h117l-889 -1413h-117z" />
    <glyph glyph-name="uni2080" unicode="&#x2080;" horiz-adv-x="720" 
d="M358 -18q-78 0 -137 36.5t-91.5 97.5t-48 129.5t-15.5 143.5q0 59 9 114.5t30.5 110t54.5 94.5t85 64.5t117 24.5q81 0 140 -35t91.5 -95.5t47 -129t14.5 -146.5q0 -60 -8.5 -115t-30 -109.5t-54.5 -94.5t-85.5 -65t-118.5 -25zM360 694q-54 0 -92.5 -30.5t-56.5 -80.5
t-25.5 -97.5t-7.5 -98.5t7.5 -98t26 -96t56.5 -79t92 -30q44 0 78 20.5t53.5 51.5t31.5 73.5t16 80t4 77.5t-4 78t-16 81t-31 74.5t-53 52.5t-79 21z" />
    <glyph glyph-name="uni2081" unicode="&#x2081;" horiz-adv-x="720" 
d="M373 0v657l-193 -102l-41 92l250 131h96v-778h-112z" />
    <glyph glyph-name="uni2082" unicode="&#x2082;" horiz-adv-x="720" 
d="M96 590q23 93 98.5 150t172.5 57q106 0 178.5 -66t72.5 -172q0 -53 -23.5 -107.5t-67.5 -105.5t-79.5 -85.5t-85.5 -76.5q-18 -16 -96 -82h367v-102h-535v86q103 80 217 185t156 173q33 53 33 107q0 65 -39.5 106t-104.5 41q-59 0 -102 -36.5t-57 -94.5z" />
    <glyph glyph-name="uni2083" unicode="&#x2083;" horiz-adv-x="720" 
d="M72 178l104 23q18 -57 66 -89t110 -32q69 0 117.5 37t48.5 104q0 68 -47 101.5t-117 33.5h-92v95h86q66 0 110 32.5t44 96.5q0 57 -44 87.5t-104 30.5q-58 0 -101 -30.5t-60 -85.5l-105 22q24 94 97 143.5t175 49.5t177 -55.5t75 -155.5q0 -120 -123 -178q63 -20 105 -72
q37 -52 37 -121q0 -107 -83 -170t-194 -63q-102 0 -177 50.5t-105 145.5z" />
    <glyph glyph-name="uni2084" unicode="&#x2084;" horiz-adv-x="720" 
d="M57 178v84l373 516h115v-510h96v-90h-96v-178h-105v178h-383zM168 268h272v373z" />
    <glyph glyph-name="colonmonetary" unicode="&#x20a1;" horiz-adv-x="1216" 
d="M342 82q-62 51 -107 124.5t-69 157.5t-34.5 165t-10.5 167q0 79 9.5 155t29 155.5t55 148t83 125.5t116.5 95.5t153 51.5l41 242h94l-38 -235q83 -3 165 -35l45 270h95l-54 -317q126 -84 183 -258l-117 -35q-31 97 -88 160l-188 -1129q104 17 179 88.5t107 175.5l117 -35
q-41 -144 -155 -233.5t-267 -103.5l-45 -269h-94l45 269q-95 10 -164 45l-53 -314h-94zM446 145q68 -48 164 -57l201 1198q-74 41 -164 41h-2zM549 1315q-72 -20 -127 -70.5t-87 -112.5t-52.5 -141.5t-27.5 -148.5t-7 -142q0 -312 119 -475z" />
    <glyph glyph-name="uni20A8" unicode="&#x20a8;" horiz-adv-x="2041" 
d="M289 0h-121v1413h348q101 0 188 -24t157 -72t110.5 -129.5t40.5 -188.5q0 -139 -73.5 -238t-205.5 -147l346 -614h-143l-320 586q-12 -1 -34 -3l-33 -3q-57 -5 -62 -5q-105 0 -198 17v-592zM289 705q93 -17 200 -17q64 0 119.5 9.5t107.5 31.5t88.5 56.5t58.5 87.5
t22 120q0 153 -102 230t-265 77h-229v-595zM1550 -31q-123 0 -228 59t-159 165l101 53q46 -82 120 -125t168 -43q102 0 179 54t77 153q0 142 -204 188l-88 19q-53 11 -95.5 24t-86.5 36t-73.5 52.5t-48 74t-18.5 99.5q0 93 52 163.5t132 104t172 33.5q124 0 220.5 -56.5
t144.5 -166.5l-103 -49q-87 164 -266 164q-58 0 -109.5 -19t-87.5 -62.5t-36 -103.5q0 -36 15 -65.5t35.5 -47.5t55.5 -33t60 -22t63 -16l88 -18q299 -62 299 -293q0 -99 -55 -174t-140 -111.5t-184 -36.5z" />
    <glyph glyph-name="uni20A9" unicode="&#x20a9;" horiz-adv-x="1875" 
d="M82 913h178l-133 500h121l127 -500h379l127 500h116l127 -500h381l127 500h117l-133 -500h178v-94h-203l-63 -237h266v-95h-293l-129 -487h-119l-123 487h-387l-122 -487h-117l-129 487h-293v95h266l-63 237h-203v94zM827 819l-59 -237h338l-59 237h-220zM1483 819h-334
l59 -237h213zM397 819l62 -237h211l61 237h-334zM938 1247l-86 -334h170zM1399 487h-166l82 -325zM481 487l84 -325l82 325h-166z" />
    <glyph glyph-name="uni20AA" unicode="&#x20aa;" horiz-adv-x="1826" 
d="M205 0v1413h551q193 0 312.5 -117.5t119.5 -314.5v-590h-115v590q0 144 -84.5 225.5t-232.5 81.5h-437v-1288h-114zM1190 0h-551v1022h115v-897h436q144 0 230.5 80.5t86.5 226.5v981h115v-981q0 -192 -118.5 -312t-313.5 -120z" />
    <glyph glyph-name="dong" unicode="&#x20ab;" horiz-adv-x="1216" 
d="M72 494q0 138 55.5 256t165 193t250.5 75q115 0 209.5 -55.5t148.5 -155.5v328h-291v102h291v176h125v-176h154v-102h-154v-1135h-113l-8 190q-52 -105 -150 -163t-216 -58q-104 0 -193 43.5t-148 116.5t-92.5 167.5t-33.5 197.5zM199 494q0 -187 100 -293
q45 -55 112.5 -86t139.5 -31q107 0 189.5 58.5t123.5 151t41 200.5q0 106 -39.5 197.5t-122 151.5t-192.5 60q-107 0 -189 -59t-122.5 -151t-40.5 -199zM1087 -279h-1011v103h1011v-103z" />
    <glyph glyph-name="Euro" unicode="&#x20ac;" horiz-adv-x="1216" 
d="M176 473h-184l24 102h146q-4 78 -4 121q0 68 6 129h-170l24 103h158q20 105 58.5 193.5t98.5 163t149.5 117t199.5 42.5q164 0 283 -90t170 -250l-117 -35q-38 122 -123.5 191t-210.5 69q-84 0 -151.5 -33t-112.5 -91.5t-73 -126.5t-44 -150h528l-24 -103h-516
q-6 -59 -6 -125t6 -125h471l-25 -102h-434q13 -64 33 -119.5t52.5 -106t73.5 -86t98 -56.5t124 -21q124 0 214.5 70t129.5 190l117 -35q-45 -156 -173 -248t-294 -92q-107 0 -195.5 40t-149 110.5t-100 159.5t-57.5 194z" />
    <glyph glyph-name="uni20AD" unicode="&#x20ad;" horiz-adv-x="1216" 
d="M72 795h153v618h117v-641l604 641h154l-600 -618h499v-103h-501l676 -692h-170l-662 698v-698h-117v692h-153v103z" />
    <glyph glyph-name="uni20B1" unicode="&#x20b1;" horiz-adv-x="1216" 
d="M203 758h-156v102h156v178h-154v103h154v272h340q159 0 282.5 -67t180.5 -205h161v-103h-133q6 -44 6 -90q0 -49 -8 -88h135v-102h-163q-41 -94 -119.5 -157t-170.5 -89.5t-198 -26.5q-90 0 -197 17v-502h-116v758zM319 860h592q11 53 11 90q0 44 -9 88h-594v-178z
M319 1141h553q-100 166 -327 166h-226v-166zM319 758v-150q81 -16 193 -16q115 0 211 39t149 127h-553z" />
    <glyph glyph-name="uni20B9" unicode="&#x20b9;" horiz-adv-x="1216" 
d="M821 942h-665v115h663q-21 123 -113 182t-225 59h-325v115h940l-27 -115h-268q123 -90 141 -241h154l-27 -115h-125q-13 -117 -81.5 -200.5t-167.5 -122.5t-218 -39q-17 0 -53 4q-9 1 -59 6l731 -590h-189l-751 610v103q31 -10 71 -13q95 -12 197 -12q72 0 134 11.5
t120 38.5t96 79t47 125z" />
    <glyph glyph-name="uni20BA" unicode="&#x20ba;" horiz-adv-x="1216" 
d="M117 350v113l155 74v219l-153 -74v113l153 73v545h125v-485l365 174v-113l-365 -174v-219l365 174v-113l-365 -174v-364h60q225 0 352.5 126t165.5 355l123 -12q-44 -277 -205 -432.5t-436 -155.5h-185v424z" />
    <glyph glyph-name="trademark" unicode="&#x2122;" horiz-adv-x="1585" 
d="M754 735v719h98l252 -473l252 473h96v-719h-98v551l-213 -401h-76l-213 399v-549h-98zM287 1364h-226v90h551v-90h-225v-629h-100v629z" />
    <glyph glyph-name="minus" unicode="&#x2212;" horiz-adv-x="1216" 
d="M211 508v113h793v-113h-793z" />
    <glyph glyph-name="uniFEFF" unicode="&#xfeff;" 
 />
    <glyph glyph-name="uniFFFD" unicode="&#xfffd;" horiz-adv-x="1654" 
d="M827 -70l-796 797l796 797l797 -797zM827 1176q-102 0 -180.5 -59.5t-107.5 -158.5l73 -26q22 76 79 122t134 46q87 0 145 -55.5t58 -143.5q0 -51 -21.5 -94t-58 -72t-79 -48.5t-91.5 -31.5v-209h78v160q112 35 185 114t73 189q0 74 -37 135q-89 132 -250 132zM752 270
q0 -28 20 -45q17 -20 45 -20q26 0 45 19.5t19 45.5q0 25 -19 47q-19 19 -45 19t-45 -19q-20 -17 -20 -47z" />
    <glyph glyph-name="glyph1" 
 />
    <glyph glyph-name="zero.aalt" horiz-adv-x="1216" 
d="M600 -31q-113 0 -202.5 46t-145.5 119t-93 172t-52 198t-15 203t14.5 202t51.5 197.5t93 172.5t147 119t206 46q114 0 204 -45.5t146 -118t92.5 -171.5t51 -197.5t14.5 -204.5q0 -104 -14.5 -202.5t-51.5 -197.5t-93 -172.5t-147 -119.5t-206 -46zM219 707
q0 -68 6.5 -133t21.5 -138t44 -134t69.5 -111t102.5 -78.5t139 -28.5q91 0 161 41.5t111 105t67 150t35 165t9 161.5q0 68 -6.5 133t-21.5 138t-44 133.5t-69.5 110.5t-102.5 78.5t-139 28.5q-91 0 -161 -41.5t-111 -104.5t-67 -149.5t-35 -165t-9 -161.5z" />
    <glyph glyph-name="one.aalt" horiz-adv-x="1216" 
d="M641 0v1266l-352 -197l-58 100l439 244h96v-1413h-125z" />
    <glyph glyph-name="two.aalt" horiz-adv-x="1216" 
d="M1055 0h-912v109q272 216 498 452q46 47 73.5 77.5t68 82t63.5 93t40 94.5t17 104q0 136 -83 226.5t-220 90.5q-126 0 -211.5 -76.5t-124.5 -203.5l-117 34q45 164 166.5 262.5t290.5 98.5q182 0 304 -119t122 -303q0 -168 -135 -344q-51 -69 -118.5 -142t-158.5 -156.5
t-141.5 -128.5t-152.5 -132h731v-119z" />
    <glyph glyph-name="three.aalt" horiz-adv-x="1216" 
d="M596 -31q-174 0 -302.5 90t-178.5 256l116 35q43 -127 137 -196.5t228 -69.5q91 0 169 33.5t128.5 104t50.5 165.5q0 75 -29 133t-79 92.5t-113.5 52t-136.5 17.5h-156v115h154q88 0 160.5 28t120.5 91.5t48 154.5q0 83 -44.5 142.5t-113 87.5t-151.5 28q-127 0 -216 -66
t-126 -188l-117 35q42 156 169 245t294 89q132 0 239 -54.5t163 -166.5q30 -71 30 -150q0 -117 -63 -200.5t-174 -127.5q124 -39 196 -134t72 -224q0 -124 -68 -221.5t-175.5 -147t-231.5 -49.5z" />
    <glyph glyph-name="four.aalt" horiz-adv-x="1216" 
d="M102 348v94l695 971h114v-958h191v-107h-191v-348h-118v348h-691zM240 455h553v772z" />
    <glyph glyph-name="five.aalt" horiz-adv-x="1216" 
d="M621 -31q-170 0 -302 92.5t-182 253.5l117 35q40 -120 140 -193t227 -73q148 0 246 99.5t98 250.5q0 153 -96 248.5t-251 95.5q-80 0 -159 -33t-129 -92l-107 17v743h768v-117h-651v-516q113 113 297 113q197 0 326 -131t129 -332q0 -194 -137 -327.5t-334 -133.5z" />
    <glyph glyph-name="six.aalt" horiz-adv-x="1216" 
d="M111 635q0 115 21 226.5t68 218t116 186.5t173 129t230 49q182 0 313 -101l-57 -96q-113 82 -250 82q-102 0 -186.5 -42t-140 -110t-94 -158t-55 -183.5t-16.5 -188.5v-29q49 138 158 209.5t260 71.5q194 0 325.5 -132.5t131.5 -328.5q0 -129 -65 -237.5t-175.5 -170
t-240.5 -61.5q-104 0 -191.5 38.5t-146.5 103t-100 151t-59.5 180.5t-18.5 193zM633 784q-148 0 -250 -94.5t-102 -243.5q0 -154 102 -256q43 -50 111 -78t137 -28q148 0 249 104t101 254t-97.5 246t-250.5 96z" />
    <glyph glyph-name="seven.aalt" horiz-adv-x="1216" 
d="M365 0l567 1294h-793v119h926v-106l-567 -1307h-133z" />
    <glyph glyph-name="eight.aalt" horiz-adv-x="1216" 
d="M606 -31q-93 0 -179 26t-156 75.5t-112 129t-42 177.5q0 131 73.5 228.5t200.5 135.5q-104 44 -165.5 129.5t-61.5 196.5q0 113 66 201t166 132t212 44q110 0 209.5 -43t165.5 -130.5t66 -201.5q0 -110 -62 -196t-166 -130q129 -42 202 -135.5t73 -226.5
q0 -78 -27 -145.5t-73.5 -115.5t-109 -82.5t-133.5 -51.5t-147 -17zM606 682q-71 0 -134.5 -18t-115 -53t-82 -93.5t-30.5 -134.5q0 -145 105 -222t257 -77q71 0 134.5 18t115.5 53t82.5 93.5t30.5 134.5q0 98 -52.5 167.5t-132.5 100.5t-178 31zM606 1329
q-126 0 -220.5 -71.5t-94.5 -194.5q0 -121 94.5 -193.5t220.5 -72.5t221 72t95 194q0 82 -46 144t-117 92t-153 30z" />
    <glyph glyph-name="nine.aalt" horiz-adv-x="1216" 
d="M571 524q-189 0 -319.5 131.5t-130.5 323.5q0 128 63 235t172 168.5t238 61.5q109 0 197 -41t146 -108.5t97.5 -158.5t56.5 -187.5t17 -198.5q0 -116 -19.5 -224t-64.5 -210.5t-112.5 -178.5t-170 -122t-229.5 -46q-187 0 -326 101l58 98q122 -84 264 -84q106 0 189.5 39
t136.5 103t88 151.5t49 178t14 189.5v72q-42 -140 -152 -216.5t-262 -76.5zM248 975q0 -146 96 -241t244 -95q143 0 243.5 92t100.5 236q0 151 -96.5 256.5t-247.5 105.5q-146 0 -243 -102.5t-97 -251.5z" />
    <glyph glyph-name="hyphen.aalt" horiz-adv-x="763" 
d="M102 692v119h560v-119h-560z" />
    <glyph glyph-name="endash.aalt" horiz-adv-x="1024" 
d="M0 698v107h1024v-107h-1024z" />
    <glyph glyph-name="emdash.aalt" horiz-adv-x="2048" 
d="M0 698v107h2048v-107h-2048z" />
    <glyph glyph-name="parenleft.aalt" horiz-adv-x="638" 
d="M461 -207q-177 195 -268 432.5t-91 501.5t91 501.5t268 432.5h137q-184 -190 -281.5 -430t-97.5 -504t98 -504.5t281 -429.5h-137z" />
    <glyph glyph-name="parenright.aalt" horiz-adv-x="638" 
d="M178 -207h-137q183 189 281 429.5t98 504.5t-97.5 504t-281.5 430h137q359 -395 359 -934t-359 -934z" />
    <glyph glyph-name="slash.case" horiz-adv-x="833" 
d="M29 -145l659 1744h117l-660 -1744h-116z" />
    <glyph glyph-name="backslash.aalt" horiz-adv-x="833" 
d="M688 -145l-659 1744h116l660 -1744h-117z" />
    <glyph glyph-name="bracketleft.aalt" horiz-adv-x="675" 
d="M188 1661h406v-96h-295v-1676h295v-96h-406v1868z" />
    <glyph glyph-name="bracketright.aalt" horiz-adv-x="675" 
d="M377 1565h-295v96h405v-1868h-405v96h295v1676z" />
    <glyph glyph-name="braceleft.aalt" horiz-adv-x="681" 
d="M92 680h-31v94h31q81 0 122.5 49t41.5 131q0 56 -6 127q-25 204 -25 297q0 138 87 210.5t231 72.5h57v-96h-57q-97 0 -151 -51t-54 -146q0 -109 22 -270q9 -68 9 -127q0 -81 -32 -149t-99 -95q66 -27 98.5 -93.5t32.5 -144.5q0 -57 -9 -127q-22 -165 -22 -276
q0 -95 54 -146t151 -51h57v-96h-57q-142 0 -230 71t-88 212q0 93 25 297q6 71 6 127q0 82 -41.5 131t-122.5 49z" />
    <glyph glyph-name="braceright.aalt" horiz-adv-x="681" 
d="M139 -207h-57v96h57q97 0 151 51t54 146q0 70 -8 133q-23 165 -23 264q0 81 32 149t99 95q-63 26 -97 94t-34 144q0 99 23 268q8 63 8 135q0 95 -54 146t-151 51h-57v96h57q143 0 230.5 -70.5t87.5 -212.5q0 -109 -23 -297q-8 -63 -8 -127q0 -81 42 -130.5t122 -49.5h31
v-94h-31q-80 0 -122 -49.5t-42 -130.5q0 -64 8 -127q23 -188 23 -297q0 -140 -86 -211.5t-232 -71.5z" />
    <glyph glyph-name="bullet.aalt" horiz-adv-x="462" 
d="M92 745q0 57 41 97.5t98 40.5q73 0 121 -68q19 -36 19 -70q0 -57 -41.5 -97t-98.5 -40q-79 0 -118 70q-21 30 -21 67z" />
    <glyph glyph-name="guilsinglleft.aalt" horiz-adv-x="538" 
d="M328 346l-287 381l287 381h139l-283 -381l283 -381h-139z" />
    <glyph glyph-name="guilsinglright.aalt" horiz-adv-x="538" 
d="M72 346l282 381l-282 381h139l287 -381l-287 -381h-139z" />
    <glyph glyph-name="guillemotleft.aalt" horiz-adv-x="917" 
d="M707 346l-287 381l287 381h139l-283 -381l283 -381h-139zM41 727l287 381h139l-283 -381l283 -381h-139z" />
    <glyph glyph-name="guillemotright.aalt" horiz-adv-x="917" 
d="M733 727l-282 381h139l287 -381l-287 -381h-139zM72 346l282 381l-282 381h139l287 -381l-287 -381h-139z" />
    <glyph glyph-name="at.aalt" horiz-adv-x="2054" 
d="M113 719q0 195 73.5 366.5t199.5 293.5t301 192.5t372 70.5q188 0 351 -64.5t280.5 -179t184.5 -279.5t67 -357q0 -67 -10 -135t-35 -137.5t-62.5 -123t-97.5 -87t-135 -33.5q-98 0 -161.5 60.5t-84.5 160.5q-45 -104 -139.5 -162.5t-210.5 -58.5q-129 0 -231 66
t-156 175.5t-54 239.5q0 95 30.5 182.5t85.5 154.5t138.5 107.5t181.5 40.5q111 0 204 -52t143 -148l8 174h102v-633q0 -49 13.5 -93t48 -77t84.5 -33q61 0 107 45.5t68.5 114.5t33 133.5t10.5 120.5q0 220 -95.5 396t-271 277t-399.5 101q-171 0 -323.5 -62.5t-263 -170.5
t-175 -261t-64.5 -327q0 -168 61.5 -316.5t168 -256t256.5 -170t321 -62.5q269 0 467 127l60 -92q-235 -140 -525 -140q-191 0 -361.5 68.5t-295 188t-197.5 290t-73 365.5zM1014 1106q-152 0 -241 -109.5t-89 -267.5q0 -100 37 -184.5t114 -138.5t179 -54q151 0 241.5 110
t90.5 267q0 156 -89 266.5t-243 110.5z" />
    <glyph glyph-name="periodcentered.case" horiz-adv-x="450" 
d="M225 573q-41 0 -71.5 31t-30.5 72t30.5 71.5t71.5 30.5t72 -30.5t31 -71.5t-31 -72t-72 -31z" />
    <glyph glyph-name="exclamdown.aalt" horiz-adv-x="450" 
d="M289 0h-129l4 1090h121zM125 1360q0 40 30 70t70 30t70.5 -30t30.5 -70t-30.5 -70t-70.5 -30t-70 30t-30 70z" />
    <glyph glyph-name="questiondown.aalt" horiz-adv-x="1005" 
d="M522 -31q-116 0 -216 50.5t-162 145.5t-62 214q0 168 111.5 289t283.5 174v248h121v-322q-77 -18 -142.5 -48t-121.5 -75t-88.5 -110.5t-32.5 -145.5q0 -130 89.5 -217.5t221.5 -87.5q118 0 208.5 71t121.5 187l111 -39q-41 -154 -161 -244t-282 -90zM438 1360
q0 40 30.5 70t70.5 30t70 -30t30 -70t-30 -70t-70 -30t-70.5 30t-30.5 70z" />
    <glyph glyph-name="a.ss01" horiz-adv-x="1261" 
d="M596 -31q-146 0 -262 78.5t-177 204.5t-61 272t60.5 271.5t177.5 204.5t266 79q127 0 229.5 -60t161.5 -173l8 203h111v-1049h-111l-8 207q-60 -115 -162.5 -176.5t-232.5 -61.5zM606 967q-118 0 -207 -63t-133.5 -162.5t-44.5 -217.5q0 -115 43.5 -214t133 -163.5
t208.5 -64.5q118 0 207 62.5t133.5 162t44.5 217.5q0 116 -43 215.5t-132.5 163.5t-209.5 64z" />
    <glyph glyph-name="ordfeminine.ss01" horiz-adv-x="858" 
d="M408 655q-101 0 -184 55t-128 144t-45 190t44 189.5t127 144.5t186 56q176 0 266 -150l4 131h108v-741h-108l-6 135q-39 -73 -109.5 -113.5t-154.5 -40.5zM420 1331q-116 0 -185 -83.5t-69 -203.5q0 -118 68.5 -202t185.5 -84q116 0 185 83t69 203q0 119 -68.5 203
t-185.5 84z" />
    <glyph glyph-name="glyph199" horiz-adv-x="131" 
d="M66 672q-38 0 -67.5 29t-29.5 67t29.5 67t67.5 29t67 -29t29 -67t-29 -67t-67 -29z" />
    <glyph glyph-name="glyph200" 
d="M-414 766q0 40 30.5 70t70.5 30t70 -30t30 -70t-30 -70t-70 -30t-70.5 30t-30.5 70z" />
    <glyph glyph-name="glyph205" horiz-adv-x="1159" 
d="M143 471v578h123v-574q0 -74 15.5 -136t48 -113.5t89.5 -81t134 -29.5q144 0 238 95.5t94 242.5v596h123v-1012q0 -216 -118.5 -354t-334.5 -138q-122 0 -230.5 51.5t-170.5 149.5l92 66q113 -156 305 -156q164 0 249 104.5t85 276.5v156q-48 -91 -142 -142t-200 -51
q-98 0 -176 37.5t-126 103t-73 149.5t-25 181z" />
    <glyph glyph-name="ae.ss01" horiz-adv-x="1994" 
d="M96 524q0 105 35 204.5t96.5 177.5t155.5 125.5t203 47.5q129 0 231.5 -67t153.5 -185l2 222h98l2 -207q57 109 153.5 172t215.5 63q135 0 240.5 -71.5t160.5 -186.5t55 -250v-57h-821q2 -88 27.5 -165.5t72.5 -138t121.5 -95.5t167.5 -35q210 0 316 180l98 -57
q-60 -112 -171 -172t-243 -60q-126 0 -227.5 59.5t-163.5 168.5l-4 -197h-98l-2 225q-55 -119 -156.5 -187.5t-230.5 -68.5q-109 0 -202 47t-154.5 124.5t-96.5 177.5t-35 206zM596 967q-88 0 -160.5 -37.5t-118.5 -100t-71 -141.5t-25 -164q0 -67 15 -131t46.5 -120.5
t75 -99t105 -67t133.5 -24.5q89 0 161.5 37t118 99t70.5 141t25 165q0 85 -24.5 163.5t-69.5 141.5t-118 100.5t-163 37.5zM1083 610h693q-5 95 -46 176.5t-117.5 134t-174.5 52.5q-144 0 -238.5 -106.5t-116.5 -256.5zM993 571l2 -39l2 13z" />
    <glyph glyph-name="glyph234" 
d="M-37 -463q-91 0 -158 31l31 96q34 -11 66 -18q40 -4 59 -4q42 0 74.5 18t32.5 57q0 82 -158 82l57 213h96l-34 -137q65 -8 112 -51.5t47 -108.5q0 -86 -66.5 -132t-158.5 -46z" />
    <glyph glyph-name="glyph237" 
d="M-31 -309q-31 0 -51 23t-20 55q0 37 26.5 59t63.5 22q54 0 84 -42.5t30 -98.5q0 -73 -45 -130t-116 -83l-37 80q49 25 71 57q27 35 27 68q-17 -10 -33 -10z" />
    <glyph glyph-name="glyph240" 
d="M-295 -348q-22 42 -22 92q0 134 223 301l94 -45q-87 -70 -123 -106q-42 -42 -61 -78q-17 -39 -17 -64q0 -39 23.5 -60.5t62.5 -21.5q32 0 62 6q29 9 53 19l29 -96q-70 -33 -154 -33q-56 0 -102 22q-45 25 -68 64z" />
    <glyph glyph-name="glyph241" 
d="M-313 -252q0 51 20.5 101.5t59 96.5t72.5 79t81 71l90 -4q-211 -205 -211 -330q0 -45 27 -69q30 -23 68 -23q28 0 55 6q22 7 51 19l29 -92q-65 -33 -142 -33q-91 0 -147 47q-53 50 -53 131z" />
    <glyph glyph-name="glyph242" 
d="M-317 -248q0 165 237 365l90 -4q-211 -211 -211 -346q0 -44 25.5 -70.5t69.5 -26.5q28 0 55 6q22 7 51 19l29 -96q-65 -33 -144 -33q-94 0 -149 49q-53 53 -53 137z" />
    <glyph glyph-name="aogonek.ss01" horiz-adv-x="1261" 
d="M96 524q0 146 60.5 271.5t177.5 204.5t266 79q127 0 229.5 -60t161.5 -173l8 203h111v-1049q-88 -71 -121 -106q-46 -43 -61 -78q-19 -36 -19 -64q0 -39 23.5 -60.5t62.5 -21.5q32 0 62 6q29 9 53 19l29 -92q-67 -33 -152 -33q-54 0 -100 22q-46 25 -66 64q-24 40 -24 88
q0 41 18.5 83t51.5 80t62 65t68 57l-6 178q-60 -115 -162.5 -176.5t-232.5 -61.5q-146 0 -262 78.5t-177 204.5t-61 272zM606 967q-118 0 -207 -63t-133.5 -162.5t-44.5 -217.5q0 -115 43.5 -214t133 -163.5t208.5 -64.5q118 0 207 62.5t133.5 162t44.5 217.5
q0 116 -43 215.5t-132.5 163.5t-209.5 64z" />
    <glyph glyph-name="glyph270" 
d="M-158 1618l277 242h174l-303 -242h-148z" />
    <glyph glyph-name="glyph273" 
d="M-178 1618h-139l297 242h165zM31 1618l297 242h166l-324 -242h-139z" />
    <glyph glyph-name="Iacute_J_acutecomb.locl" horiz-adv-x="1357" 
d="M664 -41q-174 0 -311 89.5t-197 250.5l116 47q57 -128 157.5 -199t236.5 -71q137 0 232.5 66t139 172.5t43.5 244.5v895h129v-895q0 -125 -35.5 -233t-102 -190.5t-172 -129.5t-236.5 -47zM147 584v870h129v-870h-129zM1139 1618h-148l277 242h174zM27 1618l276 242h174
l-303 -242h-147z" />
    <glyph glyph-name="iacute_j_acutecomb.locl" horiz-adv-x="1159" 
d="M143 1049h123v-574q0 -74 15.5 -136t48 -113.5t89.5 -81t134 -29.5q144 0 238 95.5t94 242.5v596h123v-1012q0 -216 -118.5 -354t-334.5 -138q-122 0 -230.5 51.5t-170.5 149.5l92 66q113 -156 305 -156q164 0 249 104.5t85 276.5v156q-48 -91 -142 -142t-200 -51
q-98 0 -176 37.5t-126 103t-73 149.5t-25 181v578zM809 1223l248 293h151l-270 -293h-129zM197 1223h-129l247 293h152z" />
    <glyph glyph-name="aacute.ss01" horiz-adv-x="1261" 
d="M596 -31q-146 0 -262 78.5t-177 204.5t-61 272t60.5 271.5t177.5 204.5t266 79q127 0 229.5 -60t161.5 -173l8 203h111v-1049h-111l-8 207q-60 -115 -162.5 -176.5t-232.5 -61.5zM221 524q0 -115 43.5 -214t133 -163.5t208.5 -64.5q118 0 207 62.5t133.5 162t44.5 217.5
q0 116 -43 215.5t-132.5 163.5t-209.5 64q-118 0 -207 -63t-133.5 -162.5t-44.5 -217.5zM610 1221h-129l248 292h152z" />
    <glyph glyph-name="glyph309" 
d="M10 1618l-303 242h174l277 -242h-148z" />
    <glyph glyph-name="agrave.ss01" horiz-adv-x="1261" 
d="M596 -31q-146 0 -262 78.5t-177 204.5t-61 272t60.5 271.5t177.5 204.5t266 79q127 0 229.5 -60t161.5 -173l8 203h111v-1049h-111l-8 207q-60 -115 -162.5 -176.5t-232.5 -61.5zM221 524q0 -115 43.5 -214t133 -163.5t208.5 -64.5q118 0 207 62.5t133.5 162t44.5 217.5
q0 116 -43 215.5t-132.5 163.5t-209.5 64q-118 0 -207 -63t-133.5 -162.5t-44.5 -217.5zM356 1513h152l248 -292h-129z" />
    <glyph glyph-name="glyph328" 
d="M-352 1618l286 242h134l286 -242h-147l-207 154l-207 -154h-145z" />
    <glyph glyph-name="glyph331" 
d="M-350 1628q15 92 67 150.5t140 58.5q72 0 157 -55q40 -28 62 -39q31 -17 61 -17q42 0 70.5 29.5t36.5 73.5h108q-15 -92 -67.5 -150.5t-139.5 -58.5q-72 0 -157 55q-40 28 -62 39q-31 17 -61 17q-42 0 -70.5 -29.5t-36.5 -73.5h-108z" />
    <glyph glyph-name="acircumflex.ss01" horiz-adv-x="1261" 
d="M96 524q0 146 60.5 271.5t177.5 204.5t266 79q127 0 229.5 -60t161.5 -173l8 203h111v-1049h-111l-8 207q-60 -115 -162.5 -176.5t-232.5 -61.5q-146 0 -262 78.5t-177 204.5t-61 272zM606 967q-118 0 -207 -63t-133.5 -162.5t-44.5 -217.5q0 -115 43.5 -214t133 -163.5
t208.5 -64.5q118 0 207 62.5t133.5 162t44.5 217.5q0 116 -43 215.5t-132.5 163.5t-209.5 64zM322 1221l241 292h113l242 -292h-127l-173 194l-172 -194h-124z" />
    <glyph glyph-name="atilde.ss01" horiz-adv-x="1261" 
d="M596 -31q-146 0 -262 78.5t-177 204.5t-61 272t60.5 271.5t177.5 204.5t266 79q127 0 229.5 -60t161.5 -173l8 203h111v-1049h-111l-8 207q-60 -115 -162.5 -176.5t-232.5 -61.5zM221 524q0 -115 43.5 -214t133 -163.5t208.5 -64.5q118 0 207 62.5t133.5 162t44.5 217.5
q0 116 -43 215.5t-132.5 163.5t-209.5 64q-118 0 -207 -63t-133.5 -162.5t-44.5 -217.5zM412 1221h-103q14 90 59 149.5t128 59.5q40 0 79 -17q34 -18 64 -41q38 -30 53 -39q24 -18 53 -18q64 0 82 106h103q-12 -89 -57.5 -149t-129.5 -60q-43 0 -79 19q-31 14 -64 39
q-45 35 -53 41q-29 16 -53 16q-64 0 -82 -106z" />
    <glyph glyph-name="glyph360" 
d="M-352 1860h147l207 -154l207 154h145l-286 -242h-134z" />
    <glyph glyph-name="glyph363" 
d="M164 1202l37 314h118l-59 -314h-96z" />
    <glyph glyph-name="glyph365" 
d="M-330 1628v111h660v-111h-660z" />
    <glyph glyph-name="amacron.ss01" horiz-adv-x="1261" 
d="M596 -31q-146 0 -262 78.5t-177 204.5t-61 272t60.5 271.5t177.5 204.5t266 79q127 0 229.5 -60t161.5 -173l8 203h111v-1049h-111l-8 207q-60 -115 -162.5 -176.5t-232.5 -61.5zM221 524q0 -115 43.5 -214t133 -163.5t208.5 -64.5q118 0 207 62.5t133.5 162t44.5 217.5
q0 116 -43 215.5t-132.5 163.5t-209.5 64q-118 0 -207 -63t-133.5 -162.5t-44.5 -217.5zM330 1360h577v-109h-577v109z" />
    <glyph glyph-name="glyph396" 
d="M-213 1624q-40 0 -67 27t-27 67q0 41 26.5 67.5t67.5 26.5q40 0 67 -27t27 -67q0 -37 -28.5 -65.5t-65.5 -28.5zM121 1718q0 40 27 67t67 27q41 0 67.5 -26.5t26.5 -67.5q0 -40 -27 -67t-67 -27q-37 0 -65.5 28.5t-28.5 65.5z" />
    <glyph glyph-name="glyph399" 
d="M-311 1860h112q22 -72 73 -110t126 -38q152 0 199 148h112q-23 -119 -105.5 -185.5t-205.5 -66.5q-121 0 -203.5 66t-107.5 186z" />
    <glyph glyph-name="adieresis.ss01" horiz-adv-x="1261" 
d="M96 524q0 146 60.5 271.5t177.5 204.5t266 79q127 0 229.5 -60t161.5 -173l8 203h111v-1049h-111l-8 207q-60 -115 -162.5 -176.5t-232.5 -61.5q-146 0 -262 78.5t-177 204.5t-61 272zM221 524q0 -115 43.5 -214t133 -163.5t208.5 -64.5q118 0 207 62.5t133.5 162
t44.5 217.5q0 116 -43 215.5t-132.5 163.5t-209.5 64q-118 0 -207 -63t-133.5 -162.5t-44.5 -217.5zM711 1360q0 37 27.5 64.5t64.5 27.5q40 0 66 -26t26 -66q0 -37 -27.5 -64.5t-64.5 -27.5q-35 0 -63.5 28.5t-28.5 63.5zM434 1268q-37 0 -64.5 27.5t-27.5 64.5q0 40 26 66
t66 26t66 -26t26 -66q0 -37 -27.5 -64.5t-64.5 -27.5z" />
    <glyph glyph-name="abreve.ss01" horiz-adv-x="1261" 
d="M596 -31q-146 0 -262 78.5t-177 204.5t-61 272t60.5 271.5t177.5 204.5t266 79q127 0 229.5 -60t161.5 -173l8 203h111v-1049h-111l-8 207q-60 -115 -162.5 -176.5t-232.5 -61.5zM606 967q-118 0 -207 -63t-133.5 -162.5t-44.5 -217.5q0 -115 43.5 -214t133 -163.5
t208.5 -64.5q118 0 207 62.5t133.5 162t44.5 217.5q0 116 -43 215.5t-132.5 163.5t-209.5 64zM328 1473h108q18 -71 64 -111.5t118 -40.5t118.5 40.5t64.5 111.5h108q-22 -116 -98.5 -184t-192.5 -68t-192 68t-98 184z" />
    <glyph glyph-name="glyph422" 
d="M0 1624q-41 0 -69.5 28.5t-28.5 69.5t28.5 70t69.5 29t69.5 -29t28.5 -70t-28.5 -69.5t-69.5 -28.5z" />
    <glyph glyph-name="glyph425" 
d="M0 -424q-41 0 -69.5 28.5t-28.5 69.5t28.5 70t69.5 29t69.5 -29t28.5 -70t-28.5 -69.5t-69.5 -28.5z" />
    <glyph glyph-name="glyph440" 
d="M-197 1729q0 79 58.5 135.5t138.5 56.5q79 0 138 -56.5t59 -135.5t-58.5 -136t-138.5 -57q-79 0 -138 57t-59 136zM-98 1729q0 -44 28 -72q28 -31 70 -31t70 31q28 28 28 72q0 42 -28 73q-29 29 -70 29t-70 -29q-28 -31 -28 -73z" />
    <glyph glyph-name="aring.ss01" horiz-adv-x="1261" 
d="M596 -31q-146 0 -262 78.5t-177 204.5t-61 272t60.5 271.5t177.5 204.5t266 79q127 0 229.5 -60t161.5 -173l8 203h111v-1049h-111l-8 207q-60 -115 -162.5 -176.5t-232.5 -61.5zM606 967q-118 0 -207 -63t-133.5 -162.5t-44.5 -217.5q0 -115 43.5 -214t133 -163.5
t208.5 -64.5q118 0 207 62.5t133.5 162t44.5 217.5q0 116 -43 215.5t-132.5 163.5t-209.5 64zM422 1360q0 79 58 135.5t138 56.5q79 0 138 -56.5t59 -135.5q0 -78 -59.5 -135.5t-137.5 -57.5q-79 0 -137.5 57t-58.5 136zM618 1466q-42 0 -72 -31.5t-30 -74.5t30 -75t72 -32
t72.5 32t30.5 75t-30.5 74.5t-72.5 31.5z" />
    <glyph glyph-name="colon_B_e_l_o_colon.dlig" horiz-adv-x="1599" 
d="M424 -20q-131 0 -227.5 91.5t-96.5 223.5q0 41 15 88q9 35 43 115q17 42 55 120q11 22 34.5 71.5t37.5 76.5q12 25 37.5 78.5t39.5 81.5q24 48 72.5 145.5t73.5 145.5l30 57.5t21 40.5q89 160 240 160q83 0 139 -40.5t100 -119.5q6 -11 23.5 -43.5t28.5 -54.5
q46 -94 69 -136q25 -50 78 -155q5 -11 33.5 -70.5t44.5 -89.5q7 -15 31.5 -68.5t37.5 -79.5q71 -145 101 -235q12 -47 12 -88q0 -132 -94.5 -223.5t-228.5 -91.5q-185 0 -375 208q-190 -208 -375 -208zM207 362q-10 -38 -10 -67q0 -90 67 -155.5t158 -65.5q146 0 313 188
q-192 235 -192 410q0 110 72.5 184t183.5 74t183.5 -72.5t72.5 -185.5q0 -174 -193 -410q167 -188 314 -188q90 0 157.5 65.5t67.5 155.5q0 29 -10 67q-3 10 -39 97q-2 3 -21 44.5t-31 69.5q-11 22 -34 71.5t-37 76.5q-15 29 -41 85t-37 79q-13 27 -39 79.5t-39 77.5
q-32 58 -67 134q-9 17 -18.5 34t-18 32t-11.5 20q-23 40 -40.5 62t-48 39t-70.5 17q-58 0 -92 -29t-68 -89q-68 -123 -190 -377q-7 -14 -35.5 -73.5t-44.5 -90.5q-33 -65 -70 -148q-20 -40 -53 -114q-36 -87 -39 -97zM799 834q-71 0 -115.5 -44t-44.5 -114q0 -76 48.5 -169
t111.5 -171q63 78 111 170.5t48 169.5q0 70 -44 114t-115 44z" />
    </font>
</defs>
</svg>
