<?xml version="1.0" standalone="no"?>
<!DOCTYPE svg PUBLIC "-//W3C//DTD SVG 1.1//EN" "http://www.w3.org/Graphics/SVG/1.1/DTD/svg11.dtd" >
<svg xmlns="http://www.w3.org/2000/svg" xmlns:xlink="http://www.w3.org/1999/xlink" version="1.1">
<metadata>
Created by FontForge 20201107 at Mon Jun  3 13:20:50 2024
 By 
Copyright 2018 Airbnb. All rights reserved.
</metadata>
<defs>
<font id="AirbnbCerealWXBd" horiz-adv-x="1230" >
  <font-face 
    font-family="AirbnbCereal_W_XBd ExtBd"
    font-weight="800"
    font-stretch="normal"
    units-per-em="2048"
    panose-1="2 11 8 2 2 2 3 2 2 4"
    ascent="1638"
    descent="-410"
    x-height="1092"
    cap-height="1454"
    bbox="-479 -582 2271 2017"
    underline-thickness="129"
    underline-position="-394"
    unicode-range="U+000D-FFFD"
  />
<missing-glyph horiz-adv-x="1024" 
d="M922 0h-820v1536h820v-1536zM205 102h614v1332h-614v-1332z" />
    <glyph glyph-name="f_i.liga" unicode="fi" horiz-adv-x="1363" 
d="M219 827h-180v265h180v57q0 179 107.5 296.5t289.5 117.5q58 0 115 -13q56 -16 96 -34l-59 -248q-57 22 -92 22q-123 0 -123 -160v-38h707v-1092h-334v827h-373v-827h-334v827zM932 1286q-25 42 -25 92t25 92q23 42 67.5 66.5t92.5 24.5q106 0 163 -91q23 -44 23 -92
t-23 -92q-56 -90 -163 -90q-49 0 -93 24t-67 66z" />
    <glyph glyph-name="f_f.liga" unicode="ff" horiz-adv-x="1570" 
d="M219 827h-180v265h180v57q0 185 117.5 299.5t306.5 114.5q123 0 225 -54l-59 -247q-54 28 -111 28q-73 0 -109 -42.5t-36 -117.5v-38h373v57q0 185 117.5 299.5t306.5 114.5q123 0 225 -54l-59 -247q-51 28 -111 28q-73 0 -109 -42.5t-36 -117.5v-38h268v-265h-268v-827
h-334v827h-373v-827h-334v827z" />
    <glyph glyph-name="f_f_i.liga" unicode="ffi" horiz-adv-x="2070" 
d="M219 827h-180v265h180v57q0 185 117.5 299.5t306.5 114.5q123 0 225 -54l-59 -247q-54 28 -111 28q-73 0 -109 -42.5t-36 -117.5v-38h373v57q0 179 107.5 296.5t289.5 117.5q58 0 115 -13q56 -16 96 -34l-59 -248q-57 22 -93 22q-122 0 -122 -160v-38h706v-1092h-334v827
h-372v-827h-334v827h-373v-827h-334v827zM1614 1378q0 52 24 92q23 42 67.5 66.5t92.5 24.5q51 0 94.5 -24t69.5 -67q23 -44 23 -92t-23 -92q-26 -43 -69.5 -66.5t-94.5 -23.5q-49 0 -93 24t-67 66q-24 40 -24 92z" />
    <glyph glyph-name=".notdef" horiz-adv-x="1024" 
d="M922 0h-820v1536h820v-1536zM205 102h614v1332h-614v-1332z" />
    <glyph glyph-name="uni0000" horiz-adv-x="0" 
 />
    <glyph glyph-name="uni0000" horiz-adv-x="0" 
 />
    <glyph glyph-name="uni000D" unicode="&#xd;" horiz-adv-x="421" 
 />
    <glyph glyph-name="space" unicode=" " horiz-adv-x="421" 
 />
    <glyph glyph-name="exclam" unicode="!" horiz-adv-x="565" 
d="M102 1454h361l-21 -975h-319zM88 186q0 84 55.5 139.5t139.5 55.5q108 0 170 -94q24 -47 24 -101q0 -82 -55.5 -138t-138.5 -56q-52 0 -98 25.5t-70 70.5q-27 44 -27 98z" />
    <glyph glyph-name="quotedbl" unicode="&#x22;" horiz-adv-x="948" 
d="M543 1454h299l-15 -584h-270zM106 1454h300l-15 -584h-270z" />
    <glyph glyph-name="numbersign" unicode="#" horiz-adv-x="1370" 
d="M287 356h-185l19 228h184l21 252h-183l19 227h182l29 350h248l-29 -350h244l28 350h248l-29 -350h185l-19 -227h-184l-21 -252h183l-19 -228h-182l-29 -356h-247l28 356h-243l-29 -356h-248zM553 584h244l20 252h-244z" />
    <glyph glyph-name="dollar" unicode="$" 
d="M84 352l319 66q55 -156 222 -156q73 0 126.5 37.5t53.5 106.5q0 33 -15.5 58t-44.5 40t-53.5 23.5t-60.5 15.5l-99 20q-89 18 -162.5 52t-132.5 85.5t-91.5 127t-32.5 167.5q0 165 109.5 280.5t277.5 147.5v256h231v-256q151 -27 256 -118.5t133 -237.5l-307 -68
q-19 71 -70 108.5t-125 37.5q-66 0 -114.5 -34t-48.5 -97q0 -51 45 -80q39 -31 139 -53l98 -21q184 -37 296 -141t112 -281q0 -181 -115 -301.5t-299 -148.5v-275h-231v279q-155 27 -266 119.5t-150 240.5z" />
    <glyph glyph-name="percent" unicode="%" horiz-adv-x="1574" 
d="M215 0l883 1413h262l-883 -1413h-262zM63 1106q0 139 98 232.5t240 93.5q141 0 239.5 -91t98.5 -233q0 -140 -98 -233t-240 -93q-139 0 -238.5 92t-99.5 232zM836 305q0 139 98 232.5t240 93.5q141 0 239 -91t98 -233q0 -140 -97.5 -232.5t-239.5 -92.5
q-139 0 -238.5 91.5t-99.5 231.5zM1174 430q-50 0 -78.5 -37t-28.5 -88q0 -52 31 -88q27 -37 76 -37q50 0 78 37t28 88q0 50 -29 90q-30 35 -77 35zM295 1106q0 -49 29 -87t77 -38t77.5 38t29.5 87q0 50 -29 87.5t-78 37.5t-77.5 -37.5t-28.5 -87.5z" />
    <glyph glyph-name="ampersand" unicode="&#x26;" horiz-adv-x="1458" 
d="M59 381q0 130 67.5 228.5t188.5 162.5q-72 82 -110.5 157t-38.5 165q0 115 60 205.5t158 138t214 47.5q110 0 203 -41t153 -126t60 -198q0 -230 -269 -381l244 -250q63 130 76 314l285 -23q-30 -286 -164 -493l278 -287h-405l-76 78q-176 -119 -405 -119q-77 0 -151 16
t-140.5 50t-117 83t-80.5 119.5t-30 153.5zM479 600q-86 -67 -86 -172q0 -53 29 -97.5t78 -64.5q50 -24 112 -24q97 0 176 39zM600 1214q-52 0 -85.5 -35t-33.5 -87q0 -72 99 -181q57 31 95 78.5t38 104.5q0 54 -30 87t-83 33z" />
    <glyph glyph-name="quotesingle" unicode="'" horiz-adv-x="512" 
d="M121 870l-15 584h300l-15 -584h-270z" />
    <glyph glyph-name="parenleft" unicode="(" horiz-adv-x="755" 
d="M416 -303q-158 213 -244 461.5t-86 505.5q0 259 85.5 506.5t244.5 459.5h315q-159 -217 -248.5 -464t-89.5 -502q0 -254 89.5 -502.5t248.5 -464.5h-315z" />
    <glyph glyph-name="parenright" unicode=")" horiz-adv-x="755" 
d="M340 -303h-315q337 461 337 967q0 505 -337 966h315q330 -442 330 -966q0 -525 -330 -967z" />
    <glyph glyph-name="asterisk" unicode="*" horiz-adv-x="901" 
d="M303 618l-201 144l191 219l-279 63l74 236l262 -111l-26 285h254l-27 -285l262 111l74 -236l-279 -63l191 -219l-201 -144l-147 248z" />
    <glyph glyph-name="plus" unicode="+" 
d="M156 702h315v320h287v-320h315v-278h-315v-330h-287v330h-315v278z" />
    <glyph glyph-name="comma" unicode="," horiz-adv-x="581" 
d="M180 74q-39 21 -61.5 61.5t-22.5 85.5q0 49 27 90q26 43 67 66q46 22 97 22q76 0 134 -45t86 -112.5t28 -143.5q0 -162 -105 -277.5t-268 -150.5l-53 178q57 11 114 43q107 76 107 166v11q-32 -19 -68 -19q-43 0 -82 25z" />
    <glyph glyph-name="hyphen" unicode="-" horiz-adv-x="761" 
d="M88 420v287h586v-287h-586z" />
    <glyph glyph-name="period" unicode="." horiz-adv-x="581" 
d="M88 195q0 85 58.5 143.5t144.5 58.5q87 0 145 -57.5t58 -144.5q0 -84 -59.5 -143.5t-143.5 -59.5q-83 0 -143 60t-60 143z" />
    <glyph glyph-name="slash" unicode="/" horiz-adv-x="1011" 
d="M12 -242l682 1811h305l-682 -1811h-305z" />
    <glyph glyph-name="zero" unicode="0" horiz-adv-x="1277" 
d="M86 705q0 109 17.5 211t59 199.5t103.5 169t158.5 115.5t216.5 44q117 0 211.5 -42.5t156.5 -113.5t103.5 -167t59.5 -198.5t18 -213.5q0 -109 -17.5 -211t-59 -199.5t-103.5 -169.5t-158.5 -116t-216.5 -44q-117 0 -211.5 43t-156.5 114t-103.5 167.5t-59.5 199
t-18 212.5zM637 1130q-44 0 -79.5 -21.5t-56.5 -59.5t-36 -80.5t-21.5 -94t-9 -90t-2.5 -77.5t2.5 -77.5t9 -90t21.5 -94t36 -81t56.5 -60t79.5 -21.5q45 0 81 21.5t57.5 59.5t36 80t21 94.5t9 90t2.5 78.5t-2.5 78.5t-9 89.5t-21 94t-36 80t-57.5 59.5t-81 21.5z" />
    <glyph glyph-name="one" unicode="1" horiz-adv-x="925" 
d="M403 0v1055l-268 -150l-106 283l420 225h294v-1413h-340z" />
    <glyph glyph-name="two" unicode="2" horiz-adv-x="1173" 
d="M63 1028q36 187 180.5 301.5t338.5 114.5q203 0 344 -128.5t141 -332.5q0 -79 -26 -155t-76 -146t-97.5 -122t-115.5 -116l-82 -73q-39 -36 -86 -74h508v-297h-1010v242q34 29 90.5 76.5t77.5 66.5q52 43 78 65t84 74t92 87t80.5 88t72.5 95t45 90.5t19 90.5
q0 74 -42.5 118t-115.5 44q-71 0 -117.5 -44t-60.5 -116z" />
    <glyph glyph-name="three" unicode="3" horiz-adv-x="1163" 
d="M41 356l313 52q23 -67 78.5 -104.5t126.5 -37.5q55 0 98 21q42 19 67.5 54.5t25.5 80.5q0 88 -93 137q-46 19 -98 19h-147v286h129q74 0 128 38t54 108q0 60 -43 100q-46 37 -115 37q-138 0 -184 -139l-315 51q33 179 180.5 282t337.5 103q90 0 173.5 -25t151 -72.5
t108 -125t40.5 -172.5q0 -102 -50 -182t-141 -128q107 -40 167.5 -127.5t60.5 -203.5q0 -104 -44.5 -189t-118.5 -138.5t-167.5 -82.5t-194.5 -29q-195 0 -341.5 101t-186.5 286z" />
    <glyph glyph-name="four" unicode="4" horiz-adv-x="1247" 
d="M57 272v273l582 868h383v-858h149v-283h-149v-272h-330v272h-635zM369 555h323v479z" />
    <glyph glyph-name="five" unicode="5" horiz-adv-x="1157" 
d="M578 -31q-188 0 -330.5 101.5t-181.5 281.5l319 45q21 -62 71.5 -96.5t116.5 -34.5q81 0 137 49.5t56 130.5q0 107 -92 162q-48 23 -96 23q-47 0 -95 -18t-80 -50l-268 27v823h869v-301h-545v-252q80 53 192 53q197 0 327 -130t130 -330q0 -142 -73 -254t-193 -171
t-264 -59z" />
    <glyph glyph-name="six" unicode="6" horiz-adv-x="1241" 
d="M672 -31q-140 0 -253 56t-185 151.5t-110 218.5t-38 262q0 154 42.5 293.5t123 250.5t211.5 177t295 66q196 0 346 -90l-80 -279q-112 62 -246 62q-152 0 -240 -100.5t-110 -260.5q107 139 303 139q195 0 328 -130t133 -328q0 -140 -71 -252.5t-189.5 -174t-259.5 -61.5z
M657 643q-82 0 -136 -54.5t-54 -137.5q0 -55 27 -99q25 -44 68.5 -70t94.5 -26q82 0 137.5 56t55.5 139q0 85 -53.5 138.5t-139.5 53.5z" />
    <glyph glyph-name="seven" unicode="7" horiz-adv-x="1157" 
d="M221 0l471 1102h-626v311h1007v-256l-473 -1157h-379z" />
    <glyph glyph-name="eight" unicode="8" 
d="M610 -31q-79 0 -155 15t-146.5 48.5t-123.5 82t-85 120t-32 158.5q0 118 61 209t170 137q-88 44 -137 124.5t-49 178.5q0 78 29 145t78 113.5t114 79.5t137 48.5t147 15.5q74 0 144 -14.5t134.5 -46.5t113 -77.5t77.5 -112t29 -146.5q0 -101 -48.5 -180.5t-137.5 -125.5
q110 -44 170.5 -133t60.5 -209q0 -108 -48 -192.5t-127.5 -135t-175.5 -76.5t-200 -26zM614 584q-83 0 -145.5 -43t-62.5 -123q0 -79 62 -120.5t146 -41.5q83 0 146 41t63 121q0 79 -62.5 122.5t-146.5 43.5zM526 1139q-86 -49 -86 -129q0 -42 23.5 -76t62.5 -53
q40 -21 88 -21q50 0 91 21q38 17 60.5 52.5t22.5 76.5q0 85 -83 129q-41 18 -91 18q-48 0 -88 -18z" />
    <glyph glyph-name="nine" unicode="9" horiz-adv-x="1239" 
d="M506 498q-126 0 -231 59t-166.5 164t-61.5 233q0 140 71 253t189.5 175t259.5 62q118 0 215.5 -37.5t165.5 -103.5t114.5 -156t68.5 -193.5t22 -218.5q0 -124 -26 -237t-80.5 -210t-133 -167.5t-190 -111t-244.5 -40.5q-195 0 -354 90l80 279q112 -62 256 -62
q305 0 350 359q-52 -68 -132.5 -102.5t-172.5 -34.5zM389 963q0 -84 53.5 -138.5t137.5 -54.5t138 54t54 139q0 53 -24 100q-62 94 -166 94q-82 0 -137.5 -55.5t-55.5 -138.5z" />
    <glyph glyph-name="colon" unicode=":" horiz-adv-x="581" 
d="M88 897q0 85 58.5 144t144.5 59q87 0 145 -58t58 -145q0 -84 -59.5 -143.5t-143.5 -59.5q-83 0 -143 60t-60 143zM291 -8q-83 0 -143 60t-60 143q0 85 58.5 143.5t144.5 58.5q87 0 145 -57.5t58 -144.5q0 -84 -59.5 -143.5t-143.5 -59.5z" />
    <glyph glyph-name="semicolon" unicode=";" horiz-adv-x="581" 
d="M180 74q-39 21 -61.5 61.5t-22.5 85.5q0 49 27 90q26 43 67 66q46 22 97 22q76 0 134 -45t86 -112.5t28 -143.5q0 -162 -105 -277.5t-268 -150.5l-53 178q57 11 114 43q107 76 107 166v11q-32 -19 -68 -19q-43 0 -82 25zM291 694q-83 0 -143 60t-60 143q0 85 58.5 144
t144.5 59q87 0 145 -58t58 -145q0 -84 -59.5 -143.5t-143.5 -59.5z" />
    <glyph glyph-name="less" unicode="&#x3c;" 
d="M178 430v266l826 330v-283l-517 -174l517 -176v-293z" />
    <glyph glyph-name="equal" unicode="=" 
d="M160 664v272h911v-272h-911zM1071 190h-911v273h911v-273z" />
    <glyph glyph-name="greater" unicode="&#x3e;" 
d="M743 557l-516 176v293l826 -330v-266l-826 -330v283z" />
    <glyph glyph-name="question" unicode="?" horiz-adv-x="1134" 
d="M41 1112q26 117 105.5 203t187.5 128t229 42q98 0 187.5 -27.5t161 -80t114.5 -136t43 -186.5q0 -157 -101.5 -270t-260.5 -160v-146h-320v307q334 80 334 252q0 70 -47 110t-119 40q-66 0 -120.5 -39t-76.5 -102zM352 186q0 84 55.5 139.5t139.5 55.5q52 0 100 -25
q44 -27 70 -69q24 -47 24 -101q0 -84 -55 -139t-139 -55q-56 0 -98 26q-46 24 -70 70q-27 44 -27 98z" />
    <glyph glyph-name="at" unicode="@" horiz-adv-x="2086" 
d="M1049 -414q-159 0 -306 43.5t-266.5 126t-209 195.5t-138.5 260t-49 311q0 203 76 380t207 301.5t312.5 195.5t387.5 71q188 0 359 -61.5t301 -171.5t207 -275.5t77 -361.5q0 -104 -25 -196.5t-74.5 -169t-135 -121.5t-197.5 -45q-101 0 -180 41.5t-117 128.5
q-44 -84 -120.5 -128t-172.5 -44q-122 0 -220 65.5t-150 171t-52 227.5q0 120 49.5 226.5t146.5 175.5t220 69q172 0 264 -139l6 117h260v-576q0 -50 25 -81q22 -31 61 -31q36 0 64.5 23t45 57t27 77.5t14 79t3.5 66.5q0 191 -89.5 338t-243.5 225t-347 78q-203 0 -368 -88
t-261 -250.5t-96 -370.5q0 -197 89 -357.5t250 -253.5t361 -93q222 0 418 102l103 -207q-219 -131 -516 -131zM1038 745q-88 0 -139 -61.5t-51 -151.5q0 -87 52 -148.5t138 -61.5t139.5 61.5t53.5 148.5q0 59 -25 111q-60 102 -168 102z" />
    <glyph glyph-name="A" unicode="A" horiz-adv-x="1583" 
d="M27 0l575 1454h379l575 -1454h-368l-103 283h-600l-102 -283h-356zM784 1112l-190 -530h383z" />
    <glyph glyph-name="B" unicode="B" horiz-adv-x="1284" 
d="M123 1454h553q75 0 143.5 -12t133 -40.5t111 -71t75 -108t28.5 -147.5q0 -207 -174 -305q115 -44 175.5 -136.5t60.5 -217.5q0 -87 -31 -158.5t-83 -118.5t-123 -79t-147.5 -46t-158.5 -14h-563v1454zM463 283h209q92 0 149.5 39t57.5 127t-57 127.5t-150 39.5h-209v-333
zM463 877h174q80 0 131 34.5t51 110.5q0 78 -50.5 113.5t-131.5 35.5h-174v-294z" />
    <glyph glyph-name="C" unicode="C" horiz-adv-x="1531" 
d="M80 717q0 157 54 299t149 248t234 168.5t300 62.5q231 0 408.5 -122t240.5 -341l-348 -78q-46 100 -123.5 156.5t-183.5 56.5q-87 0 -157.5 -38.5t-114 -102.5t-67 -142.5t-23.5 -162.5q0 -83 23.5 -159.5t67.5 -138.5t115.5 -99t159.5 -37q110 0 190.5 56t127.5 157
l348 -78q-41 -147 -141.5 -253t-235.5 -158t-289 -52q-209 0 -378 99.5t-263 272.5t-94 386z" />
    <glyph glyph-name="D" unicode="D" horiz-adv-x="1570" 
d="M123 1454h596q161 0 301.5 -49.5t245 -141t165 -229.5t60.5 -305q0 -217 -102 -384.5t-277.5 -256t-396.5 -88.5h-592v1454zM479 315h217q193 0 309.5 109t116.5 303q0 193 -114.5 302.5t-311.5 109.5h-217v-824z" />
    <glyph glyph-name="E" unicode="E" horiz-adv-x="1185" 
d="M123 1454h940v-297h-592v-266h522v-297h-522v-297h612v-297h-960v1454z" />
    <glyph glyph-name="F" unicode="F" horiz-adv-x="1122" 
d="M123 1454h919v-307h-567v-305h498v-305h-498v-537h-352v1454z" />
    <glyph glyph-name="G" unicode="G" horiz-adv-x="1652" 
d="M80 723q0 161 58.5 304t160.5 246t246.5 162.5t308.5 59.5q226 0 400 -103t266 -305l-349 -100q-102 184 -317 184q-180 0 -292.5 -128t-112.5 -314q0 -190 114.5 -318t304.5 -128q128 0 224.5 65t121.5 187h-329v286h696v-166q0 -205 -95.5 -364.5t-261.5 -245.5
t-374 -86q-161 0 -303 57t-245 157t-162.5 243t-59.5 307z" />
    <glyph glyph-name="H" unicode="H" horiz-adv-x="1540" 
d="M123 1454h356v-545h582v545h356v-1454h-356v594h-582v-594h-356v1454z" />
    <glyph glyph-name="I" unicode="I" horiz-adv-x="602" 
d="M123 0v1454h356v-1454h-356z" />
    <glyph glyph-name="J" unicode="J" horiz-adv-x="1157" 
d="M537 -31q-200 0 -333.5 110.5t-185.5 311.5l349 62q46 -164 163 -164q79 0 119.5 55.5t40.5 136.5v973h357v-958q0 -230 -139 -378.5t-371 -148.5z" />
    <glyph glyph-name="K" unicode="K" horiz-adv-x="1464" 
d="M123 1454h356v-639l488 639h409l-538 -674l612 -780h-455l-516 700v-700h-356v1454z" />
    <glyph glyph-name="L" unicode="L" horiz-adv-x="1128" 
d="M123 0v1454h356v-1139h574v-315h-930z" />
    <glyph glyph-name="M" unicode="M" horiz-adv-x="1767" 
d="M123 1454h348l416 -776l418 776h340v-1454h-342v852l-295 -549h-248l-295 549v-852h-342v1454z" />
    <glyph glyph-name="N" unicode="N" horiz-adv-x="1519" 
d="M123 1454h305l627 -889v889h342v-1454h-305l-627 889v-889h-342v1454z" />
    <glyph glyph-name="O" unicode="O" horiz-adv-x="1695" 
d="M846 -41q-161 0 -302.5 57.5t-243.5 158.5t-161 243.5t-59 306.5q0 162 57.5 304t158.5 244.5t245 162t309 59.5q161 0 303 -57.5t244 -158t160.5 -243.5t58.5 -307q0 -161 -58 -303.5t-159 -245t-245 -162t-308 -59.5zM449 727q0 -117 46.5 -216t139 -161.5t213.5 -62.5
q120 0 212 60t139.5 159.5t47.5 220.5q0 118 -46 217t-138.5 161t-214.5 62q-179 0 -289 -127.5t-110 -312.5z" />
    <glyph glyph-name="P" unicode="P" horiz-adv-x="1249" 
d="M123 0v1454h491q124 0 228 -29t186 -87.5t128 -157.5t46 -230q0 -119 -47 -215.5t-127.5 -157.5t-184.5 -93.5t-222 -32.5q-71 0 -148 12v-463h-350zM473 1157v-399q78 -10 131 -10q109 0 174.5 49.5t65.5 154.5q0 104 -64.5 154.5t-171.5 50.5h-135z" />
    <glyph glyph-name="Q" unicode="Q" horiz-adv-x="1695" 
d="M831 -41q-157 0 -296.5 59.5t-239 161.5t-157.5 244t-58 301q0 161 58.5 303t159.5 245t244.5 162.5t307.5 59.5q156 0 297 -56.5t244.5 -155t164 -239.5t60.5 -301q0 -146 -53.5 -283.5t-151.5 -244.5l164 -205l-232 -186l-172 213q-162 -78 -340 -78zM848 1167
q-179 0 -289 -127.5t-110 -312.5q0 -119 47 -218.5t140 -160.5t216 -61q64 0 113 14l-220 272l224 181l219 -273q59 102 59 240q0 120 -45.5 220t-137.5 163t-216 63z" />
    <glyph glyph-name="R" unicode="R" horiz-adv-x="1316" 
d="M123 0v1454h493q93 0 177.5 -16t161.5 -52t133 -90t89 -136t33 -183q0 -124 -64.5 -231t-172.5 -173l321 -573h-389l-239 479q-23 -2 -68 -2q-50 0 -125 10v-487h-350zM473 1157v-377q67 -12 143 -12q103 0 169.5 49t66.5 148q0 100 -68 146t-174 46h-137z" />
    <glyph glyph-name="S" unicode="S" horiz-adv-x="1189" 
d="M592 -31q-129 0 -242.5 44.5t-197 136.5t-111.5 219l330 65q58 -162 223 -162q72 0 130 38t58 106q0 31 -16 56.5t-36 40.5t-55.5 28.5t-56 18.5t-55.5 13l-55 13q-72 16 -133 39.5t-117 60.5t-95 83t-62 110t-23 139q0 139 74 247t192.5 164t257.5 56
q194 0 332.5 -100.5t181.5 -288.5l-323 -66q-55 152 -195 152q-66 0 -116 -35t-50 -98q0 -43 30 -73.5t75 -43.5q52 -19 110 -33l53 -12q61 -14 113.5 -33t103.5 -45t90 -61t69.5 -78t46.5 -98.5t16 -120.5q0 -110 -44.5 -202.5t-120 -153t-174 -93.5t-208.5 -33z" />
    <glyph glyph-name="T" unicode="T" horiz-adv-x="1306" 
d="M78 1139v315h1151v-315h-398v-1139h-356v1139h-397z" />
    <glyph glyph-name="U" unicode="U" horiz-adv-x="1515" 
d="M111 1454h356v-840q0 -141 75.5 -234t215.5 -93t215.5 91.5t75.5 235.5v840h356v-856q0 -291 -176.5 -465t-474.5 -174q-289 0 -466 172.5t-177 466.5v856z" />
    <glyph glyph-name="V" unicode="V" horiz-adv-x="1540" 
d="M27 1454h395l356 -1057l357 1057h378l-548 -1454h-390z" />
    <glyph glyph-name="W" unicode="W" horiz-adv-x="2166" 
d="M55 1454h373l242 -985l260 985h319l260 -983l240 983h362l-434 -1454h-331l-261 985l-260 -985h-336z" />
    <glyph glyph-name="X" unicode="X" horiz-adv-x="1449" 
d="M14 0l512 768l-450 686h395l258 -440l256 440h387l-450 -690l514 -764h-414l-305 506l-301 -506h-402z" />
    <glyph glyph-name="Y" unicode="Y" horiz-adv-x="1400" 
d="M16 1454h404l287 -563l286 563h391l-505 -895v-559h-357v559z" />
    <glyph glyph-name="Z" unicode="Z" horiz-adv-x="1329" 
d="M70 0v252l706 903h-676v299h1125v-252l-709 -903h754v-299h-1200z" />
    <glyph glyph-name="bracketleft" unicode="[" horiz-adv-x="780" 
d="M143 1630h555v-256h-260v-1421h260v-256h-555v1933z" />
    <glyph glyph-name="backslash" unicode="\" horiz-adv-x="1011" 
d="M694 -242l-682 1811h305l682 -1811h-305z" />
    <glyph glyph-name="bracketright" unicode="]" horiz-adv-x="780" 
d="M342 1374h-260v256h555v-1933h-555v256h260v1421z" />
    <glyph glyph-name="asciicircum" unicode="^" 
d="M123 690l348 723h289l348 -723h-309l-189 412l-190 -412h-297z" />
    <glyph glyph-name="underscore" unicode="_" horiz-adv-x="1251" 
d="M61 -358v245h1129v-245h-1129z" />
    <glyph glyph-name="grave" unicode="`" 
d="M602 1239l-287 293h369l229 -293h-311z" />
    <glyph glyph-name="a" unicode="a" horiz-adv-x="1159" 
d="M53 309q0 71 26 130.5t69.5 100t102 68.5t122.5 41t131 13q116 0 227 -44v56q0 81 -44.5 128.5t-125.5 47.5q-57 0 -103 -26t-67 -76l-299 51q22 101 98 176.5t174 111t203 35.5q211 0 349.5 -126t138.5 -339v-657h-299l-8 129q-43 -79 -129.5 -119.5t-184.5 -40.5
q-75 0 -143.5 23.5t-121.5 65.5t-84.5 107.5t-31.5 143.5zM381 330q0 -54 44 -83.5t101 -29.5q86 0 145.5 52t59.5 137v10q-83 35 -166 35q-44 0 -82.5 -9.5t-70 -38t-31.5 -73.5z" />
    <glyph glyph-name="b" unicode="b" horiz-adv-x="1325" 
d="M104 1532h334v-571q56 77 143 119t185 42q111 0 205 -48.5t155.5 -128.5t96 -182t34.5 -210q0 -111 -35.5 -215.5t-100 -187t-163 -132t-215.5 -49.5q-98 0 -184 43.5t-139 124.5l-8 -137h-308v1532zM434 545q0 -80 33 -139q30 -64 86 -99q52 -37 123 -37q108 0 175 81.5
t67 193.5q0 76 -31 143q-34 61 -86 98q-56 35 -125 35q-110 0 -176 -81.5t-66 -194.5z" />
    <glyph glyph-name="c" unicode="c" horiz-adv-x="1189" 
d="M623 -31q-237 0 -396 163t-159 405q0 119 41.5 226t114.5 186.5t179 126t228 46.5q186 0 321.5 -101.5t177.5 -281.5l-323 -53q-59 135 -182 135q-70 0 -121 -43t-73.5 -104.5t-22.5 -130.5q0 -68 22.5 -128.5t73.5 -102.5t121 -42q68 0 117.5 36t74.5 100l324 -54
q-25 -117 -103 -205.5t-186 -133t-229 -44.5z" />
    <glyph glyph-name="d" unicode="d" horiz-adv-x="1325" 
d="M559 -31q-109 0 -203 49t-156 130t-97 182.5t-35 208.5q0 112 35.5 216.5t100 186.5t163 131t215.5 49q93 0 173 -36t132 -107v553h334v-1532h-308l-10 156q-57 -88 -148.5 -137.5t-195.5 -49.5zM408 547q0 -84 32 -141q29 -62 85.5 -99t123.5 -37q109 0 175.5 82
t66.5 195q0 112 -65.5 193t-176.5 81q-108 0 -174.5 -81t-66.5 -193z" />
    <glyph glyph-name="e" unicode="e" horiz-adv-x="1220" 
d="M629 -31q-248 0 -404.5 163.5t-156.5 416.5q0 155 68.5 285.5t195.5 209t286 78.5q167 0 292 -77t189 -209.5t64 -303.5v-73h-753q20 -95 75.5 -152t147.5 -57q66 0 114.5 25.5t90.5 80.5l305 -80q-42 -98 -124 -169t-181.5 -104.5t-208.5 -33.5zM618 872
q-87 0 -138 -54.5t-70 -145.5h409q-15 91 -64.5 145.5t-136.5 54.5z" />
    <glyph glyph-name="f" unicode="f" horiz-adv-x="864" 
d="M39 1092h180v57q0 185 117.5 299.5t306.5 114.5q123 0 225 -54l-59 -247q-54 28 -111 28q-73 0 -109 -42.5t-36 -117.5v-38h268v-271h-268v-821h-334v821h-180v271z" />
    <glyph glyph-name="g" unicode="g" horiz-adv-x="1304" 
d="M68 573q0 106 37 205t101 175.5t159 122.5t204 46q97 0 179.5 -39.5t136.5 -115.5l8 125h307v-949q0 -252 -156 -408.5t-413 -156.5q-172 0 -311.5 77.5t-204.5 227.5l327 70q66 -100 193 -100q109 0 170 70.5t61 182.5v84q-58 -73 -141.5 -112t-177.5 -39
q-103 0 -193.5 45.5t-152.5 120t-97.5 171t-35.5 197.5zM639 831q-101 0 -166 -72.5t-65 -176.5q0 -103 64 -177.5t167 -74.5q102 0 166.5 73.5t64.5 178.5q0 103 -64 176t-167 73z" />
    <glyph glyph-name="h" unicode="h" 
d="M104 0v1532h334v-559q51 73 129.5 111t171.5 38q127 0 216.5 -65.5t130 -168t40.5 -229.5v-659h-333v612q0 96 -43 154q-46 55 -123 55q-83 0 -136 -59t-53 -144v-618h-334z" />
    <glyph glyph-name="i" unicode="i" horiz-adv-x="542" 
d="M104 0v1092h334v-1092h-334zM111 1286q-25 42 -25 92t25 92q23 42 67 66.5t92 24.5q51 0 94.5 -24t69.5 -67q23 -44 23 -92t-23 -92q-26 -43 -69.5 -66.5t-94.5 -23.5q-48 0 -92 24t-67 66z" />
    <glyph glyph-name="j" unicode="j" horiz-adv-x="552" 
d="M-150 -369l60 250q6 -3 45 -16q27 -6 47 -6q54 0 84 35q29 40 29 102v1096h334v-1112q0 -177 -103.5 -289.5t-282.5 -112.5q-118 0 -213 53zM96 1378q0 50 25 92q23 42 67.5 66.5t92.5 24.5q106 0 163 -91q23 -44 23 -92t-23 -92q-56 -90 -163 -90q-49 0 -93 24t-67 66
q-25 42 -25 92z" />
    <glyph glyph-name="k" unicode="k" 
d="M104 1532h334v-877l361 437h379l-418 -484l467 -608h-412l-377 537v-537h-334v1532z" />
    <glyph glyph-name="l" unicode="l" horiz-adv-x="542" 
d="M104 0v1532h334v-1532h-334z" />
    <glyph glyph-name="m" unicode="m" horiz-adv-x="1894" 
d="M104 1092h308l10 -144q49 84 128.5 129t176.5 45q108 0 190.5 -51t129.5 -147q56 96 149 147t205 51q98 0 174 -38t122 -103.5t69.5 -149t23.5 -180.5v-651h-334v610q0 56 -14.5 101.5t-52.5 77.5t-95 32q-51 0 -92 -27t-63 -73q-25 -48 -25 -107v-614h-334v610
q0 56 -14.5 101.5t-52.5 77.5t-95 32q-51 0 -92 -27t-63 -73q-25 -48 -25 -107v-614h-334v1092z" />
    <glyph glyph-name="n" unicode="n" 
d="M104 1092h308l10 -144q48 84 132 129t185 45q127 0 216.5 -65.5t130 -168t40.5 -229.5v-659h-333v612q0 96 -43 154q-46 55 -123 55q-83 0 -136 -59t-53 -144v-618h-334v1092z" />
    <glyph glyph-name="o" unicode="o" horiz-adv-x="1298" 
d="M68 543q0 163 76 295.5t210 208t299 75.5q161 0 293.5 -73.5t208.5 -205.5t76 -296q0 -163 -76.5 -295.5t-210.5 -207.5t-299 -75q-161 0 -292.5 73t-208 205t-76.5 296zM649 821q-109 0 -175 -81.5t-66 -194.5q0 -82 32 -139q29 -62 85.5 -99t123.5 -37q108 0 175 82
t67 193q0 76 -31 143q-73 133 -211 133z" />
    <glyph glyph-name="p" unicode="p" horiz-adv-x="1325" 
d="M104 1092h308l10 -156q58 89 148 137.5t196 48.5q111 0 205 -48.5t155.5 -128.5t96 -182t34.5 -210q0 -111 -35.5 -215.5t-100 -187t-163 -132t-215.5 -49.5q-92 0 -172.5 36.5t-132.5 107.5v-504h-334v1483zM676 821q-110 0 -176 -81.5t-66 -194.5q0 -80 33 -139
q30 -64 86 -99q52 -37 123 -37q108 0 175 81.5t67 193.5q0 76 -31 143q-34 61 -86 98q-56 35 -125 35z" />
    <glyph glyph-name="q" unicode="q" horiz-adv-x="1325" 
d="M559 -31q-109 0 -203 49t-156 130t-97 182.5t-35 208.5q0 112 35.5 216.5t100 186.5t163 131t215.5 49q215 0 323 -168l8 138h308v-1483h-334v522q-56 -77 -143 -119.5t-185 -42.5zM408 547q0 -84 32 -141q29 -62 85.5 -99t123.5 -37q109 0 175.5 82t66.5 195
q0 112 -65.5 193t-176.5 81q-108 0 -174.5 -81t-66.5 -193z" />
    <glyph glyph-name="r" unicode="r" horiz-adv-x="831" 
d="M104 1092h308l12 -174q40 89 108 138.5t162 49.5q56 0 101 -19l-33 -331q-31 14 -94 14q-230 0 -230 -252v-518h-334v1092z" />
    <glyph glyph-name="s" unicode="s" horiz-adv-x="1034" 
d="M41 270l307 56q21 -51 68 -78t104 -27q32 0 60.5 7.5t51.5 29t23 55.5q0 41 -37 62q-44 23 -131 37l-49 8q-74 13 -136 37.5t-116 64t-85 100.5t-31 138q0 116 64.5 200t162.5 123t213 39q103 0 192 -29.5t160.5 -97.5t98.5 -166l-306 -55q-17 45 -55 72q-40 24 -90 24
q-49 0 -85 -20.5t-36 -65.5q0 -34 35 -55q37 -22 129 -37l49 -8q60 -11 111.5 -27.5t101.5 -44.5t84.5 -64t56 -88.5t21.5 -115.5q0 -91 -39 -164.5t-104.5 -118.5t-146 -68.5t-169.5 -23.5q-106 0 -200 30.5t-170.5 100.5t-106.5 170z" />
    <glyph glyph-name="t" unicode="t" horiz-adv-x="919" 
d="M39 1092h180v372h334v-372h281v-273h-281v-416q0 -147 125 -147q63 0 143 35l51 -254q-127 -68 -270 -68q-186 0 -284.5 103.5t-98.5 289.5v457h-180v273z" />
    <glyph glyph-name="u" unicode="u" horiz-adv-x="1224" 
d="M104 1092h334v-607q0 -92 43 -153.5t131 -61.5q89 0 131.5 60t42.5 155v607h334v-600q0 -233 -136.5 -378t-373.5 -145q-231 0 -368.5 143.5t-137.5 379.5v600z" />
    <glyph glyph-name="v" unicode="v" horiz-adv-x="1179" 
d="M16 1092h367l211 -719l215 719h354l-403 -1092h-340z" />
    <glyph glyph-name="w" unicode="w" horiz-adv-x="1755" 
d="M377 0l-361 1092h349l172 -691l196 691h295l197 -695l178 695h336l-361 -1092h-309l-192 684l-195 -684h-305z" />
    <glyph glyph-name="x" unicode="x" horiz-adv-x="1222" 
d="M23 0l399 578l-354 514h381l163 -291l170 291h373l-354 -517l399 -575h-399l-193 336l-196 -336h-389z" />
    <glyph glyph-name="y" unicode="y" horiz-adv-x="1179" 
d="M16 1092h367l225 -717l201 717h354l-434 -1170q-29 -77 -64.5 -136.5t-84.5 -108t-115.5 -74t-147.5 -25.5q-129 0 -213 51l60 256q65 -26 115 -26q63 0 101 36.5t64 102.5l9 18z" />
    <glyph glyph-name="z" unicode="z" horiz-adv-x="1097" 
d="M76 0v221l495 602h-479v269h895v-222l-495 -602h530v-268h-946z" />
    <glyph glyph-name="braceleft" unicode="{" horiz-adv-x="815" 
d="M61 543v241h31q63 0 97 31.5t34 93.5q0 35 -6 88q-24 134 -24 240q0 198 121 295.5t325 97.5h94v-256h-67q-89 0 -130.5 -44.5t-41.5 -135.5q0 -47 8 -94q7 -65 14 -101q8 -44 8 -90q0 -79 -38.5 -149t-106.5 -96q78 -31 127 -138q18 -52 18 -108q0 -46 -8 -90
q-7 -36 -14 -101q-8 -47 -8 -94q0 -91 41.5 -135.5t130.5 -44.5h67v-256h-94q-204 0 -325 97.5t-121 295.5q0 105 24 242q6 53 6 86q0 62 -34 93.5t-97 31.5h-31z" />
    <glyph glyph-name="bar" unicode="|" horiz-adv-x="579" 
d="M143 -242v1811h293v-1811h-293z" />
    <glyph glyph-name="braceright" unicode="}" horiz-adv-x="815" 
d="M176 -303h-94v256h68q88 0 131 43q41 47 41 137q0 33 -7 94q-3 16 -8 49.5t-8 51.5q-8 44 -8 90q0 77 39 148.5t106 97.5q-86 35 -125 139q-20 47 -20 106q0 46 8 90q3 18 8 51.5t8 49.5q7 61 7 94q0 90 -41 137q-43 43 -131 43h-68v256h94q206 0 326.5 -96.5
t120.5 -296.5q0 -63 -9 -125q-5 -34 -14 -115q-8 -47 -8 -88q0 -60 35 -92.5t96 -32.5h31v-241h-31q-61 0 -96 -32.5t-35 -92.5q0 -39 8 -86q10 -88 14 -115q9 -64 9 -127q0 -200 -120.5 -296.5t-326.5 -96.5z" />
    <glyph glyph-name="asciitilde" unicode="~" 
d="M379 360h-266q5 76 24 145t55 131.5t98 100t142 37.5q116 0 234 -92q69 -51 102 -51q64 0 82 127h266q-5 -76 -24 -145t-55 -131.5t-98 -100t-142 -37.5q-110 0 -234 94q-66 49 -102 49q-64 0 -82 -127z" />
    <glyph glyph-name="uni00A0" unicode="&#xa0;" horiz-adv-x="421" 
 />
    <glyph glyph-name="exclamdown" unicode="&#xa1;" horiz-adv-x="565" 
d="M463 -362h-361l21 974h319zM88 905q0 84 55.5 139.5t139.5 55.5q108 0 170 -94q24 -46 24 -101q0 -82 -55.5 -138t-138.5 -56q-52 0 -98 25.5t-70 70.5q-27 43 -27 98z" />
    <glyph glyph-name="cent" unicode="&#xa2;" 
d="M84 535q0 204 119 361t319 202v229h232v-227q146 -23 253.5 -121.5t139.5 -241.5l-324 -53q-59 135 -182 135q-70 0 -121 -43t-73.5 -104.5t-22.5 -130.5q0 -68 22.5 -128.5t73.5 -102.5t121 -42q66 0 118 36.5t75 98.5l323 -53q-33 -144 -143 -239.5t-260 -122.5v-267
h-232v267q-199 44 -318.5 192.5t-119.5 354.5z" />
    <glyph glyph-name="sterling" unicode="&#xa3;" 
d="M49 807h158l14 178q18 207 142.5 333t332.5 126q189 0 317.5 -104t160.5 -291l-322 -52q-27 140 -152 140q-69 0 -105 -42t-42 -114l-14 -174h317v-250h-338l-20 -260h669v-297h-1116v297h113l22 260h-137v250z" />
    <glyph glyph-name="currency" unicode="&#xa4;" 
d="M84 1108l168 168l160 -162q44 26 98 41q53 12 106 12q56 0 109 -12q50 -14 96 -41l160 162l168 -168l-158 -160q56 -92 56 -203q0 -110 -56 -202l158 -160l-168 -168l-160 162q-48 -28 -96 -39q-49 -14 -109 -14q-57 0 -106 14q-51 12 -98 39l-160 -162l-168 168l158 160
q-56 92 -56 202q0 111 56 203zM465 745q0 -50 20 -86q17 -37 53.5 -59t77.5 -22q68 0 110 48.5t42 118.5q0 49 -18 89q-48 79 -134 79q-69 0 -110 -48.5t-41 -119.5z" />
    <glyph glyph-name="yen" unicode="&#xa5;" 
d="M18 1413h377l230 -539l223 539h366l-356 -684h217v-186h-291v-137h291v-187h-291v-219h-335v219h-291v187h291v137h-291v186h217z" />
    <glyph glyph-name="section" unicode="&#xa7;" horiz-adv-x="1069" 
d="M528 -195q-107 0 -199.5 29t-168.5 97t-111 167l305 56q24 -50 73 -75.5t108 -25.5q61 0 102 27q39 23 39 67q0 84 -174 111l-84 12q-72 11 -133 33.5t-112.5 60.5t-80.5 96.5t-29 133.5q0 182 175 278q-148 95 -148 254q0 70 25.5 129.5t69 101t101 71t121 43.5
t130.5 14q161 0 283 -71.5t167 -217.5l-301 -55q-43 94 -154 94q-48 0 -87 -22.5t-39 -67.5q0 -41 38 -64q41 -24 127 -39l107 -16q71 -12 128.5 -34.5t107.5 -58.5t78 -93t28 -129q0 -95 -47 -168.5t-133 -116.5q153 -92 153 -258q0 -158 -129 -262q-140 -101 -336 -101z
M362 657q0 -100 148 -127l31 -6q8 -2 22 -2q6 -2 17 -2q62 0 101.5 30.5t39.5 90.5q0 100 -148 127l-30 6q-4 1 -11 2t-10 2q-160 0 -160 -121z" />
    <glyph glyph-name="dieresis" unicode="&#xa8;" 
d="M385 1208q-73 0 -122.5 48.5t-49.5 121.5q0 72 49.5 121t122.5 49t122.5 -48.5t49.5 -121.5q0 -72 -49.5 -121t-122.5 -49zM844 1208q-73 0 -122.5 48.5t-49.5 121.5q0 72 49.5 121t122.5 49t122.5 -48.5t49.5 -121.5q0 -72 -49.5 -121t-122.5 -49z" />
    <glyph glyph-name="copyright" unicode="&#xa9;" horiz-adv-x="1720" 
d="M860 -43q-213 0 -389.5 100t-278.5 277t-102 393q0 213 100 389t277 277.5t393 101.5q214 0 390 -99t278 -275.5t102 -393.5q0 -214 -99.5 -390t-276.5 -278t-394 -102zM287 727q0 -157 74 -292t206.5 -215.5t292.5 -80.5q159 0 291 78.5t207.5 213.5t75.5 296
q0 158 -74.5 292.5t-207 214t-292.5 79.5q-158 0 -290 -78.5t-207.5 -213t-75.5 -294.5zM465 729q0 176 116 298t293 122q133 0 232.5 -78t126.5 -209l-240 -41q-14 41 -46 67.5t-73 26.5q-39 0 -75 -22q-31 -22 -51 -66q-21 -41 -21 -94q0 -72 39 -125t108 -53q40 0 76 25
q36 22 51 69l240 -41q-23 -128 -131.5 -207t-243.5 -79q-170 0 -285.5 117t-115.5 290z" />
    <glyph glyph-name="ordfeminine" unicode="&#xaa;" horiz-adv-x="884" 
d="M334 623q-110 0 -188 64.5t-78 172.5q0 63 27 112.5t72.5 78t101 43t116.5 14.5q32 0 78 -4q35 -6 72 -21v37q0 47 -29 84q-31 31 -76 31q-36 0 -63 -18q-30 -23 -39 -50l-234 37q25 109 124 169.5t218 60.5q153 0 251.5 -87t98.5 -241v-461h-231l-6 80
q-65 -102 -215 -102zM434 954q-45 0 -78.5 -19t-33.5 -61q0 -33 24 -51q21 -18 62 -18q54 0 90.5 34.5t36.5 88.5v6q-44 20 -101 20z" />
    <glyph glyph-name="guillemotleft" unicode="&#xab;" horiz-adv-x="1142" 
d="M791 186l-271 398l271 397h280l-260 -397l260 -398h-280zM41 584l270 397h281l-260 -397l260 -398h-281z" />
    <glyph glyph-name="logicalnot" unicode="&#xac;" 
d="M156 522v279h878v-608h-286v329h-592z" />
    <glyph glyph-name="registered" unicode="&#xae;" horiz-adv-x="1097" 
d="M82 1014q0 197 133 329t334 132q130 0 236.5 -58.5t168.5 -164.5t62 -238q0 -197 -134 -329t-333 -132q-197 0 -332 131t-135 330zM209 1014q0 -71 27 -133q23 -60 71.5 -109t108.5 -72q59 -26 133 -26q144 0 242 96.5t98 243.5q0 68 -25 135q-29 66 -71.5 108.5
t-108.5 71.5q-67 25 -135 25q-144 0 -242 -96.5t-98 -243.5zM369 780v475h176q85 0 142.5 -38.5t57.5 -120.5q0 -38 -20.5 -75.5t-52.5 -57.5l96 -183h-145l-68 146h-14q-25 0 -39 2v-148h-133zM502 1038q6 -2 20 -2q6 -2 25 -2q27 0 44 15.5t17 42.5q0 51 -65 51h-41v-105z
" />
    <glyph glyph-name="macron" unicode="&#xaf;" 
d="M279 1247v215h671v-215h-671z" />
    <glyph glyph-name="degree" unicode="&#xb0;" horiz-adv-x="782" 
d="M37 1198q0 141 105 241.5t249 100.5q143 0 248.5 -99t105.5 -243t-104 -243t-250 -99q-143 0 -248.5 99t-105.5 243zM391 1337q-56 0 -91.5 -41t-35.5 -98q0 -56 35.5 -97.5t91.5 -41.5t91.5 41t35.5 98q0 58 -35 98.5t-92 40.5z" />
    <glyph glyph-name="plusminus" unicode="&#xb1;" 
d="M479 662h-305v262h305v284h273v-284h305v-262h-305v-295h-273v295zM195 0v270h841v-270h-841z" />
    <glyph glyph-name="acute" unicode="&#xb4;" 
d="M315 1239l230 293h368l-286 -293h-312z" />
    <glyph glyph-name="paragraph" unicode="&#xb6;" horiz-adv-x="1214" 
d="M70 954q0 126 45 223.5t125 157t184.5 89.5t230.5 30h72v-1642h-203v647q-207 32 -330.5 160t-123.5 335zM1081 -188h-204v1642h204v-1642z" />
    <glyph glyph-name="periodcentered" unicode="&#xb7;" horiz-adv-x="581" 
d="M88 565q0 85 58.5 144t144.5 59q87 0 145 -58t58 -145q0 -84 -59.5 -143.5t-143.5 -59.5q-83 0 -143 60t-60 143z" />
    <glyph glyph-name="cedilla" unicode="&#xb8;" 
d="M553 -467q-83 0 -174 33l27 166q39 -13 57 -17q36 -4 47 -4q38 0 65 17q23 16 23 45q0 63 -121 63l70 187h203l-35 -101q61 -21 99 -68t38 -108q0 -55 -28 -98t-73.5 -67t-96 -36t-101.5 -12z" />
    <glyph glyph-name="ordmasculine" unicode="&#xba;" horiz-adv-x="952" 
d="M479 623q-114 0 -210 51t-153 144.5t-57 209.5q0 173 120.5 289.5t295.5 116.5q177 0 298.5 -114t121.5 -292q0 -174 -119 -289.5t-297 -115.5zM344 1116q-20 -39 -20 -88t20 -88q19 -38 55 -60t78 -22q43 0 79 22t56 60q19 43 19 88t-19 88q-43 82 -135 82
q-96 0 -133 -82z" />
    <glyph glyph-name="guillemotright" unicode="&#xbb;" horiz-adv-x="1142" 
d="M811 584l-260 397h280l271 -397l-271 -398h-280zM72 186l260 398l-260 397h280l271 -397l-271 -398h-280z" />
    <glyph glyph-name="onequarter" unicode="&#xbc;" horiz-adv-x="1665" 
d="M518 0h-246l902 1413h245zM958 311l310 467h254v-463h75v-172h-75v-143h-215v143h-349v168zM94 1284l240 129h198v-778h-225v547l-147 -80zM1153 315h154v230z" />
    <glyph glyph-name="onehalf" unicode="&#xbd;" horiz-adv-x="1665" 
d="M485 0h-245l901 1413h245zM995 553q18 107 104 173.5t197 66.5q116 0 199.5 -68.5t83.5 -183.5q0 -50 -18 -97.5t-52.5 -89.5t-66.5 -72t-78 -67q-5 -4 -16.5 -12.5t-16.5 -12.5h262v-190h-585v152q55 43 67 53l76 63q40 32 59 51q142 125 142 205q0 35 -18 55.5
t-52 20.5q-31 0 -52.5 -22t-27.5 -54zM160 1102l-66 182l240 129h198v-778h-225v547z" />
    <glyph glyph-name="threequarters" unicode="&#xbe;" horiz-adv-x="1665" 
d="M530 0h-245l901 1413h246zM958 311l310 467h254v-463h75v-172h-75v-143h-215v143h-349v168zM360 616q-110 0 -196 57t-111 161l203 30q20 -59 94 -59q43 0 66 20q22 22 22 49q0 33 -25 49.5t-59 16.5h-78v176h64q41 0 63 19q21 15 21 43q0 27 -21 45q-22 16 -53 16
q-27 0 -48 -14.5t-30 -40.5l-204 33q19 101 104 155.5t193 54.5q71 0 131 -21.5t102.5 -73t42.5 -124.5q0 -112 -109 -170q130 -52 130 -182q0 -77 -46 -133t-113 -81.5t-143 -25.5zM1153 315h154v230z" />
    <glyph glyph-name="questiondown" unicode="&#xbf;" horiz-adv-x="1081" 
d="M559 -393q-98 0 -187.5 27.5t-161 80t-114.5 136t-43 186.5q0 156 102 269.5t261 160.5v145h319v-307q-334 -80 -334 -252q0 -68 48 -108.5t118 -40.5q71 0 122.5 37t74.5 104l317 -65q-26 -118 -105 -204t-186.5 -127.5t-230.5 -41.5zM381 905q0 84 55 139.5t139 55.5
q53 0 101 -25q43 -26 69 -69q25 -48 25 -101q0 -83 -55 -138.5t-140 -55.5q-56 0 -98 26q-45 23 -69 70q-27 43 -27 98z" />
    <glyph glyph-name="Agrave" unicode="&#xc0;" horiz-adv-x="1583" 
d="M27 0l575 1454h379l575 -1454h-368l-103 283h-600l-102 -283h-356zM702 1602l-358 282h414l284 -282h-340zM594 582h383l-193 530z" />
    <glyph glyph-name="Aacute" unicode="&#xc1;" horiz-adv-x="1583" 
d="M27 0l575 1454h379l575 -1454h-368l-103 283h-600l-102 -283h-356zM879 1602h-340l284 282h414zM594 582h383l-193 530z" />
    <glyph glyph-name="Acircumflex" unicode="&#xc2;" horiz-adv-x="1583" 
d="M383 0h-356l575 1454h379l575 -1454h-368l-103 283h-600zM643 1602h-315l305 282h317l305 -282h-325l-142 116zM784 1112l-190 -530h383z" />
    <glyph glyph-name="Atilde" unicode="&#xc3;" horiz-adv-x="1583" 
d="M383 0h-356l575 1454h379l575 -1454h-368l-103 283h-600zM373 1604q7 82 36 149t89.5 113.5t144.5 46.5q50 0 82 -10.5t82 -38.5q81 -52 119 -52q35 0 55 25.5t25 63.5h204q-6 -61 -24 -114t-49 -98t-82 -71.5t-115 -26.5q-87 0 -164 51q-13 7 -34 19.5t-27 15.5
q-30 15 -58 15q-34 0 -54 -25.5t-25 -62.5h-205zM594 582h383l-193 530z" />
    <glyph glyph-name="Adieresis" unicode="&#xc4;" horiz-adv-x="1583" 
d="M27 0l575 1454h379l575 -1454h-368l-103 283h-600l-102 -283h-356zM379 1659q-25 42 -25 90t25 90q21 41 63 66q42 22 90 22q49 0 91 -22q40 -24 65 -66q23 -44 23 -90t-23 -90q-26 -44 -65 -64q-40 -24 -91 -24q-50 0 -90 24q-41 21 -63 64zM895 1659q-25 42 -25 90
t25 90q21 41 63 66q42 22 91 22q48 0 90 -22q40 -24 65 -66q23 -44 23 -90t-23 -90q-26 -44 -65 -64q-41 -24 -90 -24q-51 0 -91 24q-41 21 -63 64zM784 1112l-190 -530h383z" />
    <glyph glyph-name="Aring" unicode="&#xc5;" horiz-adv-x="1583" 
d="M27 0l575 1454h379l575 -1454h-368l-103 283h-600l-102 -283h-356zM791 1538q-104 0 -178 68t-74 172t73 171.5t179 67.5q105 0 178 -67t73 -172q0 -103 -73 -171.5t-178 -68.5zM594 582h383l-193 530zM705 1778q0 -39 26 -62q23 -26 60 -26q36 0 61 26t25 62
q0 35 -25 63q-28 25 -61 25q-36 0 -61 -26t-25 -62z" />
    <glyph glyph-name="AE" unicode="&#xc6;" horiz-adv-x="2121" 
d="M27 0l897 1454h1075v-297h-572v-266h502v-297h-502v-297h592v-297h-940v283h-495l-164 -283h-393zM1079 1143l-323 -561h323v561z" />
    <glyph glyph-name="Ccedilla" unicode="&#xc7;" horiz-adv-x="1531" 
d="M707 -35q-186 25 -329.5 132t-220.5 269t-77 351q0 157 54 299t149 248t234 168.5t300 62.5q231 0 408.5 -122t240.5 -341l-348 -78q-46 100 -123.5 156.5t-183.5 56.5q-87 0 -157.5 -38.5t-114 -102.5t-67 -142.5t-23.5 -162.5q0 -83 23.5 -159.5t67.5 -138.5t115.5 -99
t159.5 -37q110 0 190.5 56t127.5 157l348 -78q-53 -190 -205 -311t-354 -146l-21 -55q61 -20 99 -71t38 -113q0 -56 -28.5 -100t-74.5 -69t-98 -38t-104 -13q-87 0 -184 33l31 174q66 -20 104 -20q40 0 66 16q22 16 22 45q0 19 -13 32.5t-33.5 19.5t-39 9t-35.5 3z" />
    <glyph glyph-name="Egrave" unicode="&#xc8;" horiz-adv-x="1185" 
d="M123 1454h940v-297h-592v-266h522v-297h-522v-297h612v-297h-960v1454zM145 1884h414l285 -282h-340z" />
    <glyph glyph-name="Eacute" unicode="&#xc9;" horiz-adv-x="1185" 
d="M123 1454h940v-297h-592v-266h522v-297h-522v-297h612v-297h-960v1454zM680 1602h-340l285 282h413z" />
    <glyph glyph-name="Ecircumflex" unicode="&#xca;" horiz-adv-x="1185" 
d="M123 1454h940v-297h-592v-266h522v-297h-522v-297h612v-297h-960v1454zM444 1602h-315l305 282h318l305 -282h-326l-141 116z" />
    <glyph glyph-name="Edieresis" unicode="&#xcb;" horiz-adv-x="1185" 
d="M123 1454h940v-297h-592v-266h522v-297h-522v-297h612v-297h-960v1454zM696 1659q-24 41 -24 90t24 90q21 41 64 66q42 22 90 22t90 -22q41 -25 66 -66q22 -42 22 -90t-22 -90q-25 -43 -66 -64q-40 -24 -90 -24t-90 24q-42 22 -64 64zM180 1659q-24 41 -24 90t24 90
q21 41 64 66q42 22 90 22t90 -22q40 -24 65 -66q23 -44 23 -90t-23 -90q-26 -44 -65 -64q-40 -24 -90 -24t-90 24q-42 22 -64 64z" />
    <glyph glyph-name="Igrave" unicode="&#xcc;" horiz-adv-x="602" 
d="M123 0v1454h356v-1454h-356zM213 1602l-358 282h413l285 -282h-340z" />
    <glyph glyph-name="Iacute" unicode="&#xcd;" horiz-adv-x="602" 
d="M123 0v1454h356v-1454h-356zM49 1602l285 282h414l-359 -282h-340z" />
    <glyph glyph-name="Icircumflex" unicode="&#xce;" horiz-adv-x="602" 
d="M123 0v1454h356v-1454h-356zM-162 1602l305 282h318l305 -282h-326l-141 116l-145 -116h-316z" />
    <glyph glyph-name="Idieresis" unicode="&#xcf;" horiz-adv-x="602" 
d="M123 1454h356v-1454h-356v1454zM-113 1659q-22 42 -22 90t22 90q25 41 66 66q42 22 90 22t90 -22q41 -25 66 -66q22 -42 22 -90t-22 -90q-25 -43 -66 -64q-41 -24 -90 -24t-90 24q-41 21 -66 64zM381 1749q0 48 25 90q21 41 63 66q42 22 90 22t90 -22q41 -25 66 -66
q22 -42 22 -90t-22 -90q-25 -43 -66 -64q-41 -24 -90 -24t-90 24q-41 21 -63 64q-25 42 -25 90z" />
    <glyph glyph-name="Eth" unicode="&#xd0;" horiz-adv-x="1591" 
d="M143 610h-151v264h151v580h596q161 0 301.5 -49.5t245 -141t165 -229.5t60.5 -305q0 -217 -102 -384.5t-277.5 -256t-396.5 -88.5h-592v610zM717 1139h-217v-265h270v-264h-270v-295h217q193 0 309.5 109t116.5 303q0 193 -114.5 302.5t-311.5 109.5z" />
    <glyph glyph-name="Ntilde" unicode="&#xd1;" horiz-adv-x="1519" 
d="M465 0h-342v1454h305l627 -889v889h342v-1454h-305l-627 889v-889zM342 1604q7 82 36 149t89.5 113.5t144.5 46.5q50 0 82 -10.5t82 -38.5q81 -52 119 -52q35 0 55 25.5t25 63.5h205q-6 -61 -24 -114t-49.5 -98t-82.5 -71.5t-115 -26.5q-87 0 -164 51q-13 7 -34 19.5
t-27 15.5q-30 15 -57 15q-34 0 -54.5 -26t-25.5 -62h-205z" />
    <glyph glyph-name="Ograve" unicode="&#xd2;" horiz-adv-x="1695" 
d="M846 -41q-161 0 -302.5 57.5t-243.5 158.5t-161 243.5t-59 306.5q0 162 57.5 304t158.5 244.5t245 162t309 59.5q161 0 303 -57.5t244 -158t160.5 -243.5t58.5 -307q0 -161 -58 -303.5t-159 -245t-245 -162t-308 -59.5zM449 727q0 -117 46.5 -216t139 -161.5t213.5 -62.5
q120 0 212 60t139.5 159.5t47.5 220.5q0 118 -46 217t-138.5 161t-214.5 62q-179 0 -289 -127.5t-110 -312.5zM760 1602l-359 282h414l285 -282h-340z" />
    <glyph glyph-name="Oacute" unicode="&#xd3;" horiz-adv-x="1695" 
d="M846 -41q-161 0 -302.5 57.5t-243.5 158.5t-161 243.5t-59 306.5q0 162 57.5 304t158.5 244.5t245 162t309 59.5q161 0 303 -57.5t244 -158t160.5 -243.5t58.5 -307q0 -161 -58 -303.5t-159 -245t-245 -162t-308 -59.5zM449 727q0 -117 46.5 -216t139 -161.5t213.5 -62.5
q120 0 212 60t139.5 159.5t47.5 220.5q0 118 -46 217t-138.5 161t-214.5 62q-179 0 -289 -127.5t-110 -312.5zM596 1602l285 282h413l-358 -282h-340z" />
    <glyph glyph-name="Ocircumflex" unicode="&#xd4;" horiz-adv-x="1695" 
d="M846 -41q-161 0 -302.5 57.5t-243.5 158.5t-161 243.5t-59 306.5q0 162 57.5 304t158.5 244.5t245 162t309 59.5q161 0 303 -57.5t244 -158t160.5 -243.5t58.5 -307q0 -161 -58 -303.5t-159 -245t-245 -162t-308 -59.5zM848 1167q-179 0 -289 -127.5t-110 -312.5
q0 -117 46.5 -216t139 -161.5t213.5 -62.5q120 0 212 60t139.5 159.5t47.5 220.5q0 118 -46 217t-138.5 161t-214.5 62zM385 1602l305 282h318l305 -282h-326l-141 116l-146 -116h-315z" />
    <glyph glyph-name="Otilde" unicode="&#xd5;" horiz-adv-x="1695" 
d="M846 -41q-161 0 -302.5 57.5t-243.5 158.5t-161 243.5t-59 306.5q0 162 57.5 304t158.5 244.5t245 162t309 59.5q161 0 303 -57.5t244 -158t160.5 -243.5t58.5 -307q0 -161 -58 -303.5t-159 -245t-245 -162t-308 -59.5zM449 727q0 -117 46.5 -216t139 -161.5t213.5 -62.5
q120 0 212 60t139.5 159.5t47.5 220.5q0 118 -46 217t-138.5 161t-214.5 62q-179 0 -289 -127.5t-110 -312.5zM635 1604h-205q7 82 36 149t89.5 113.5t144.5 46.5q50 0 82 -10.5t82 -38.5q81 -52 119 -52q35 0 55 25.5t25 63.5h205q-6 -61 -24 -114t-49.5 -98t-82.5 -71.5
t-115 -26.5q-86 0 -163 51q-13 7 -35.5 20t-26.5 15q-30 15 -57 15q-34 0 -54.5 -26t-25.5 -62z" />
    <glyph glyph-name="Odieresis" unicode="&#xd6;" horiz-adv-x="1695" 
d="M846 -41q-161 0 -302.5 57.5t-243.5 158.5t-161 243.5t-59 306.5q0 162 57.5 304t158.5 244.5t245 162t309 59.5q161 0 303 -57.5t244 -158t160.5 -243.5t58.5 -307q0 -161 -58 -303.5t-159 -245t-245 -162t-308 -59.5zM848 1167q-179 0 -289 -127.5t-110 -312.5
q0 -117 46.5 -216t139 -161.5t213.5 -62.5q120 0 212 60t139.5 159.5t47.5 220.5q0 118 -46 217t-138.5 161t-214.5 62zM952 1659q-24 41 -24 90t24 90q21 41 64 66q42 22 90 22t90 -22q41 -25 66 -66q22 -42 22 -90t-22 -90q-25 -43 -66 -64q-40 -24 -90 -24t-90 24
q-42 22 -64 64zM412 1749q0 49 24 90q21 41 64 66q42 22 90 22t90 -22q40 -24 65 -66q23 -44 23 -90t-23 -90q-26 -44 -65 -64q-40 -24 -90 -24t-90 24q-42 22 -64 64q-24 41 -24 90z" />
    <glyph glyph-name="multiply" unicode="&#xd7;" 
d="M168 303l266 266l-252 250l183 182l249 -251l252 251l183 -182l-250 -250l264 -266l-182 -182l-267 264l-264 -264z" />
    <glyph glyph-name="Oslash" unicode="&#xd8;" horiz-adv-x="1695" 
d="M80 725q0 162 57.5 304t158.5 244.5t245 162t309 59.5q185 0 354 -84l86 115h307l-194 -262q103 -106 158 -245t55 -290q0 -161 -58 -303.5t-159 -245t-245 -162t-308 -59.5q-182 0 -354 84l-86 -115h-308l195 262q-103 106 -158 245t-55 290zM848 1182
q-187 0 -300.5 -131t-113.5 -324q0 -154 68 -258l508 680q-73 33 -162 33zM686 305q73 -33 162 -33q93 0 171.5 36t131 98t82 145t29.5 176q0 153 -68 258z" />
    <glyph glyph-name="Ugrave" unicode="&#xd9;" horiz-adv-x="1515" 
d="M111 598v856h356v-840q0 -141 75.5 -234t215.5 -93t215.5 91.5t75.5 235.5v840h356v-856q0 -291 -176.5 -465t-474.5 -174q-289 0 -466 172.5t-177 466.5zM311 1884h414l285 -282h-340z" />
    <glyph glyph-name="Uacute" unicode="&#xda;" horiz-adv-x="1515" 
d="M754 -41q-289 0 -466 172.5t-177 466.5v856h356v-840q0 -141 75.5 -234t215.5 -93t215.5 91.5t75.5 235.5v840h356v-856q0 -291 -176.5 -465t-474.5 -174zM846 1602h-340l285 282h413z" />
    <glyph glyph-name="Ucircumflex" unicode="&#xdb;" horiz-adv-x="1515" 
d="M754 -41q-289 0 -466 172.5t-177 466.5v856h356v-840q0 -141 75.5 -234t215.5 -93t215.5 91.5t75.5 235.5v840h356v-856q0 -291 -176.5 -465t-474.5 -174zM295 1602l305 282h318l305 -282h-326l-141 116l-146 -116h-315z" />
    <glyph glyph-name="Udieresis" unicode="&#xdc;" horiz-adv-x="1515" 
d="M111 1454h356v-840q0 -141 75.5 -234t215.5 -93t215.5 91.5t75.5 235.5v840h356v-856q0 -291 -176.5 -465t-474.5 -174q-289 0 -466 172.5t-177 466.5v856zM346 1659q-24 41 -24 90t24 90q21 41 64 66q42 22 90 22t90 -22q40 -24 65 -66q23 -44 23 -90t-23 -90
q-26 -44 -65 -64q-40 -24 -90 -24t-90 24q-42 22 -64 64zM838 1749q0 49 24 90q21 41 64 66q42 22 90 22t90 -22q40 -24 65 -66q23 -44 23 -90t-23 -90q-26 -44 -65 -64q-40 -24 -90 -24t-90 24q-42 22 -64 64q-24 41 -24 90z" />
    <glyph glyph-name="Yacute" unicode="&#xdd;" horiz-adv-x="1400" 
d="M522 559l-506 895h404l287 -563l286 563h391l-505 -895v-559h-357v559zM788 1602h-339l284 282h414z" />
    <glyph glyph-name="Thorn" unicode="&#xde;" horiz-adv-x="1249" 
d="M123 1454h350v-221h141q124 0 228 -29t186 -87.5t128 -157.5t46 -230q0 -119 -47 -215.5t-127.5 -158t-184.5 -94t-222 -32.5q-65 0 -148 13v-242h-350v1454zM473 936v-399q86 -11 131 -11q108 0 174 50t66 155q0 104 -64.5 154.5t-171.5 50.5h-135z" />
    <glyph glyph-name="germandbls" unicode="&#xdf;" horiz-adv-x="1275" 
d="M104 1030q0 234 141 382.5t380 148.5q95 0 184 -28t161 -79t116 -133t44 -182q0 -95 -44.5 -179.5t-122.5 -138.5q116 -43 180.5 -149.5t64.5 -235.5q0 -201 -143 -328.5t-350 -127.5q-47 0 -94 6q-56 10 -89 20l43 275q37 -15 95 -15q87 0 142.5 55t55.5 144
q0 95 -64.5 148t-162.5 53h-59v266h39q73 0 125.5 46.5t52.5 119.5q0 72 -50 117t-124 45q-89 0 -138 -63.5t-49 -156.5v-1040h-334v1030z" />
    <glyph glyph-name="agrave" unicode="&#xe0;" horiz-adv-x="1159" 
d="M53 309q0 71 26 130.5t69.5 100t102 68.5t122.5 41t131 13q116 0 227 -44v56q0 81 -44.5 128.5t-125.5 47.5q-57 0 -103 -26t-67 -76l-299 51q22 101 98 176.5t174 111t203 35.5q211 0 349.5 -126t138.5 -339v-657h-299l-8 129q-43 -79 -129.5 -119.5t-184.5 -40.5
q-75 0 -143.5 23.5t-121.5 65.5t-84.5 107.5t-31.5 143.5zM188 1532h369l229 -293h-311zM565 451q-44 0 -82.5 -9.5t-70 -38t-31.5 -73.5q0 -54 44 -83.5t101 -29.5q86 0 145.5 52t59.5 137v10q-83 35 -166 35z" />
    <glyph glyph-name="aacute" unicode="&#xe1;" horiz-adv-x="1159" 
d="M53 309q0 71 26 130.5t69.5 100t102 68.5t122.5 41t131 13q116 0 227 -44v56q0 81 -44.5 128.5t-125.5 47.5q-57 0 -103 -26t-67 -76l-299 51q22 101 98 176.5t174 111t203 35.5q211 0 349.5 -126t138.5 -339v-657h-299l-8 129q-43 -79 -129.5 -119.5t-184.5 -40.5
q-75 0 -143.5 23.5t-121.5 65.5t-84.5 107.5t-31.5 143.5zM676 1239h-311l229 293h369zM565 451q-44 0 -82.5 -9.5t-70 -38t-31.5 -73.5q0 -54 44 -83.5t101 -29.5q86 0 145.5 52t59.5 137v10q-83 35 -166 35z" />
    <glyph glyph-name="acircumflex" unicode="&#xe2;" horiz-adv-x="1159" 
d="M53 309q0 71 26 130.5t69.5 100t102 68.5t122.5 41t131 13q116 0 227 -44v56q0 81 -44.5 128.5t-125.5 47.5q-57 0 -103 -26t-67 -76l-299 51q22 101 98 176.5t174 111t203 35.5q211 0 349.5 -126t138.5 -339v-657h-299l-8 129q-43 -79 -129.5 -119.5t-184.5 -40.5
q-75 0 -143.5 23.5t-121.5 65.5t-84.5 107.5t-31.5 143.5zM166 1239l280 293h261l280 -293h-285l-129 117l-133 -117h-274zM381 330q0 -54 44 -83.5t101 -29.5q86 0 145.5 52t59.5 137v10q-83 35 -166 35q-44 0 -82.5 -9.5t-70 -38t-31.5 -73.5z" />
    <glyph glyph-name="atilde" unicode="&#xe3;" horiz-adv-x="1159" 
d="M434 -31q-75 0 -143.5 23.5t-121.5 65.5t-84.5 107.5t-31.5 143.5q0 71 26 130.5t69.5 100t102 68.5t122.5 41t131 13q116 0 227 -44v56q0 81 -44.5 128.5t-125.5 47.5q-57 0 -103 -26t-67 -76l-299 51q22 101 98 176.5t174 111t203 35.5q211 0 349.5 -126t138.5 -339
v-657h-299l-8 129q-43 -79 -129.5 -119.5t-184.5 -40.5zM397 1241h-190q6 54 21 103t41.5 94t71 71.5t101.5 26.5q48 0 80 -14q31 -13 66 -31q11 -7 31.5 -19.5t21.5 -13.5q22 -14 49 -14q54 0 66 80h190q-6 -54 -21 -103t-41.5 -94t-71 -71.5t-101.5 -26.5q-74 0 -144 47
q-27 13 -55 31q-22 14 -49 14q-54 0 -66 -80zM381 330q0 -54 44 -83.5t101 -29.5q86 0 145.5 52t59.5 137v10q-83 35 -166 35q-44 0 -82.5 -9.5t-70 -38t-31.5 -73.5z" />
    <glyph glyph-name="adieresis" unicode="&#xe4;" horiz-adv-x="1159" 
d="M53 309q0 71 26 130.5t69.5 100t102 68.5t122.5 41t131 13q116 0 227 -44v56q0 81 -44.5 128.5t-125.5 47.5q-57 0 -103 -26t-67 -76l-299 51q22 101 98 176.5t174 111t203 35.5q211 0 349.5 -126t138.5 -339v-657h-299l-8 129q-43 -79 -129.5 -119.5t-184.5 -40.5
q-75 0 -143.5 23.5t-121.5 65.5t-84.5 107.5t-31.5 143.5zM346 1208q-73 0 -122.5 48.5t-49.5 121.5q0 72 49.5 121t122.5 49t122.5 -48.5t49.5 -121.5q0 -72 -49.5 -121t-122.5 -49zM805 1208q-73 0 -122.5 48.5t-49.5 121.5q0 72 49.5 121t122.5 49t122.5 -48.5
t49.5 -121.5q0 -72 -49.5 -121t-122.5 -49zM565 451q-44 0 -82.5 -9.5t-70 -38t-31.5 -73.5q0 -54 44 -83.5t101 -29.5q86 0 145.5 52t59.5 137v10q-83 35 -166 35z" />
    <glyph glyph-name="aring" unicode="&#xe5;" horiz-adv-x="1159" 
d="M434 -31q-75 0 -143.5 23.5t-121.5 65.5t-84.5 107.5t-31.5 143.5q0 71 26 130.5t69.5 100t102 68.5t122.5 41t131 13q116 0 227 -44v56q0 81 -44.5 128.5t-125.5 47.5q-57 0 -103 -26t-67 -76l-299 51q22 101 98 176.5t174 111t203 35.5q211 0 349.5 -126t138.5 -339
v-657h-299l-8 129q-43 -79 -129.5 -119.5t-184.5 -40.5zM575 1184q-99 0 -171 66t-72 165q0 98 71.5 165t171.5 67q101 0 172.5 -65.5t71.5 -166.5q0 -98 -72 -164.5t-172 -66.5zM565 451q-44 0 -82.5 -9.5t-70 -38t-31.5 -73.5q0 -54 44 -83.5t101 -29.5q86 0 145.5 52
t59.5 137v10q-83 35 -166 35zM575 1503q-36 0 -61 -26t-25 -62q0 -37 27 -61q24 -27 59 -27q36 0 61.5 26t25.5 62t-25 64q-27 24 -62 24z" />
    <glyph glyph-name="ae" unicode="&#xe6;" horiz-adv-x="1826" 
d="M53 315q0 86 38 154.5t102 109.5t141 62t160 21q108 0 217 -44v56q0 78 -41.5 127t-118.5 49q-55 0 -99 -26.5t-61 -75.5l-299 51q35 149 167.5 236t293.5 87q213 0 332 -145q145 145 358 145q163 0 284 -80t181.5 -212.5t60.5 -297.5v-73h-733q16 -95 70.5 -152
t146.5 -57q60 0 110 27.5t81 78.5l305 -80q-55 -143 -196.5 -225t-303.5 -82q-120 0 -222.5 47t-176.5 138q-61 -93 -159 -139t-216 -46q-105 0 -199.5 38t-158.5 119t-64 189zM381 330q0 -55 40 -84t97 -29q81 0 137 53.5t56 135.5v10q-74 35 -158 35q-42 0 -79 -10.5
t-65 -39t-28 -71.5zM1034 672h391q-33 200 -190 200q-84 0 -134.5 -56.5t-66.5 -143.5z" />
    <glyph glyph-name="ccedilla" unicode="&#xe7;" horiz-adv-x="1189" 
d="M524 -23q-200 29 -328 191t-128 369q0 119 41.5 226t114.5 186.5t179 126t228 46.5q186 0 321.5 -101.5t177.5 -281.5l-323 -53q-59 135 -182 135q-70 0 -121 -43t-73.5 -104.5t-22.5 -130.5q0 -68 22.5 -128.5t73.5 -102.5t121 -42q68 0 117.5 36t74.5 100l324 -54
q-32 -147 -147 -249t-267 -126l-18 -55q61 -21 99 -68t38 -108q0 -55 -28 -98t-73.5 -67t-96 -36t-101.5 -12q-83 0 -174 33l26 166q37 -12 58 -17q36 -4 47 -4q38 0 65 17q23 16 23 45q0 63 -121 63z" />
    <glyph glyph-name="egrave" unicode="&#xe8;" horiz-adv-x="1220" 
d="M629 -31q-248 0 -404.5 163.5t-156.5 416.5q0 155 68.5 285.5t195.5 209t286 78.5q167 0 292 -77t189 -209.5t64 -303.5v-73h-753q20 -95 75.5 -152t147.5 -57q66 0 114.5 25.5t90.5 80.5l305 -80q-42 -98 -124 -169t-181.5 -104.5t-208.5 -33.5zM231 1532h369l229 -293
h-311zM618 872q-87 0 -138 -54.5t-70 -145.5h409q-15 91 -64.5 145.5t-136.5 54.5z" />
    <glyph glyph-name="eacute" unicode="&#xe9;" horiz-adv-x="1220" 
d="M629 -31q-248 0 -404.5 163.5t-156.5 416.5q0 155 68.5 285.5t195.5 209t286 78.5q167 0 292 -77t189 -209.5t64 -303.5v-73h-753q20 -95 75.5 -152t147.5 -57q66 0 114.5 25.5t90.5 80.5l305 -80q-42 -98 -124 -169t-181.5 -104.5t-208.5 -33.5zM719 1239h-311l229 293
h369zM618 872q-87 0 -138 -54.5t-70 -145.5h409q-15 91 -64.5 145.5t-136.5 54.5z" />
    <glyph glyph-name="ecircumflex" unicode="&#xea;" horiz-adv-x="1220" 
d="M629 -31q-248 0 -404.5 163.5t-156.5 416.5q0 155 68.5 285.5t195.5 209t286 78.5q167 0 292 -77t189 -209.5t64 -303.5v-73h-753q20 -95 75.5 -152t147.5 -57q66 0 114.5 25.5t90.5 80.5l305 -80q-42 -98 -124 -169t-181.5 -104.5t-208.5 -33.5zM483 1239h-274l280 293
h261l280 -293h-285l-129 117zM618 872q-87 0 -138 -54.5t-70 -145.5h409q-15 91 -64.5 145.5t-136.5 54.5z" />
    <glyph glyph-name="edieresis" unicode="&#xeb;" horiz-adv-x="1220" 
d="M68 549q0 155 68.5 285.5t195.5 209t286 78.5q167 0 292 -77t189 -209.5t64 -303.5v-73h-753q20 -95 75.5 -152t147.5 -57q66 0 114.5 25.5t90.5 80.5l305 -80q-42 -98 -124 -169t-181.5 -104.5t-208.5 -33.5q-248 0 -404.5 163.5t-156.5 416.5zM676 1378q0 72 49.5 121
t122.5 49t122.5 -48.5t49.5 -121.5q0 -72 -49.5 -121t-122.5 -49t-122.5 48.5t-49.5 121.5zM389 1208q-73 0 -122.5 48.5t-49.5 121.5q0 72 49.5 121t122.5 49t122.5 -48.5t49.5 -121.5q0 -72 -49.5 -121t-122.5 -49zM618 872q-87 0 -138 -54.5t-70 -145.5h409
q-15 91 -64.5 145.5t-136.5 54.5z" />
    <glyph glyph-name="igrave" unicode="&#xec;" horiz-adv-x="542" 
d="M104 0v1092h334v-1092h-334zM168 1239l-287 293h369l229 -293h-311z" />
    <glyph glyph-name="iacute" unicode="&#xed;" horiz-adv-x="542" 
d="M104 0v1092h334v-1092h-334zM57 1239l230 293h368l-286 -293h-312z" />
    <glyph glyph-name="icircumflex" unicode="&#xee;" horiz-adv-x="542" 
d="M104 0v1092h334v-1092h-334zM-141 1239l280 293h260l281 -293h-285l-129 117l-133 -117h-274z" />
    <glyph glyph-name="idieresis" unicode="&#xef;" horiz-adv-x="542" 
d="M104 1092h334v-1092h-334v1092zM39 1208q-73 0 -122.5 48.5t-49.5 121.5q0 72 49.5 121t122.5 49t122.5 -48.5t49.5 -121.5q0 -72 -49.5 -121t-122.5 -49zM326 1378q0 72 49.5 121t122.5 49t122.5 -48.5t49.5 -121.5q0 -72 -49.5 -121t-122.5 -49t-122.5 48.5
t-49.5 121.5z" />
    <glyph glyph-name="eth" unicode="&#xf0;" horiz-adv-x="1310" 
d="M68 526q0 142 64.5 267.5t183 204.5t262.5 79q166 0 268 -102q-61 129 -152 244l-200 -91l-80 177l145 65q-74 71 -143 123l329 76q57 -42 91 -74l176 80l80 -176l-119 -53q122 -165 192 -353t70 -379q0 -133 -40 -249.5t-113.5 -205t-187 -139.5t-251.5 -51
q-158 0 -289 69.5t-208.5 198t-77.5 289.5zM651 801q-106 0 -174.5 -77t-68.5 -187t67 -188.5t176 -78.5t174.5 77.5t65.5 189.5t-64.5 188t-175.5 76z" />
    <glyph glyph-name="ntilde" unicode="&#xf1;" 
d="M104 0v1092h308l10 -144q48 84 132 129t185 45q127 0 216.5 -65.5t130 -168t40.5 -229.5v-659h-333v612q0 96 -43 154q-46 55 -123 55q-83 0 -136 -59t-53 -144v-618h-334zM246 1241q6 54 21 103t41.5 94t71 71.5t101.5 26.5q48 0 80 -14q31 -13 66 -31q11 -7 31.5 -19.5
t21.5 -13.5q22 -14 49 -14q54 0 66 80h190q-6 -54 -21 -103t-41.5 -94t-71 -71.5t-101.5 -26.5q-74 0 -144 47q-27 13 -55 31q-22 14 -49 14q-54 0 -66 -80h-190z" />
    <glyph glyph-name="ograve" unicode="&#xf2;" horiz-adv-x="1298" 
d="M645 -31q-161 0 -292.5 73t-208 205t-76.5 296q0 163 76 295.5t210 208t299 75.5q161 0 293.5 -73.5t208.5 -205.5t76 -296q0 -163 -76.5 -295.5t-210.5 -207.5t-299 -75zM649 821q-109 0 -175 -81.5t-66 -194.5q0 -82 32 -139q29 -62 85.5 -99t123.5 -37q108 0 175 82
t67 193q0 76 -31 143q-73 133 -211 133zM549 1239l-287 293h369l229 -293h-311z" />
    <glyph glyph-name="oacute" unicode="&#xf3;" horiz-adv-x="1298" 
d="M645 -31q-161 0 -292.5 73t-208 205t-76.5 296q0 163 76 295.5t210 208t299 75.5q161 0 293.5 -73.5t208.5 -205.5t76 -296q0 -163 -76.5 -295.5t-210.5 -207.5t-299 -75zM649 821q-109 0 -175 -81.5t-66 -194.5q0 -82 32 -139q29 -62 85.5 -99t123.5 -37q108 0 175 82
t67 193q0 76 -31 143q-73 133 -211 133zM750 1239h-312l230 293h368z" />
    <glyph glyph-name="ocircumflex" unicode="&#xf4;" horiz-adv-x="1298" 
d="M645 -31q-161 0 -292.5 73t-208 205t-76.5 296q0 163 76 295.5t210 208t299 75.5q161 0 293.5 -73.5t208.5 -205.5t76 -296q0 -163 -76.5 -295.5t-210.5 -207.5t-299 -75zM408 545q0 -82 32 -139q29 -62 85.5 -99t123.5 -37q108 0 175 82t67 193q0 76 -31 143
q-73 133 -211 133q-109 0 -175 -81.5t-66 -194.5zM240 1239l280 293h260l281 -293h-285l-129 117l-133 -117h-274z" />
    <glyph glyph-name="otilde" unicode="&#xf5;" horiz-adv-x="1298" 
d="M68 543q0 163 76 295.5t210 208t299 75.5q161 0 293.5 -73.5t208.5 -205.5t76 -296q0 -163 -76.5 -295.5t-210.5 -207.5t-299 -75q-161 0 -292.5 73t-208 205t-76.5 296zM649 821q-109 0 -175 -81.5t-66 -194.5q0 -82 32 -139q29 -62 85.5 -99t123.5 -37q108 0 175 82
t67 193q0 76 -31 143q-73 133 -211 133zM471 1241h-190q6 54 21 103t41.5 94t71 71.5t101.5 26.5q48 0 80 -14q31 -13 66 -31q11 -7 31.5 -19.5t21.5 -13.5q22 -14 49 -14q53 0 65 80h191q-4 -43 -14 -82t-29 -79t-44.5 -69t-64 -47t-84.5 -18q-73 0 -143 47q-27 13 -55 31
q-22 14 -49 14q-54 0 -66 -80z" />
    <glyph glyph-name="odieresis" unicode="&#xf6;" horiz-adv-x="1298" 
d="M645 -31q-161 0 -292.5 73t-208 205t-76.5 296q0 163 76 295.5t210 208t299 75.5q161 0 293.5 -73.5t208.5 -205.5t76 -296q0 -163 -76.5 -295.5t-210.5 -207.5t-299 -75zM649 821q-109 0 -175 -81.5t-66 -194.5q0 -82 32 -139q29 -62 85.5 -99t123.5 -37q108 0 175 82
t67 193q0 76 -31 143q-73 133 -211 133zM248 1378q0 72 49.5 121t122.5 49t122.5 -48.5t49.5 -121.5q0 -72 -49.5 -121t-122.5 -49t-122.5 48.5t-49.5 121.5zM879 1208q-73 0 -122.5 48.5t-49.5 121.5q0 72 49.5 121t122.5 49t122.5 -48.5t49.5 -121.5q0 -72 -49.5 -121
t-122.5 -49z" />
    <glyph glyph-name="divide" unicode="&#xf7;" 
d="M160 698h911v-268h-911v268zM614 782q-62 0 -105.5 46t-43.5 108t43.5 108t105.5 46q63 0 106.5 -45.5t43.5 -108.5q0 -64 -43 -109t-107 -45zM465 193q0 62 43.5 107.5t105.5 45.5q63 0 106.5 -45t43.5 -108q0 -64 -43 -109t-107 -45q-62 0 -105.5 46t-43.5 108z" />
    <glyph glyph-name="oslash" unicode="&#xf8;" horiz-adv-x="1298" 
d="M68 543q0 163 76 295.5t210 208t299 75.5q136 0 252 -55l56 76h256l-146 -197q78 -78 119 -181.5t41 -217.5q0 -163 -76.5 -295.5t-210.5 -207.5t-299 -75q-134 0 -252 56l-55 -76h-256l145 196q-77 77 -118 181.5t-41 216.5zM881 688l-312 -426q41 -12 80 -12
q118 0 190 86.5t72 208.5q0 79 -30 143zM649 842q-119 0 -190.5 -87.5t-71.5 -209.5q0 -73 29 -142l313 426q-44 13 -80 13z" />
    <glyph glyph-name="ugrave" unicode="&#xf9;" horiz-adv-x="1224" 
d="M104 1092h334v-607q0 -92 43 -153.5t131 -61.5q89 0 131.5 60t42.5 155v607h334v-600q0 -233 -136.5 -378t-373.5 -145q-231 0 -368.5 143.5t-137.5 379.5v600zM510 1239l-287 293h369l229 -293h-311z" />
    <glyph glyph-name="uacute" unicode="&#xfa;" horiz-adv-x="1224" 
d="M104 1092h334v-607q0 -92 43 -153.5t131 -61.5q89 0 131.5 60t42.5 155v607h334v-600q0 -233 -136.5 -378t-373.5 -145q-231 0 -368.5 143.5t-137.5 379.5v600zM711 1239h-312l230 293h368z" />
    <glyph glyph-name="ucircumflex" unicode="&#xfb;" horiz-adv-x="1224" 
d="M104 1092h334v-607q0 -92 43 -153.5t131 -61.5q89 0 131.5 60t42.5 155v607h334v-600q0 -233 -136.5 -378t-373.5 -145q-231 0 -368.5 143.5t-137.5 379.5v600zM201 1239l280 293h260l281 -293h-285l-129 117l-133 -117h-274z" />
    <glyph glyph-name="udieresis" unicode="&#xfc;" horiz-adv-x="1224" 
d="M104 1092h334v-607q0 -92 43 -153.5t131 -61.5q89 0 131.5 60t42.5 155v607h334v-600q0 -233 -136.5 -378t-373.5 -145q-231 0 -368.5 143.5t-137.5 379.5v600zM209 1378q0 72 49.5 121t122.5 49t122.5 -48.5t49.5 -121.5q0 -72 -49.5 -121t-122.5 -49t-122.5 48.5
t-49.5 121.5zM668 1378q0 72 49.5 121t122.5 49t122.5 -48.5t49.5 -121.5q0 -72 -49.5 -121t-122.5 -49t-122.5 48.5t-49.5 121.5z" />
    <glyph glyph-name="yacute" unicode="&#xfd;" horiz-adv-x="1179" 
d="M453 16l-437 1076h367l225 -717l201 717h354l-434 -1170q-29 -77 -64.5 -136.5t-84.5 -108t-115.5 -74t-147.5 -25.5q-129 0 -213 51l60 256q65 -26 115 -26q63 0 101 36.5t64 102.5zM688 1239h-311l229 293h369z" />
    <glyph glyph-name="thorn" unicode="&#xfe;" horiz-adv-x="1325" 
d="M104 1532h334v-571q56 77 143 119t185 42q111 0 205 -48.5t155.5 -128.5t96 -182t34.5 -210q0 -111 -35.5 -215.5t-100 -187t-163 -132t-215.5 -49.5q-92 0 -172.5 36.5t-132.5 107.5v-504h-334v1923zM676 821q-110 0 -176 -81.5t-66 -194.5q0 -80 33 -139q30 -64 86 -99
q52 -37 123 -37q108 0 175 81.5t67 193.5q0 76 -31 143q-34 61 -86 98q-56 35 -125 35z" />
    <glyph glyph-name="ydieresis" unicode="&#xff;" horiz-adv-x="1179" 
d="M16 1092h367l225 -717l201 717h354l-434 -1170q-29 -77 -64.5 -136.5t-84.5 -108t-115.5 -74t-147.5 -25.5q-129 0 -213 51l60 256q65 -26 115 -26q63 0 101 36.5t64 102.5l9 18zM186 1378q0 72 49.5 121t122.5 49t122.5 -48.5t49.5 -121.5q0 -72 -49.5 -121t-122.5 -49
t-122.5 48.5t-49.5 121.5zM817 1208q-73 0 -122.5 48.5t-49.5 121.5q0 72 49.5 121t122.5 49t122.5 -48.5t49.5 -121.5q0 -72 -49.5 -121t-122.5 -49z" />
    <glyph glyph-name="Amacron" unicode="&#x100;" horiz-adv-x="1583" 
d="M27 0l575 1454h379l575 -1454h-368l-103 283h-600l-102 -283h-356zM1176 1612h-770v231h770v-231zM594 582h383l-193 530z" />
    <glyph glyph-name="amacron" unicode="&#x101;" horiz-adv-x="1159" 
d="M434 -31q-75 0 -143.5 23.5t-121.5 65.5t-84.5 107.5t-31.5 143.5q0 71 26 130.5t69.5 100t102 68.5t122.5 41t131 13q116 0 227 -44v56q0 81 -44.5 128.5t-125.5 47.5q-57 0 -103 -26t-67 -76l-299 51q22 101 98 176.5t174 111t203 35.5q211 0 349.5 -126t138.5 -339
v-657h-299l-8 129q-43 -79 -129.5 -119.5t-184.5 -40.5zM240 1462h671v-215h-671v215zM381 330q0 -54 44 -83.5t101 -29.5q86 0 145.5 52t59.5 137v10q-83 35 -166 35q-44 0 -82.5 -9.5t-70 -38t-31.5 -73.5z" />
    <glyph glyph-name="Abreve" unicode="&#x102;" horiz-adv-x="1583" 
d="M27 0l575 1454h379l575 -1454h-368l-103 283h-600l-102 -283h-356zM791 1591q-149 0 -262.5 82.5t-137.5 227.5h262q12 -51 48.5 -80t89.5 -29q54 0 89.5 28t47.5 81h262q-24 -144 -136 -227t-263 -83zM784 1112l-190 -530h383z" />
    <glyph glyph-name="abreve" unicode="&#x103;" horiz-adv-x="1159" 
d="M434 -31q-75 0 -143.5 23.5t-121.5 65.5t-84.5 107.5t-31.5 143.5q0 71 26 130.5t69.5 100t102 68.5t122.5 41t131 13q116 0 227 -44v56q0 81 -44.5 128.5t-125.5 47.5q-57 0 -103 -26t-67 -76l-299 51q22 101 98 176.5t174 111t203 35.5q211 0 349.5 -126t138.5 -339
v-657h-299l-8 129q-43 -79 -129.5 -119.5t-184.5 -40.5zM205 1524h237q9 -49 45 -74q35 -27 88 -27q55 0 89 27q36 25 45 74h237q-24 -135 -126.5 -213t-244.5 -78q-141 0 -243.5 77t-126.5 214zM381 330q0 -54 44 -83.5t101 -29.5q86 0 145.5 52t59.5 137v10
q-83 35 -166 35q-44 0 -82.5 -9.5t-70 -38t-31.5 -73.5z" />
    <glyph glyph-name="Aogonek" unicode="&#x104;" horiz-adv-x="1583" 
d="M383 0h-356l575 1454h379l575 -1454q-172 -141 -172 -205q0 -29 21 -47q22 -16 55 -16q15 0 47 4q30 8 43 14l23 -184q-98 -37 -184 -37q-51 0 -96.5 10.5t-85.5 32.5t-63.5 62.5t-23.5 95.5q0 136 185 270h-117l-103 283h-600zM784 1112l-190 -530h383z" />
    <glyph glyph-name="aogonek" unicode="&#x105;" horiz-adv-x="1159" 
d="M53 309q0 71 26 130.5t69.5 100t102 68.5t122.5 41t131 13q116 0 227 -44v56q0 81 -44.5 128.5t-125.5 47.5q-57 0 -103 -26t-67 -76l-299 51q22 101 98 176.5t174 111t203 35.5q211 0 349.5 -126t138.5 -339v-657q-172 -141 -172 -205q0 -30 20 -47q22 -16 60 -16
q9 0 45 4q30 8 41 14l22 -176q-81 -37 -180 -37q-48 0 -93 10.5t-84 32.5t-63 60.5t-24 89.5q0 133 188 270h-59l-8 129q-43 -79 -129.5 -119.5t-184.5 -40.5q-75 0 -143.5 23.5t-121.5 65.5t-84.5 107.5t-31.5 143.5zM381 330q0 -54 44 -83.5t101 -29.5q86 0 145.5 52
t59.5 137v10q-83 35 -166 35q-44 0 -82.5 -9.5t-70 -38t-31.5 -73.5z" />
    <glyph glyph-name="Cacute" unicode="&#x106;" horiz-adv-x="1531" 
d="M815 -41q-209 0 -378 99.5t-263 272.5t-94 386q0 157 54 299t149 248t234 168.5t300 62.5q231 0 408.5 -122t240.5 -341l-348 -78q-46 100 -123.5 156.5t-183.5 56.5q-87 0 -157.5 -38.5t-114 -102.5t-67 -142.5t-23.5 -162.5q0 -83 23.5 -159.5t67.5 -138.5t115.5 -99
t159.5 -37q110 0 190.5 56t127.5 157l348 -78q-41 -147 -141.5 -253t-235.5 -158t-289 -52zM901 1602h-340l285 282h414z" />
    <glyph glyph-name="cacute" unicode="&#x107;" horiz-adv-x="1189" 
d="M68 537q0 119 41.5 226t114.5 186.5t179 126t228 46.5q186 0 321.5 -101.5t177.5 -281.5l-323 -53q-59 135 -182 135q-70 0 -121 -43t-73.5 -104.5t-22.5 -130.5q0 -68 22.5 -128.5t73.5 -102.5t121 -42q68 0 117.5 36t74.5 100l324 -54q-25 -117 -103 -205.5t-186 -133
t-229 -44.5q-237 0 -396 163t-159 405zM420 1239l229 293h369l-287 -293h-311z" />
    <glyph glyph-name="Cdotaccent" unicode="&#x10a;" horiz-adv-x="1531" 
d="M815 -41q-209 0 -378 99.5t-263 272.5t-94 386q0 157 54 299t149 248t234 168.5t300 62.5q231 0 408.5 -122t240.5 -341l-348 -78q-46 100 -123.5 156.5t-183.5 56.5q-87 0 -157.5 -38.5t-114 -102.5t-67 -142.5t-23.5 -162.5q0 -83 23.5 -159.5t67.5 -138.5t115.5 -99
t159.5 -37q110 0 190.5 56t127.5 157l348 -78q-41 -147 -141.5 -253t-235.5 -158t-289 -52zM623 1759q0 82 54 135.5t136 53.5t136.5 -53t54.5 -136q0 -82 -54 -135t-137 -53q-80 0 -135 53.5t-55 134.5z" />
    <glyph glyph-name="cdotaccent" unicode="&#x10b;" horiz-adv-x="1189" 
d="M68 537q0 119 41.5 226t114.5 186.5t179 126t228 46.5q186 0 321.5 -101.5t177.5 -281.5l-323 -53q-59 135 -182 135q-70 0 -121 -43t-73.5 -104.5t-22.5 -130.5q0 -68 22.5 -128.5t73.5 -102.5t121 -42q68 0 117.5 36t74.5 100l324 -54q-25 -117 -103 -205.5t-186 -133
t-229 -44.5q-237 0 -396 163t-159 405zM471 1300q-25 42 -25 93q0 50 25 92q23 42 67 66t93 24q51 0 94.5 -23.5t69.5 -66.5q22 -42 22 -92q0 -51 -22 -93q-26 -43 -69.5 -66.5t-94.5 -23.5q-49 0 -93 24t-67 66z" />
    <glyph glyph-name="Ccaron" unicode="&#x10c;" horiz-adv-x="1531" 
d="M815 -41q-209 0 -378 99.5t-263 272.5t-94 386q0 157 54 299t149 248t234 168.5t300 62.5q231 0 408.5 -122t240.5 -341l-348 -78q-46 100 -123.5 156.5t-183.5 56.5q-87 0 -157.5 -38.5t-114 -102.5t-67 -142.5t-23.5 -162.5q0 -83 23.5 -159.5t67.5 -138.5t115.5 -99
t159.5 -37q110 0 190.5 56t127.5 157l348 -78q-41 -147 -141.5 -253t-235.5 -158t-289 -52zM350 1884h326l141 -117l146 117h315l-305 -282h-318z" />
    <glyph glyph-name="ccaron" unicode="&#x10d;" horiz-adv-x="1189" 
d="M68 537q0 119 41.5 226t114.5 186.5t179 126t228 46.5q186 0 321.5 -101.5t177.5 -281.5l-323 -53q-59 135 -182 135q-70 0 -121 -43t-73.5 -104.5t-22.5 -130.5q0 -68 22.5 -128.5t73.5 -102.5t121 -42q68 0 117.5 36t74.5 100l324 -54q-25 -117 -103 -205.5t-186 -133
t-229 -44.5q-237 0 -396 163t-159 405zM502 1239l-281 293h285l129 -117l133 117h274l-280 -293h-260z" />
    <glyph glyph-name="Dcaron" unicode="&#x10e;" horiz-adv-x="1570" 
d="M715 0h-592v1454h596q161 0 301.5 -49.5t245 -141t165 -229.5t60.5 -305q0 -217 -102 -384.5t-277.5 -256t-396.5 -88.5zM479 1139v-824h217q193 0 309.5 109t116.5 303q0 193 -114.5 302.5t-311.5 109.5h-217zM571 1602l-305 282h326l141 -117l146 117h315l-305 -282
h-318z" />
    <glyph glyph-name="dcaron" unicode="&#x10f;" horiz-adv-x="1427" 
d="M68 539q0 112 35.5 216.5t100 186.5t163 131t215.5 49q93 0 173 -36t132 -107v553h334v-1532h-308l-10 156q-57 -88 -148.5 -137.5t-195.5 -49.5q-109 0 -203 49t-156 130t-97 182.5t-35 208.5zM408 547q0 -84 32 -141q29 -62 85.5 -99t123.5 -37q109 0 175.5 82
t66.5 195q0 112 -65.5 193t-176.5 81q-108 0 -174.5 -81t-66.5 -193zM1530 1128h-178l26 404h279z" />
    <glyph glyph-name="Dcroat" unicode="&#x110;" horiz-adv-x="1591" 
d="M143 610h-151v264h151v580h596q161 0 301.5 -49.5t245 -141t165 -229.5t60.5 -305q0 -217 -102 -384.5t-277.5 -256t-396.5 -88.5h-592v610zM717 1139h-217v-265h270v-264h-270v-295h217q193 0 309.5 109t116.5 303q0 193 -114.5 302.5t-311.5 109.5z" />
    <glyph glyph-name="dcroat" unicode="&#x111;" horiz-adv-x="1325" 
d="M68 528q0 111 36.5 214t101 183.5t163 128.5t213.5 48q196 0 305 -141v241h-254v203h254v127h334v-127h133v-203h-133v-1202h-308l-10 152q-58 -87 -148.5 -135t-195.5 -48q-87 0 -165.5 30.5t-137 84t-101.5 124t-65 153t-22 167.5zM408 537q0 -109 66.5 -188t174.5 -79
q107 0 174.5 78t67.5 189q0 109 -66.5 186.5t-175.5 77.5q-106 0 -173.5 -77.5t-67.5 -186.5z" />
    <glyph glyph-name="Emacron" unicode="&#x112;" horiz-adv-x="1185" 
d="M123 0v1454h940v-297h-592v-266h522v-297h-522v-297h612v-297h-960zM977 1612h-770v231h770v-231z" />
    <glyph glyph-name="emacron" unicode="&#x113;" horiz-adv-x="1220" 
d="M629 -31q-248 0 -404.5 163.5t-156.5 416.5q0 155 68.5 285.5t195.5 209t286 78.5q167 0 292 -77t189 -209.5t64 -303.5v-73h-753q20 -95 75.5 -152t147.5 -57q66 0 114.5 25.5t90.5 80.5l305 -80q-42 -98 -124 -169t-181.5 -104.5t-208.5 -33.5zM283 1462h671v-215h-671
v215zM618 872q-87 0 -138 -54.5t-70 -145.5h409q-15 91 -64.5 145.5t-136.5 54.5z" />
    <glyph glyph-name="Edotaccent" unicode="&#x116;" horiz-adv-x="1185" 
d="M123 1454h940v-297h-592v-266h522v-297h-522v-297h612v-297h-960v1454zM592 1571q-80 0 -135.5 53.5t-55.5 134.5q0 82 54.5 135.5t136.5 53.5t136 -53t54 -136q0 -82 -53.5 -135t-136.5 -53z" />
    <glyph glyph-name="edotaccent" unicode="&#x117;" horiz-adv-x="1220" 
d="M68 549q0 155 68.5 285.5t195.5 209t286 78.5q167 0 292 -77t189 -209.5t64 -303.5v-73h-753q20 -95 75.5 -152t147.5 -57q66 0 114.5 25.5t90.5 80.5l305 -80q-42 -98 -124 -169t-181.5 -104.5t-208.5 -33.5q-248 0 -404.5 163.5t-156.5 416.5zM459 1300q-25 42 -25 93
q0 50 25 92q23 42 67 66t92 24q51 0 94.5 -23.5t69.5 -66.5q23 -44 23 -92q0 -49 -23 -93q-26 -43 -69.5 -66.5t-94.5 -23.5q-48 0 -92 24t-67 66zM618 872q-87 0 -138 -54.5t-70 -145.5h409q-15 91 -64.5 145.5t-136.5 54.5z" />
    <glyph glyph-name="Eogonek" unicode="&#x118;" horiz-adv-x="1185" 
d="M123 0v1454h940v-297h-592v-266h522v-297h-522v-297h612v-297h2q-172 -141 -172 -205q0 -29 21 -47q22 -16 55 -16q15 0 47 4q30 8 43 14l23 -184q-98 -37 -184 -37q-51 0 -96.5 10.5t-85.5 32.5t-63.5 62.5t-23.5 95.5q0 136 185 270h-711z" />
    <glyph glyph-name="eogonek" unicode="&#x119;" horiz-adv-x="1220" 
d="M68 549q0 155 68.5 285.5t195.5 209t286 78.5q167 0 292 -77t189 -209.5t64 -303.5v-73h-753q20 -95 75.5 -152t147.5 -57q66 0 114.5 25.5t90.5 80.5l305 -80q-41 -96 -115 -161q-15 -15 -39 -31q-34 -37 -53 -58.5t-53 -65t-51 -81t-17 -69.5q0 -78 82 -78q11 0 43 4
q30 9 41 14l23 -176q-87 -37 -181 -37q-105 0 -184.5 50.5t-79.5 150.5q0 118 129 233q-18 -2 -59 -2q-248 0 -404.5 163.5t-156.5 416.5zM410 672h409q-15 91 -64.5 145.5t-136.5 54.5t-138 -54.5t-70 -145.5z" />
    <glyph glyph-name="Ecaron" unicode="&#x11a;" horiz-adv-x="1185" 
d="M123 1454h940v-297h-592v-266h522v-297h-522v-297h612v-297h-960v1454zM129 1884h326l141 -117l145 117h316l-305 -282h-318z" />
    <glyph glyph-name="ecaron" unicode="&#x11b;" horiz-adv-x="1220" 
d="M629 -31q-248 0 -404.5 163.5t-156.5 416.5q0 155 68.5 285.5t195.5 209t286 78.5q167 0 292 -77t189 -209.5t64 -303.5v-73h-753q20 -95 75.5 -152t147.5 -57q66 0 114.5 25.5t90.5 80.5l305 -80q-42 -98 -124 -169t-181.5 -104.5t-208.5 -33.5zM209 1532h285l129 -117
l133 117h274l-280 -293h-261zM618 872q-87 0 -138 -54.5t-70 -145.5h409q-15 91 -64.5 145.5t-136.5 54.5z" />
    <glyph glyph-name="Gbreve" unicode="&#x11e;" horiz-adv-x="1652" 
d="M850 -41q-161 0 -303 57t-245 157t-162.5 243t-59.5 307q0 161 58.5 304t160.5 246t246.5 162.5t308.5 59.5q226 0 400 -103t266 -305l-349 -100q-102 184 -317 184q-180 0 -292.5 -128t-112.5 -314q0 -190 114.5 -318t304.5 -128q128 0 224.5 65t121.5 187h-329v286h696
v-166q0 -205 -95.5 -364.5t-261.5 -245.5t-374 -86zM860 1591q-149 0 -262 82.5t-137 227.5h262q12 -51 48.5 -80t88.5 -29q54 0 89.5 28t47.5 81h263q-24 -144 -136.5 -227t-263.5 -83z" />
    <glyph glyph-name="gbreve" unicode="&#x11f;" horiz-adv-x="1304" 
d="M68 573q0 106 37 205t101 175.5t159 122.5t204 46q97 0 179.5 -39.5t136.5 -115.5l8 125h307v-949q0 -252 -156 -408.5t-413 -156.5q-172 0 -311.5 77.5t-204.5 227.5l327 70q66 -100 193 -100q109 0 170 70.5t61 182.5v84q-58 -73 -141.5 -112t-177.5 -39
q-103 0 -193.5 45.5t-152.5 120t-97.5 171t-35.5 197.5zM639 831q-101 0 -166 -72.5t-65 -176.5q0 -103 64 -177.5t167 -74.5q102 0 166.5 73.5t64.5 178.5q0 103 -64 176t-167 73zM262 1524h238q9 -49 45 -74q34 -27 88 -27q53 0 88 27q36 25 45 74h238
q-24 -135 -126.5 -213t-244.5 -78q-141 0 -244 77t-127 214z" />
    <glyph glyph-name="Gdotaccent" unicode="&#x120;" horiz-adv-x="1652" 
d="M80 723q0 161 58.5 304t160.5 246t246.5 162.5t308.5 59.5q226 0 400 -103t266 -305l-349 -100q-102 184 -317 184q-180 0 -292.5 -128t-112.5 -314q0 -190 114.5 -318t304.5 -128q128 0 224.5 65t121.5 187h-329v286h696v-166q0 -205 -95.5 -364.5t-261.5 -245.5
t-374 -86q-161 0 -303 57t-245 157t-162.5 243t-59.5 307zM860 1571q-80 0 -135 53.5t-55 134.5q0 82 54 135.5t136 53.5t136.5 -53t54.5 -136q0 -82 -54 -135t-137 -53z" />
    <glyph glyph-name="gdotaccent" unicode="&#x121;" horiz-adv-x="1304" 
d="M547 39q-103 0 -193.5 45.5t-152.5 120t-97.5 171t-35.5 197.5q0 106 37 205t101 175.5t159 122.5t204 46q97 0 179.5 -39.5t136.5 -115.5l8 125h307v-949q0 -252 -156 -408.5t-413 -156.5q-172 0 -311.5 77.5t-204.5 227.5l327 70q66 -100 193 -100q109 0 170 70.5
t61 182.5v84q-58 -73 -141.5 -112t-177.5 -39zM408 582q0 -103 64 -177.5t167 -74.5q102 0 166.5 73.5t64.5 178.5q0 103 -64 176t-167 73q-101 0 -166 -72.5t-65 -176.5zM473 1300q-24 40 -24 93q0 51 24 92q23 42 67 66t93 24q51 0 94.5 -23.5t69.5 -66.5q22 -42 22 -92
q0 -51 -22 -93q-26 -43 -69.5 -66.5t-94.5 -23.5q-49 0 -93 24t-67 66z" />
    <glyph glyph-name="uni0122" unicode="&#x122;" horiz-adv-x="1652" 
d="M850 -41q-161 0 -303 57t-245 157t-162.5 243t-59.5 307q0 161 58.5 304t160.5 246t246.5 162.5t308.5 59.5q226 0 400 -103t266 -305l-349 -100q-102 184 -317 184q-180 0 -292.5 -128t-112.5 -314q0 -190 114.5 -318t304.5 -128q128 0 224.5 65t121.5 187h-329v286h696
v-166q0 -205 -95.5 -364.5t-261.5 -245.5t-374 -86zM690 -252q0 38 21 69t55 46q35 18 80 18q53 0 94 -24q38 -20 64 -64q22 -42 22 -92q0 -106 -69 -178.5t-177 -104.5l-47 121q103 35 123 94q-13 -8 -41 -8q-55 0 -90 34t-35 89z" />
    <glyph glyph-name="uni0123" unicode="&#x123;" horiz-adv-x="1304" 
d="M547 39q-103 0 -193.5 45.5t-152.5 120t-97.5 171t-35.5 197.5q0 106 37 205t101 175.5t159 122.5t204 46q97 0 179.5 -39.5t136.5 -115.5l8 125h307v-949q0 -252 -156 -408.5t-413 -156.5q-172 0 -311.5 77.5t-204.5 227.5l327 70q66 -100 193 -100q109 0 170 70.5
t61 182.5v84q-58 -73 -141.5 -112t-177.5 -39zM408 582q0 -103 64 -177.5t167 -74.5q102 0 166.5 73.5t64.5 178.5q0 103 -64 176t-167 73q-101 0 -166 -72.5t-65 -176.5zM557 1214q-40 23 -63 65t-23 89q0 100 68 173t170 104l47 -121q-96 -33 -121 -92q16 8 41 8
q54 0 87.5 -33.5t33.5 -87.5q0 -59 -44.5 -94t-105.5 -35q-49 0 -90 24z" />
    <glyph glyph-name="Hbar" unicode="&#x126;" horiz-adv-x="1581" 
d="M-8 1071v223h151v160h357v-160h581v160h357v-160h151v-223h-151v-1071h-357v571h-581v-571h-357v1071h-151zM500 887h581v184h-581v-184z" />
    <glyph glyph-name="hbar" unicode="&#x127;" 
d="M104 1202h-133v203h133v127h334v-127h254v-203h-254v-250q52 74 130 112t171 38q127 0 216.5 -65.5t130 -168t40.5 -229.5v-639h-333v592q0 95 -43 153q-47 56 -123 56q-83 0 -136 -59t-53 -144v-598h-334v1202z" />
    <glyph glyph-name="Itilde" unicode="&#x128;" horiz-adv-x="602" 
d="M123 0v1454h356v-1454h-356zM88 1604h-205q6 61 24 114t49.5 98t82.5 71t115 26q50 0 81.5 -10.5t81.5 -38.5q81 -52 119 -52q35 0 55 25.5t25 63.5h205q-6 -61 -24 -114t-49 -98t-82 -71.5t-115 -26.5q-87 0 -164 51q-13 7 -35.5 20t-26.5 15q-30 15 -57 15
q-34 0 -54.5 -26t-25.5 -62z" />
    <glyph glyph-name="itilde" unicode="&#x129;" horiz-adv-x="542" 
d="M438 0h-334v1092h334v-1092zM90 1241h-190q9 91 39 158q70 137 196 137q48 0 80 -14q31 -13 66 -31q11 -7 31.5 -19.5t21.5 -13.5q22 -14 49 -14q54 0 66 80h190q-4 -43 -14 -82t-29 -79t-44.5 -69t-64 -47t-84.5 -18q-73 0 -143 47q-27 13 -55 31q-22 14 -49 14
q-54 0 -66 -80z" />
    <glyph glyph-name="Imacron" unicode="&#x12a;" horiz-adv-x="602" 
d="M123 0v1454h356v-1454h-356zM-84 1612v231h770v-231h-770z" />
    <glyph glyph-name="imacron" unicode="&#x12b;" horiz-adv-x="542" 
d="M104 0v1092h334v-1092h-334zM-68 1247v215h672v-215h-672z" />
    <glyph glyph-name="Iogonek" unicode="&#x12e;" horiz-adv-x="602" 
d="M43 -270q0 136 184 270h-104v1454h356v-1454q-172 -141 -172 -205q0 -29 21 -47q22 -16 55 -16q15 0 47 4q30 8 43 14l23 -184q-98 -37 -185 -37q-41 0 -78 6t-72 21t-61 37.5t-41.5 57.5t-15.5 79z" />
    <glyph glyph-name="iogonek" unicode="&#x12f;" horiz-adv-x="542" 
d="M10 -270q0 133 189 270h-95v1092h334v-1092q-172 -141 -172 -205q0 -29 21 -47q22 -16 59 -16q9 0 45 4q30 8 41 14l23 -176q-81 -37 -181 -37q-48 0 -93 10.5t-84 32.5t-63 60.5t-24 89.5zM111 1286q-25 42 -25 92t25 92q23 42 67 66.5t92 24.5q51 0 94.5 -24t69.5 -67
q23 -44 23 -92t-23 -92q-26 -43 -69.5 -66.5t-94.5 -23.5q-48 0 -92 24t-67 66z" />
    <glyph glyph-name="Idotaccent" unicode="&#x130;" horiz-adv-x="602" 
d="M479 0h-356v1454h356v-1454zM301 1571q-80 0 -135 53.5t-55 134.5q0 82 54 135.5t136 53.5t136.5 -53t54.5 -136q0 -82 -54 -135t-137 -53z" />
    <glyph glyph-name="dotlessi" unicode="&#x131;" horiz-adv-x="542" 
d="M104 0v1092h334v-1092h-334z" />
    <glyph glyph-name="IJ" unicode="&#x132;" horiz-adv-x="1466" 
d="M115 412l344 55q34 -86 102 -133t160 -47q135 0 206.5 89.5t71.5 231.5v846h357v-848q0 -139 -41.5 -257t-119 -205t-195 -136t-261.5 -49q-228 0 -396 117.5t-228 335.5zM111 1454h356v-813h-356v813z" />
    <glyph glyph-name="ij" unicode="&#x133;" 
d="M492 39q-95 0 -170.5 37.5t-122 102.5t-71 147.5t-24.5 175.5v590h334v-543q0 -98 45 -152q42 -57 121 -57q53 0 97.5 25.5t68.5 72.5q23 51 23 105v549h333v-973q0 -240 -143 -390.5t-387 -150.5q-160 0 -292 78t-189 221l321 72q58 -96 164 -96q96 0 144.5 66t48.5 165
v104q-52 -72 -131 -110.5t-170 -38.5zM774 1378q0 50 25 92q23 42 67 66.5t92 24.5q51 0 94.5 -24t69.5 -67q23 -44 23 -92t-23 -92q-26 -43 -69.5 -66.5t-94.5 -23.5q-48 0 -92 24t-67 66q-25 42 -25 92zM111 1286q-25 42 -25 92t25 92q23 42 67 66.5t92 24.5
q51 0 94.5 -24t69.5 -67q23 -44 23 -92t-23 -92q-26 -43 -69.5 -66.5t-94.5 -23.5q-48 0 -92 24t-67 66z" />
    <glyph glyph-name="uni0136" unicode="&#x136;" horiz-adv-x="1464" 
d="M123 0v1454h356v-639l488 639h409l-538 -674l612 -780h-455l-516 700v-700h-356zM680 -375q-55 0 -90 34t-35 89q0 38 21 69t55 46q35 18 80 18q53 0 94 -24q36 -19 63 -64q23 -44 23 -92q0 -106 -69 -178.5t-177 -104.5l-47 121q103 35 123 94q-13 -8 -41 -8z" />
    <glyph glyph-name="uni0137" unicode="&#x137;" 
d="M104 0v1532h334v-877l361 437h379l-418 -484l467 -608h-412l-377 537v-537h-334zM563 -354q-54 0 -87.5 33.5t-33.5 87.5q0 59 44.5 94t105.5 35q50 0 92 -25q40 -21 62 -64t22 -90q0 -100 -67.5 -172t-170.5 -104l-47 121q92 30 121 92q-16 -8 -41 -8z" />
    <glyph glyph-name="kgreenlandic" unicode="&#x138;" 
d="M104 1092h334v-455l361 455h379l-418 -500l467 -592h-412l-377 518v-518h-334v1092z" />
    <glyph glyph-name="Lacute" unicode="&#x139;" horiz-adv-x="1128" 
d="M123 0v1454h356v-1139h574v-315h-930zM49 1602l285 282h414l-359 -282h-340z" />
    <glyph glyph-name="lacute" unicode="&#x13a;" horiz-adv-x="542" 
d="M104 0v1532h334v-1532h-334zM57 1661l230 293h368l-286 -293h-312z" />
    <glyph glyph-name="uni013B" unicode="&#x13b;" horiz-adv-x="1128" 
d="M1053 0h-930v1454h356v-1139h574v-315zM418 -252q0 38 21 69t55 46q34 18 79 18q55 0 95 -24q36 -19 63 -64q23 -44 23 -92q0 -106 -69 -178.5t-177 -104.5l-47 121q103 35 123 94q-13 -8 -41 -8q-55 0 -90 34t-35 89z" />
    <glyph glyph-name="uni013C" unicode="&#x13c;" horiz-adv-x="542" 
d="M104 0v1532h334v-1532h-334zM227 -354q-54 0 -87.5 33.5t-33.5 87.5q0 59 44.5 94t105.5 35q50 0 92 -25q40 -21 62 -64t22 -90q0 -100 -67.5 -172.5t-169.5 -103.5l-48 121q92 30 121 92q-16 -8 -41 -8z" />
    <glyph glyph-name="Lcaron" unicode="&#x13d;" horiz-adv-x="1128" 
d="M123 0v1454h356v-1139h574v-315h-930zM610 1128l27 404h278l-127 -404h-178z" />
    <glyph glyph-name="lcaron" unicode="&#x13e;" horiz-adv-x="645" 
d="M104 1532h334v-1532h-334v1532zM748 1128h-179l27 404h278z" />
    <glyph glyph-name="Lslash" unicode="&#x141;" horiz-adv-x="1148" 
d="M-8 307v305l151 111v731h357v-473l245 178v-307l-245 -178v-359h573v-315h-930v416z" />
    <glyph glyph-name="lslash" unicode="&#x142;" horiz-adv-x="647" 
d="M16 397v267l142 106v762h334v-514l139 104v-266l-139 -104v-752h-334v504z" />
    <glyph glyph-name="Nacute" unicode="&#x143;" horiz-adv-x="1519" 
d="M123 0v1454h305l627 -889v889h342v-1454h-305l-627 889v-889h-342zM848 1602h-340l285 282h413z" />
    <glyph glyph-name="nacute" unicode="&#x144;" 
d="M104 1092h308l10 -144q48 84 132 129t185 45q127 0 216.5 -65.5t130 -168t40.5 -229.5v-659h-333v612q0 96 -43 154q-46 55 -123 55q-83 0 -136 -59t-53 -144v-618h-334v1092zM403 1239l230 293h368l-286 -293h-312z" />
    <glyph glyph-name="uni0145" unicode="&#x145;" horiz-adv-x="1519" 
d="M123 1454h305l627 -889v889h342v-1454h-305l-627 889v-889h-342v1454zM717 -375q-55 0 -90 34t-35 89q0 38 21 69t55 46q34 18 80 18q54 0 94 -24q36 -19 63 -64q23 -44 23 -92q0 -106 -69 -178.5t-177 -104.5l-47 121q103 35 123 94q-13 -8 -41 -8z" />
    <glyph glyph-name="uni0146" unicode="&#x146;" 
d="M104 1092h308l10 -144q48 84 132 129t185 45q127 0 216.5 -65.5t130 -168t40.5 -229.5v-659h-333v612q0 96 -43 154q-46 55 -123 55q-83 0 -136 -59t-53 -144v-618h-334v1092zM573 -354q-54 0 -87 33.5t-33 87.5q0 59 44.5 94t104.5 35q50 0 92 -25q40 -21 62 -64t22 -90
q0 -100 -67.5 -172.5t-169.5 -103.5l-47 121q91 30 120 92q-16 -8 -41 -8z" />
    <glyph glyph-name="Ncaron" unicode="&#x147;" horiz-adv-x="1519" 
d="M123 1454h305l627 -889v889h342v-1454h-305l-627 889v-889h-342v1454zM297 1884h326l141 -117l145 117h316l-305 -282h-318z" />
    <glyph glyph-name="ncaron" unicode="&#x148;" 
d="M104 1092h308l10 -144q48 84 132 129t185 45q127 0 216.5 -65.5t130 -168t40.5 -229.5v-659h-333v612q0 96 -43 154q-46 55 -123 55q-83 0 -136 -59t-53 -144v-618h-334v1092zM485 1239l-280 293h284l129 -117l134 117h274l-281 -293h-260z" />
    <glyph glyph-name="Eng" unicode="&#x14a;" horiz-adv-x="1519" 
d="M465 0h-342v1454h305l627 -889v889h342v-1425q0 -201 -116 -326t-318 -125q-66 0 -135.5 20t-122.5 56l73 248q72 -33 135 -33q68 0 105 40.5t37 108.5v35l-590 836v-889z" />
    <glyph glyph-name="eng" unicode="&#x14b;" 
d="M104 1092h308l10 -144q48 84 132 129t185 45q127 0 216.5 -65.5t130 -168t40.5 -229.5v-679q0 -176 -97.5 -289t-274.5 -113q-118 0 -207 47l57 252q15 -7 45 -14q28 -4 41 -4q55 0 79 39t24 98v616q0 96 -43 154q-46 55 -123 55q-83 0 -136 -59t-53 -144v-618h-334v1092
z" />
    <glyph glyph-name="Ohungarumlaut" unicode="&#x150;" horiz-adv-x="1695" 
d="M80 725q0 162 57.5 304t158.5 244.5t245 162t309 59.5q161 0 303 -57.5t244 -158t160.5 -243.5t58.5 -307q0 -161 -58 -303.5t-159 -245t-245 -162t-308 -59.5q-161 0 -302.5 57.5t-243.5 158.5t-161 243.5t-59 306.5zM848 1167q-179 0 -289 -127.5t-110 -312.5
q0 -117 46.5 -216t139 -161.5t213.5 -62.5q120 0 212 60t139.5 159.5t47.5 220.5q0 118 -46 217t-138.5 161t-214.5 62zM1196 1602h-315l270 282h389zM373 1602l270 282h389l-344 -282h-315z" />
    <glyph glyph-name="ohungarumlaut" unicode="&#x151;" horiz-adv-x="1298" 
d="M645 -31q-161 0 -292.5 73t-208 205t-76.5 296q0 163 76 295.5t210 208t299 75.5q161 0 293.5 -73.5t208.5 -205.5t76 -296q0 -163 -76.5 -295.5t-210.5 -207.5t-299 -75zM408 545q0 -82 32 -139q29 -62 85.5 -99t123.5 -37q108 0 175 82t67 193q0 76 -31 143
q-73 133 -211 133q-109 0 -175 -81.5t-66 -194.5zM700 1239l197 293h313l-254 -293h-256zM289 1239l196 293h314l-254 -293h-256z" />
    <glyph glyph-name="OE" unicode="&#x152;" horiz-adv-x="2103" 
d="M80 725q0 217 102 384t278 256t396 89h1124v-297h-571v-266h502v-297h-502v-297h592v-297h-1149q-128 0 -244 31.5t-212 93t-167 148t-110 202.5t-39 250zM874 1139q-191 0 -308 -109.5t-117 -302.5q0 -189 116 -300.5t309 -111.5h187v824h-187z" />
    <glyph glyph-name="oe" unicode="&#x153;" horiz-adv-x="2009" 
d="M68 543q0 156 72.5 288.5t203 211.5t289.5 79q241 0 393 -180q152 180 397 180q123 0 224 -46t167 -126t102 -187.5t36 -230.5v-73h-733q16 -95 70.5 -152t146.5 -57q125 0 190 106l305 -80q-61 -145 -199 -226t-302 -81q-119 0 -226.5 47t-179.5 136q-72 -89 -176 -136
t-221 -47q-156 0 -284.5 76.5t-201.5 208t-73 289.5zM639 821q-72 0 -126 -41t-79.5 -102.5t-25.5 -132.5q0 -107 63.5 -191t167.5 -84q105 0 168 82.5t63 192.5q0 111 -61.5 193.5t-169.5 82.5zM1417 872q-84 0 -133.5 -56t-66.5 -144h391q-33 200 -191 200z" />
    <glyph glyph-name="Racute" unicode="&#x154;" horiz-adv-x="1316" 
d="M123 1454h493q93 0 177.5 -16t161.5 -52t133 -90t89 -136t33 -183q0 -124 -64.5 -231t-172.5 -173l321 -573h-389l-239 479q-23 -2 -68 -2q-50 0 -125 10v-487h-350v1454zM610 1157h-137v-377q67 -12 143 -12q103 0 169.5 49t66.5 148q0 100 -68 146t-174 46zM354 1602
l285 282h414l-359 -282h-340z" />
    <glyph glyph-name="racute" unicode="&#x155;" horiz-adv-x="831" 
d="M104 1092h308l12 -174q40 89 108 138.5t162 49.5q56 0 101 -19l-33 -331q-31 14 -94 14q-230 0 -230 -252v-518h-334v1092zM244 1239l229 293h369l-287 -293h-311z" />
    <glyph glyph-name="Rcaron" unicode="&#x158;" horiz-adv-x="1316" 
d="M123 0v1454h493q93 0 177.5 -16t161.5 -52t133 -90t89 -136t33 -183q0 -124 -64.5 -231t-172.5 -173l321 -573h-389l-239 479q-23 -2 -68 -2q-50 0 -125 10v-487h-350zM449 1602l-306 282h326l141 -117l146 117h315l-305 -282h-317zM473 1157v-377q67 -12 143 -12
q103 0 169.5 49t66.5 148q0 100 -68 146t-174 46h-137z" />
    <glyph glyph-name="rcaron" unicode="&#x159;" horiz-adv-x="831" 
d="M438 0h-334v1092h308l12 -174q40 89 108 138.5t162 49.5q56 0 101 -19l-33 -331q-31 14 -94 14q-230 0 -230 -252v-518zM45 1532h285l129 -117l133 117h274l-280 -293h-260z" />
    <glyph glyph-name="Sacute" unicode="&#x15a;" horiz-adv-x="1189" 
d="M592 -31q-129 0 -242.5 44.5t-197 136.5t-111.5 219l330 65q58 -162 223 -162q72 0 130 38t58 106q0 31 -16 56.5t-36 40.5t-55.5 28.5t-56 18.5t-55.5 13l-55 13q-72 16 -133 39.5t-117 60.5t-95 83t-62 110t-23 139q0 139 74 247t192.5 164t257.5 56
q194 0 332.5 -100.5t181.5 -288.5l-323 -66q-55 152 -195 152q-66 0 -116 -35t-50 -98q0 -43 30 -73.5t75 -43.5q52 -19 110 -33l53 -12q61 -14 113.5 -33t103.5 -45t90 -61t69.5 -78t46.5 -98.5t16 -120.5q0 -110 -44.5 -202.5t-120 -153t-174 -93.5t-208.5 -33zM688 1602
h-340l285 282h414z" />
    <glyph glyph-name="sacute" unicode="&#x15b;" horiz-adv-x="1034" 
d="M518 -31q-106 0 -200 30.5t-170.5 100.5t-106.5 170l307 56q21 -51 68 -78t104 -27q32 0 60.5 7.5t51.5 29t23 55.5q0 41 -37 62q-44 23 -131 37l-49 8q-74 13 -136 37.5t-116 64t-85 100.5t-31 138q0 116 64.5 200t162.5 123t213 39q103 0 192 -29.5t160.5 -97.5
t98.5 -166l-306 -55q-17 45 -55 72q-40 24 -90 24q-49 0 -85 -20.5t-36 -65.5q0 -34 35 -55q37 -22 129 -37l49 -8q60 -11 111.5 -27.5t101.5 -44.5t84.5 -64t56 -88.5t21.5 -115.5q0 -91 -39 -164.5t-104.5 -118.5t-146 -68.5t-169.5 -23.5zM606 1239h-311l229 293h369z
" />
    <glyph glyph-name="Scedilla" unicode="&#x15e;" horiz-adv-x="1189" 
d="M41 369l330 65q58 -162 223 -162q72 0 130 38t58 106q0 31 -16 56.5t-36 40.5t-55.5 28.5t-56 18.5t-55.5 13l-55 13q-72 16 -133 39.5t-117 60.5t-95 83t-62 110t-23 139q0 139 74 247t192.5 164t257.5 56q194 0 332.5 -100.5t181.5 -288.5l-323 -66q-55 152 -195 152
q-66 0 -116 -35t-50 -98q0 -43 30 -73.5t75 -43.5q52 -19 110 -33l53 -12q61 -14 113.5 -33t103.5 -45t90 -61t69.5 -78t46.5 -98.5t16 -120.5q0 -189 -122 -315.5t-315 -158.5l-24 -67q61 -20 99 -71t38 -113q0 -56 -28.5 -100t-74.5 -69t-98 -38t-104 -13q-87 0 -184 33
l30 174q66 -20 105 -20t65 16q23 16 23 45q0 19 -13 32.5t-33.5 19.5t-39 9t-35.5 3l59 159q-162 19 -286.5 126.5t-159.5 265.5z" />
    <glyph glyph-name="scedilla" unicode="&#x15f;" horiz-adv-x="1034" 
d="M41 270l307 56q21 -51 68 -78t104 -27q32 0 60.5 7.5t51.5 29t23 55.5q0 41 -37 62q-44 23 -131 37l-49 8q-74 13 -136 37.5t-116 64t-85 100.5t-31 138q0 116 64.5 200t162.5 123t213 39q103 0 192 -29.5t160.5 -97.5t98.5 -166l-306 -55q-17 45 -55 72q-40 24 -90 24
q-49 0 -85 -20.5t-36 -65.5q0 -34 35 -55q37 -22 129 -37l49 -8q60 -11 111.5 -27.5t101.5 -44.5t84.5 -64t56 -88.5t21.5 -115.5q0 -128 -72 -214.5t-200 -133.5q-41 -11 -91 -21l-18 -53q61 -21 99 -68t38 -108q0 -55 -28 -98t-73.5 -67t-96 -36t-101.5 -12q-83 0 -174 33
l27 166q39 -13 57 -17q36 -4 47 -4q39 0 66 17q22 16 22 45q0 63 -121 63l54 141q-132 21 -233 96.5t-138 196.5z" />
    <glyph glyph-name="Scaron" unicode="&#x160;" horiz-adv-x="1189" 
d="M41 369l330 65q58 -162 223 -162q72 0 130 38t58 106q0 31 -16 56.5t-36 40.5t-55.5 28.5t-56 18.5t-55.5 13l-55 13q-72 16 -133 39.5t-117 60.5t-95 83t-62 110t-23 139q0 139 74 247t192.5 164t257.5 56q194 0 332.5 -100.5t181.5 -288.5l-323 -66q-55 152 -195 152
q-66 0 -116 -35t-50 -98q0 -43 30 -73.5t75 -43.5q52 -19 110 -33l53 -12q61 -14 113.5 -33t103.5 -45t90 -61t69.5 -78t46.5 -98.5t16 -120.5q0 -110 -44.5 -202.5t-120 -153t-174 -93.5t-208.5 -33q-129 0 -242.5 44.5t-197 136.5t-111.5 219zM442 1602l-305 282h326
l141 -117l146 117h315l-305 -282h-318z" />
    <glyph glyph-name="scaron" unicode="&#x161;" horiz-adv-x="1034" 
d="M41 270l307 56q21 -51 68 -78t104 -27q32 0 60.5 7.5t51.5 29t23 55.5q0 41 -37 62q-44 23 -131 37l-49 8q-74 13 -136 37.5t-116 64t-85 100.5t-31 138q0 116 64.5 200t162.5 123t213 39q103 0 192 -29.5t160.5 -97.5t98.5 -166l-306 -55q-17 45 -55 72q-40 24 -90 24
q-49 0 -85 -20.5t-36 -65.5q0 -34 35 -55q37 -22 129 -37l49 -8q60 -11 111.5 -27.5t101.5 -44.5t84.5 -64t56 -88.5t21.5 -115.5q0 -91 -39 -164.5t-104.5 -118.5t-146 -68.5t-169.5 -23.5q-106 0 -200 30.5t-170.5 100.5t-106.5 170zM377 1239l-281 293h285l129 -117
l133 117h275l-281 -293h-260z" />
    <glyph glyph-name="Tcaron" unicode="&#x164;" horiz-adv-x="1306" 
d="M78 1454h1151v-315h-398v-1139h-356v1139h-397v315zM494 1602l-306 282h326l141 -117l146 117h315l-305 -282h-317z" />
    <glyph glyph-name="tcaron" unicode="&#x165;" horiz-adv-x="919" 
d="M39 819v273h180v372h334v-372h281v-273h-281v-416q0 -147 125 -147q63 0 143 35l51 -254q-127 -68 -270 -68q-186 0 -284.5 103.5t-98.5 289.5v457h-180zM887 1219h-189l21 313h268z" />
    <glyph glyph-name="Tbar" unicode="&#x166;" horiz-adv-x="1306" 
d="M78 1139v315h1151v-315h-398v-353h246v-264h-246v-522h-356v522h-246v264h246v353h-397z" />
    <glyph glyph-name="tbar" unicode="&#x167;" horiz-adv-x="919" 
d="M39 836v256h180v372h334v-372h281v-256h-281v-168h260v-193h-260v-78q0 -147 125 -147q63 0 143 35l51 -248q-127 -68 -270 -68q-186 0 -284.5 103.5t-98.5 289.5v113h-160v193h160v168h-180z" />
    <glyph glyph-name="Utilde" unicode="&#x168;" horiz-adv-x="1515" 
d="M111 598v856h356v-840q0 -141 75.5 -234t215.5 -93t215.5 91.5t75.5 235.5v840h356v-856q0 -291 -176.5 -465t-474.5 -174q-289 0 -466 172.5t-177 466.5zM340 1604q7 82 36 149t89.5 113.5t144.5 46.5q50 0 82 -10.5t82 -38.5q81 -52 119 -52q35 0 55 25.5t25 63.5h205
q-6 -61 -24 -114t-49.5 -98t-82.5 -71.5t-115 -26.5q-87 0 -164 51q-13 7 -34 19.5t-27 15.5q-30 15 -57 15q-34 0 -54.5 -26t-25.5 -62h-205z" />
    <glyph glyph-name="utilde" unicode="&#x169;" horiz-adv-x="1224" 
d="M104 1092h334v-607q0 -92 43 -153.5t131 -61.5q89 0 131.5 60t42.5 155v607h334v-600q0 -233 -136.5 -378t-373.5 -145q-231 0 -368.5 143.5t-137.5 379.5v600zM242 1241q6 54 21 103t41.5 94t71 71.5t101.5 26.5q48 0 80 -14q31 -13 66 -31q11 -7 31.5 -19.5t21.5 -13.5
q22 -14 49 -14q54 0 66 80h190q-4 -43 -14 -82t-29 -79t-44.5 -69t-64 -47t-84.5 -18q-73 0 -143 47q-27 13 -55 31q-22 14 -49 14q-54 0 -66 -80h-190z" />
    <glyph glyph-name="Umacron" unicode="&#x16a;" horiz-adv-x="1515" 
d="M111 1454h356v-840q0 -141 75.5 -234t215.5 -93t215.5 91.5t75.5 235.5v840h356v-856q0 -291 -176.5 -465t-474.5 -174q-289 0 -466 172.5t-177 466.5v856zM1143 1612h-770v231h770v-231z" />
    <glyph glyph-name="umacron" unicode="&#x16b;" horiz-adv-x="1224" 
d="M104 1092h334v-607q0 -92 43 -153.5t131 -61.5q89 0 131.5 60t42.5 155v607h334v-600q0 -233 -136.5 -378t-373.5 -145q-231 0 -368.5 143.5t-137.5 379.5v600zM946 1247h-672v215h672v-215z" />
    <glyph glyph-name="Uring" unicode="&#x16e;" horiz-adv-x="1515" 
d="M111 1454h356v-840q0 -141 75.5 -234t215.5 -93t215.5 91.5t75.5 235.5v840h356v-856q0 -291 -176.5 -465t-474.5 -174q-289 0 -466 172.5t-177 466.5v856zM758 1538q-104 0 -178 68t-74 172t73 171.5t179 67.5q105 0 178.5 -67t73.5 -172q0 -103 -73.5 -171.5
t-178.5 -68.5zM672 1778q0 -39 26 -62q23 -26 60 -26q36 0 61 26t25 62q0 35 -25 63q-28 25 -61 25q-36 0 -61 -26t-25 -62z" />
    <glyph glyph-name="uring" unicode="&#x16f;" horiz-adv-x="1224" 
d="M104 1092h334v-607q0 -92 43 -153.5t131 -61.5q89 0 131.5 60t42.5 155v607h334v-600q0 -233 -136.5 -378t-373.5 -145q-231 0 -368.5 143.5t-137.5 379.5v600zM367 1415q0 98 71.5 165t171.5 67q101 0 172.5 -65.5t71.5 -166.5q0 -98 -72 -164.5t-172 -66.5
q-99 0 -171 66t-72 165zM524 1415q0 -37 27 -61q24 -27 59 -27q36 0 61 26t25 62q0 37 -24 64q-27 24 -62 24q-36 0 -61 -26t-25 -62z" />
    <glyph glyph-name="Uhungarumlaut" unicode="&#x170;" horiz-adv-x="1515" 
d="M754 -41q-289 0 -466 172.5t-177 466.5v856h356v-840q0 -141 75.5 -234t215.5 -93t215.5 91.5t75.5 235.5v840h356v-856q0 -291 -176.5 -465t-474.5 -174zM1106 1602h-315l270 282h389zM598 1602h-315l270 282h389z" />
    <glyph glyph-name="uhungarumlaut" unicode="&#x171;" horiz-adv-x="1224" 
d="M104 1092h334v-607q0 -92 43 -153.5t131 -61.5q89 0 131.5 60t42.5 155v607h334v-600q0 -233 -136.5 -378t-373.5 -145q-231 0 -368.5 143.5t-137.5 379.5v600zM918 1239h-256l196 293h313zM250 1239l196 293h314l-254 -293h-256z" />
    <glyph glyph-name="Uogonek" unicode="&#x172;" horiz-adv-x="1515" 
d="M754 -41q-289 0 -466 172.5t-177 466.5v856h356v-840q0 -141 75.5 -234t215.5 -93t215.5 91.5t75.5 235.5v840h356v-856q0 -162 -53.5 -283.5t-173.5 -226.5q-177 -177 -177 -278q0 -38 21.5 -58t58.5 -20q7 0 43 4q30 8 43 14l23 -184q-90 -37 -184 -37q-69 0 -127 19
t-100 67t-42 119q0 110 121 231q-52 -6 -104 -6z" />
    <glyph glyph-name="uogonek" unicode="&#x173;" horiz-adv-x="1224" 
d="M104 1092h334v-607q0 -92 43 -153.5t131 -61.5q89 0 131.5 60t42.5 155v607h334v-600q0 -231 -137 -379q-68 -56 -137.5 -149t-69.5 -154q0 -78 82 -78q11 0 43 4q30 9 41 14l23 -176q-87 -37 -181 -37q-105 0 -184.5 50.5t-79.5 150.5q0 80 64 162q17 27 63 69h-37
q-231 0 -368.5 143.5t-137.5 379.5v600z" />
    <glyph glyph-name="Wcircumflex" unicode="&#x174;" horiz-adv-x="2166" 
d="M55 1454h373l242 -985l260 985h319l260 -983l240 983h362l-434 -1454h-331l-261 985l-260 -985h-336zM936 1602h-315l305 282h317l305 -282h-325l-142 116z" />
    <glyph glyph-name="wcircumflex" unicode="&#x175;" horiz-adv-x="1755" 
d="M377 0l-361 1092h349l172 -691l196 691h295l197 -695l178 695h336l-361 -1092h-309l-192 684l-195 -684h-305zM741 1239h-274l281 293h260l280 -293h-284l-130 117z" />
    <glyph glyph-name="Ycircumflex" unicode="&#x176;" horiz-adv-x="1400" 
d="M522 559l-506 895h404l287 -563l286 563h391l-505 -895v-559h-357v559zM238 1602l305 282h317l305 -282h-325l-142 116l-145 -116h-315z" />
    <glyph glyph-name="ycircumflex" unicode="&#x177;" horiz-adv-x="1179" 
d="M16 1092h367l225 -717l201 717h354l-434 -1170q-29 -77 -64.5 -136.5t-84.5 -108t-115.5 -74t-147.5 -25.5q-129 0 -213 51l60 256q65 -26 115 -26q63 0 101 36.5t64 102.5l9 18zM178 1239l281 293h260l280 -293h-284l-129 117l-133 -117h-275z" />
    <glyph glyph-name="Ydieresis" unicode="&#x178;" horiz-adv-x="1400" 
d="M16 1454h404l287 -563l286 563h391l-505 -895v-559h-357v559zM780 1749q0 48 25 90q21 41 63 66q42 22 90 22q49 0 91 -22q40 -24 65 -66q23 -44 23 -90t-23 -90q-26 -44 -65 -64q-41 -24 -91 -24t-90 24q-41 21 -63 64q-25 42 -25 90zM289 1659q-25 42 -25 90t25 90
q21 41 63 66q42 22 90 22t90 -22q41 -25 66 -66q23 -44 23 -90t-23 -90q-25 -43 -66 -64q-40 -24 -90 -24t-90 24q-41 21 -63 64z" />
    <glyph glyph-name="Zacute" unicode="&#x179;" horiz-adv-x="1329" 
d="M70 0v252l706 903h-676v299h1125v-252l-709 -903h754v-299h-1200zM410 1602l284 282h414l-358 -282h-340z" />
    <glyph glyph-name="zacute" unicode="&#x17a;" horiz-adv-x="1097" 
d="M76 0v221l495 602h-479v269h895v-222l-495 -602h530v-268h-946zM328 1239l229 293h369l-287 -293h-311z" />
    <glyph glyph-name="Zdotaccent" unicode="&#x17b;" horiz-adv-x="1329" 
d="M70 252l706 903h-676v299h1125v-252l-709 -903h754v-299h-1200v252zM662 1571q-80 0 -135.5 53.5t-55.5 134.5q0 82 54.5 135.5t136.5 53.5t136 -53t54 -136q0 -82 -53.5 -135t-136.5 -53z" />
    <glyph glyph-name="zdotaccent" unicode="&#x17c;" horiz-adv-x="1097" 
d="M1022 0h-946v221l495 602h-479v269h895v-222l-495 -602h530v-268zM354 1393q0 50 25 92q23 42 67 66t93 24q51 0 94 -23.5t69 -66.5q23 -44 23 -92q0 -49 -23 -93q-26 -43 -69 -66.5t-94 -23.5q-49 0 -93 24t-67 66q-25 42 -25 93z" />
    <glyph glyph-name="Zcaron" unicode="&#x17d;" horiz-adv-x="1329" 
d="M70 0v252l706 903h-676v299h1125v-252l-709 -903h754v-299h-1200zM504 1602l-305 282h325l142 -117l145 117h315l-305 -282h-317z" />
    <glyph glyph-name="zcaron" unicode="&#x17e;" horiz-adv-x="1097" 
d="M76 0v221l495 602h-479v269h895v-222l-495 -602h530v-268h-946zM410 1239l-281 293h285l129 -117l133 117h274l-280 -293h-260z" />
    <glyph glyph-name="uni0218" unicode="&#x218;" horiz-adv-x="1189" 
d="M592 -31q-129 0 -242.5 44.5t-197 136.5t-111.5 219l330 65q58 -162 223 -162q72 0 130 38t58 106q0 31 -16 56.5t-36 40.5t-55.5 28.5t-56 18.5t-55.5 13l-55 13q-72 16 -133 39.5t-117 60.5t-95 83t-62 110t-23 139q0 139 74 247t192.5 164t257.5 56
q194 0 332.5 -100.5t181.5 -288.5l-323 -66q-55 152 -195 152q-66 0 -116 -35t-50 -98q0 -43 30 -73.5t75 -43.5q52 -19 110 -33l53 -12q61 -14 113.5 -33t103.5 -45t90 -61t69.5 -78t46.5 -98.5t16 -120.5q0 -110 -44.5 -202.5t-120 -153t-174 -93.5t-208.5 -33zM424 -252
q0 38 21 69t55 46q34 18 80 18q54 0 94 -24q36 -19 63 -64q23 -44 23 -92q0 -106 -69 -178.5t-177 -104.5l-47 121q103 35 123 94q-13 -8 -41 -8q-55 0 -90 34t-35 89z" />
    <glyph glyph-name="uni0219" unicode="&#x219;" horiz-adv-x="1034" 
d="M518 -31q-106 0 -200 30.5t-170.5 100.5t-106.5 170l307 56q21 -51 68 -78t104 -27q32 0 60.5 7.5t51.5 29t23 55.5q0 41 -37 62q-44 23 -131 37l-49 8q-74 13 -136 37.5t-116 64t-85 100.5t-31 138q0 116 64.5 200t162.5 123t213 39q103 0 192 -29.5t160.5 -97.5
t98.5 -166l-306 -55q-17 45 -55 72q-40 24 -90 24q-49 0 -85 -20.5t-36 -65.5q0 -34 35 -55q37 -22 129 -37l49 -8q60 -11 111.5 -27.5t101.5 -44.5t84.5 -64t56 -88.5t21.5 -115.5q0 -91 -39 -164.5t-104.5 -118.5t-146 -68.5t-169.5 -23.5zM352 -233q0 59 44.5 94
t105.5 35q50 0 92 -25q40 -21 62 -64t22 -90q0 -100 -67.5 -172t-170.5 -104l-47 121q92 30 121 92q-16 -8 -41 -8q-54 0 -87.5 33.5t-33.5 87.5z" />
    <glyph glyph-name="uni021A" unicode="&#x21a;" horiz-adv-x="1306" 
d="M78 1139v315h1151v-315h-398v-1139h-356v1139h-397zM483 -252q0 38 21 69t55 46q35 18 80 18q53 0 94 -24q38 -20 64 -64q22 -42 22 -92q0 -106 -69 -178.5t-177 -104.5l-47 121q103 35 123 94q-13 -8 -41 -8q-55 0 -90 34t-35 89z" />
    <glyph glyph-name="uni021B" unicode="&#x21b;" horiz-adv-x="919" 
d="M39 819v273h180v372h334v-372h281v-273h-281v-416q0 -147 125 -147q63 0 143 35l51 -254q-127 -68 -270 -68q-186 0 -284.5 103.5t-98.5 289.5v457h-180zM481 -354q-54 0 -87.5 33.5t-33.5 87.5q0 59 44.5 94t105.5 35q50 0 92 -25q40 -21 62 -64t22 -90
q0 -100 -67.5 -172.5t-169.5 -103.5l-48 121q92 30 121 92q-16 -8 -41 -8z" />
    <glyph glyph-name="uni0237" unicode="&#x237;" horiz-adv-x="552" 
d="M-150 -369l60 250q6 -3 45 -16q27 -6 47 -6q54 0 84 35q29 40 29 102v1096h334v-1112q0 -177 -103.5 -289.5t-282.5 -112.5q-118 0 -213 53z" />
    <glyph glyph-name="circumflex" unicode="&#x2c6;" 
d="M205 1239l280 293h260l281 -293h-285l-129 117l-133 -117h-274z" />
    <glyph glyph-name="caron" unicode="&#x2c7;" 
d="M205 1532h284l129 -117l134 117h274l-281 -293h-260z" />
    <glyph glyph-name="uni02C9" unicode="&#x2c9;" 
d="M279 1247v215h671v-215h-671z" />
    <glyph glyph-name="uni02CB" unicode="&#x2cb;" 
d="M602 1239l-287 293h369l229 -293h-311z" />
    <glyph glyph-name="breve" unicode="&#x2d8;" 
d="M614 1233q-141 0 -243.5 77t-126.5 214h237q9 -49 45 -74q34 -27 88 -27t88 27q37 26 46 74h237q-24 -135 -126.5 -213t-244.5 -78z" />
    <glyph glyph-name="dotaccent" unicode="&#x2d9;" 
d="M430 1393q0 50 25 92q23 42 67 66t92 24q51 0 94.5 -23.5t69.5 -66.5q23 -44 23 -92q0 -49 -23 -93q-26 -43 -69.5 -66.5t-94.5 -23.5q-48 0 -92 24t-67 66q-25 42 -25 93z" />
    <glyph glyph-name="ring" unicode="&#x2da;" 
d="M371 1415q0 98 71.5 165t171.5 67q101 0 172.5 -65.5t71.5 -166.5q0 -98 -72 -164.5t-172 -66.5q-99 0 -171 66t-72 165zM528 1415q0 -37 27 -61q24 -27 59 -27q36 0 61 26t25 62q0 37 -24 64q-27 24 -62 24q-36 0 -61 -26t-25 -62z" />
    <glyph glyph-name="ogonek" unicode="&#x2db;" 
d="M393 -270q0 49 25 97.5t70 91.5t82 71t87 61l164 -51q-172 -141 -172 -205q0 -29 21 -47q22 -16 59 -16q9 0 45 4q30 8 41 14l23 -176q-81 -37 -181 -37q-48 0 -93 10.5t-84 32.5t-63 60.5t-24 89.5z" />
    <glyph glyph-name="tilde" unicode="&#x2dc;" 
d="M436 1241h-190q6 54 21 103t41.5 94t71 71.5t101.5 26.5q48 0 80 -14q31 -13 66 -31q11 -7 31.5 -19.5t21.5 -13.5q22 -14 49 -14q54 0 66 80h190q-6 -54 -21 -103t-41.5 -94t-71 -71.5t-101.5 -26.5q-74 0 -144 47q-27 13 -55 31q-22 14 -49 14q-54 0 -66 -80z" />
    <glyph glyph-name="hungarumlaut" unicode="&#x2dd;" 
d="M821 1239h-256l197 293h313zM410 1239h-256l196 293h314z" />
    <glyph glyph-name="gravecomb" unicode="&#x300;" horiz-adv-x="0" 
d="M-100 1239l-287 293h369l229 -293h-311z" />
    <glyph glyph-name="acutecomb" unicode="&#x301;" horiz-adv-x="0" 
d="M-211 1239l229 293h369l-287 -293h-311z" />
    <glyph glyph-name="uni0302" unicode="&#x302;" horiz-adv-x="0" 
d="M-410 1239l281 293h260l281 -293h-285l-129 117l-133 -117h-275z" />
    <glyph glyph-name="tildecomb" unicode="&#x303;" horiz-adv-x="0" 
d="M-178 1241h-191q9 91 39 158q36 67 82 102q53 35 115 35q48 0 80 -14q23 -10 65 -31q10 -7 29.5 -18.5t24.5 -14.5q22 -14 49 -14q53 0 65 80h191q-4 -43 -14 -82t-29 -79t-44.5 -69t-64 -47t-84.5 -18q-35 0 -72.5 13t-62 26.5t-63.5 38.5q-22 14 -50 14q-53 0 -65 -80z
" />
    <glyph glyph-name="uni0304" unicode="&#x304;" horiz-adv-x="0" 
d="M-336 1247v215h672v-215h-672z" />
    <glyph glyph-name="uni0306" unicode="&#x306;" horiz-adv-x="0" 
d="M0 1233q-141 0 -244 77t-127 214h238q9 -49 45 -74q35 -27 88 -27q54 0 88 27q36 25 45 74h238q-24 -135 -126.5 -213t-244.5 -78z" />
    <glyph glyph-name="uni0307" unicode="&#x307;" horiz-adv-x="0" 
d="M-184 1393q0 50 22 92q56 90 162 90q51 0 94.5 -23.5t69.5 -66.5q22 -42 22 -92q0 -51 -22 -93q-26 -43 -69.5 -66.5t-94.5 -23.5q-106 0 -162 90q-22 42 -22 93z" />
    <glyph glyph-name="uni0308" unicode="&#x308;" horiz-adv-x="0" 
d="M-229 1208q-73 0 -122.5 48.5t-49.5 121.5q0 72 49.5 121t122.5 49t122.5 -48.5t49.5 -121.5q0 -72 -49.5 -121t-122.5 -49zM229 1208q-73 0 -122.5 48.5t-49.5 121.5q0 72 49.5 121t122.5 49t122.5 -48.5t49.5 -121.5q0 -72 -49.5 -121t-122.5 -49z" />
    <glyph glyph-name="uni030A" unicode="&#x30a;" horiz-adv-x="0" 
d="M-244 1415q0 98 72 165t172 67q101 0 172.5 -65.5t71.5 -166.5q0 -98 -72 -164.5t-172 -66.5q-101 0 -172.5 65t-71.5 166zM-86 1415q0 -36 25 -62t61 -26t61 26t25 62t-25 64q-27 24 -61 24t-61 -24q-25 -28 -25 -64z" />
    <glyph glyph-name="uni030B" unicode="&#x30b;" horiz-adv-x="0" 
d="M307 1239h-256l197 293h313zM-104 1239h-256l196 293h314z" />
    <glyph glyph-name="uni030C" unicode="&#x30c;" horiz-adv-x="0" 
d="M-410 1532h285l129 -117l133 117h275l-281 -293h-260z" />
    <glyph glyph-name="uni0312" unicode="&#x312;" horiz-adv-x="0" 
d="M-78 1214q-40 21 -62 64t-22 90q0 100 68 173t170 104l47 -121q-96 -33 -121 -92q16 8 41 8q54 0 87.5 -33.5t33.5 -87.5q0 -59 -44.5 -94t-105.5 -35q-52 0 -92 24z" />
    <glyph glyph-name="uni0315" unicode="&#x315;" horiz-adv-x="0" 
d="M131 1128l27 404h278l-127 -404h-178z" />
    <glyph glyph-name="dotbelowcomb" unicode="&#x323;" horiz-adv-x="0" 
d="M-184 -295q0 50 22 92q56 90 162 90q51 0 94.5 -23.5t69.5 -66.5q22 -42 22 -92t-22 -92q-26 -43 -69.5 -66.5t-94.5 -23.5q-106 0 -162 90q-22 42 -22 92z" />
    <glyph glyph-name="uni0326" unicode="&#x326;" horiz-adv-x="0" 
d="M-41 -354q-54 0 -87.5 33.5t-33.5 87.5q0 60 44 94.5t106 34.5q50 0 92 -25q40 -21 62 -64t22 -90q0 -100 -67.5 -172t-170.5 -104l-47 121q96 33 121 92q-16 -8 -41 -8z" />
    <glyph glyph-name="uni0327" unicode="&#x327;" horiz-adv-x="0" 
d="M-80 -467q-95 0 -174 33l27 166q43 -14 55 -17q36 -4 49 -4q40 0 64 17q24 15 24 45q0 19 -12.5 32.5t-33 19.5t-38.5 8.5t-37 2.5l70 187h203l-35 -101q61 -21 99 -68t38 -108q0 -55 -28 -98t-73.5 -67t-96 -36t-101.5 -12z" />
    <glyph glyph-name="uni0328" unicode="&#x328;" horiz-adv-x="0" 
d="M-428 -270q0 51 24 99t69 90.5t82 70.5t89 61l164 -51q-94 -76 -133 -123q-39 -45 -39 -82q0 -30 20 -47q22 -16 60 -16q11 0 43 4q31 7 43 14l22 -176q-81 -37 -180 -37q-49 0 -93.5 10t-84 31.5t-63 60.5t-23.5 91z" />
    <glyph glyph-name="uni0E3F" unicode="&#xe3f;" 
d="M117 1413h360v256h232v-260q65 -8 121 -24.5t108 -45.5t88.5 -68.5t58 -97t21.5 -126.5q0 -95 -42.5 -173t-123.5 -120q112 -42 169.5 -133.5t57.5 -214.5q0 -94 -37.5 -169t-102.5 -122.5t-145.5 -75t-172.5 -35.5v-291h-232v287h-360v1413zM442 283h201q188 0 188 153
q0 156 -188 156h-201v-309zM608 1130h-166v-270h166q74 0 119 32t45 103t-45 103t-119 32z" />
    <glyph glyph-name="uni1E24" unicode="&#x1e24;" horiz-adv-x="1540" 
d="M123 1454h356v-545h582v545h356v-1454h-356v594h-582v-594h-356v1454zM580 -311q0 82 54 135t136 53t136.5 -52.5t54.5 -135.5q0 -82 -54 -135.5t-137 -53.5q-80 0 -135 54t-55 135z" />
    <glyph glyph-name="uni1E25" unicode="&#x1e25;" 
d="M104 1532h334v-559q51 73 129.5 111t171.5 38q127 0 216.5 -65.5t130 -168t40.5 -229.5v-659h-333v612q0 96 -43 154q-46 55 -123 55q-83 0 -136 -59t-53 -144v-618h-334v1532zM455 -387q-25 42 -25 92t25 92q23 42 67 66t92 24q51 0 94.5 -23.5t69.5 -66.5
q23 -44 23 -92t-23 -92q-26 -43 -69.5 -66.5t-94.5 -23.5q-48 0 -92 24t-67 66z" />
    <glyph glyph-name="uni1E36" unicode="&#x1e36;" horiz-adv-x="1128" 
d="M123 1454h356v-1139h574v-315h-930v1454zM395 -311q0 81 54.5 134.5t136.5 53.5t136 -52.5t54 -135.5q0 -82 -53.5 -135.5t-136.5 -53.5q-80 0 -135.5 54t-55.5 135z" />
    <glyph glyph-name="uni1E37" unicode="&#x1e37;" horiz-adv-x="542" 
d="M104 0v1532h334v-1532h-334zM109 -387q-25 42 -25 92t25 92q23 42 67 66t92 24q51 0 94.5 -23.5t69.5 -66.5q23 -44 23 -92t-23 -92q-26 -43 -69.5 -66.5t-94.5 -23.5q-48 0 -92 24t-67 66z" />
    <glyph glyph-name="Wgrave" unicode="&#x1e80;" horiz-adv-x="2166" 
d="M55 1454h373l242 -985l260 985h319l260 -983l240 983h362l-434 -1454h-331l-261 985l-260 -985h-336zM637 1884h414l284 -282h-340z" />
    <glyph glyph-name="wgrave" unicode="&#x1e81;" horiz-adv-x="1755" 
d="M377 0l-361 1092h349l172 -691l196 691h295l197 -695l178 695h336l-361 -1092h-309l-192 684l-195 -684h-305zM489 1532h369l229 -293h-311z" />
    <glyph glyph-name="Wacute" unicode="&#x1e82;" horiz-adv-x="2166" 
d="M55 1454h373l242 -985l260 985h319l260 -983l240 983h362l-434 -1454h-331l-261 985l-260 -985h-336zM1171 1602h-340l285 282h414z" />
    <glyph glyph-name="wacute" unicode="&#x1e83;" horiz-adv-x="1755" 
d="M16 1092h349l172 -691l196 691h295l197 -695l178 695h336l-361 -1092h-309l-192 684l-195 -684h-305zM977 1239h-311l229 293h369z" />
    <glyph glyph-name="Wdieresis" unicode="&#x1e84;" horiz-adv-x="2166" 
d="M55 1454h373l242 -985l260 985h319l260 -983l240 983h362l-434 -1454h-331l-261 985l-260 -985h-336zM1163 1749q0 48 25 90q21 41 63 66q42 22 90 22q49 0 91 -22q40 -24 65 -66q23 -44 23 -90t-23 -90q-26 -44 -65 -64q-40 -24 -91 -24q-49 0 -90 24q-41 21 -63 64
q-25 42 -25 90zM672 1659q-25 42 -25 90t25 90q21 41 63 66q42 22 90 22t90 -22q41 -25 66 -66q23 -44 23 -90t-23 -90q-25 -43 -66 -64q-41 -24 -90 -24t-90 24q-41 21 -63 64z" />
    <glyph glyph-name="wdieresis" unicode="&#x1e85;" horiz-adv-x="1755" 
d="M16 1092h349l172 -691l196 691h295l197 -695l178 695h336l-361 -1092h-309l-192 684l-195 -684h-305zM475 1378q0 72 49.5 121t122.5 49t122.5 -48.5t49.5 -121.5q0 -72 -49.5 -121t-122.5 -49t-122.5 48.5t-49.5 121.5zM934 1378q0 72 49.5 121t122.5 49t122.5 -48.5
t49.5 -121.5q0 -72 -49.5 -121t-122.5 -49t-122.5 48.5t-49.5 121.5z" />
    <glyph glyph-name="Germandbls" unicode="&#x1e9e;" horiz-adv-x="1374" 
d="M111 0v856q0 135 40 250t115 199.5t189.5 132t255.5 47.5q174 0 322 -72t253 -211l-231 -348q130 -54 201 -160.5t71 -249.5q0 -140 -69 -249.5t-185.5 -167.5t-257.5 -58q-125 0 -240 47l52 287q60 -31 143 -31q86 0 142.5 49t56.5 136q0 180 -232 188l-26 199l178 270
q-74 53 -166 53q-122 0 -189 -83.5t-67 -211.5v-872h-356z" />
    <glyph glyph-name="Ygrave" unicode="&#x1ef2;" horiz-adv-x="1400" 
d="M522 559l-506 895h404l287 -563l286 563h391l-505 -895v-559h-357v559zM612 1602l-358 282h414l284 -282h-340z" />
    <glyph glyph-name="ygrave" unicode="&#x1ef3;" horiz-adv-x="1179" 
d="M453 16l-437 1076h367l225 -717l201 717h354l-434 -1170q-29 -77 -64.5 -136.5t-84.5 -108t-115.5 -74t-147.5 -25.5q-129 0 -213 51l60 256q65 -26 115 -26q63 0 101 36.5t64 102.5zM201 1532h368l230 -293h-312z" />
    <glyph glyph-name="uni2000" unicode="&#x2000;" horiz-adv-x="1024" 
 />
    <glyph glyph-name="uni2001" unicode="&#x2001;" horiz-adv-x="2048" 
 />
    <glyph glyph-name="uni2002" unicode="&#x2002;" horiz-adv-x="1024" 
 />
    <glyph glyph-name="uni2003" unicode="&#x2003;" horiz-adv-x="2048" 
 />
    <glyph glyph-name="uni2004" unicode="&#x2004;" horiz-adv-x="681" 
 />
    <glyph glyph-name="uni2005" unicode="&#x2005;" horiz-adv-x="512" 
 />
    <glyph glyph-name="uni2006" unicode="&#x2006;" horiz-adv-x="339" 
 />
    <glyph glyph-name="uni2007" unicode="&#x2007;" 
 />
    <glyph glyph-name="uni2008" unicode="&#x2008;" horiz-adv-x="581" 
 />
    <glyph glyph-name="uni2009" unicode="&#x2009;" horiz-adv-x="409" 
 />
    <glyph glyph-name="uni200A" unicode="&#x200a;" horiz-adv-x="129" 
 />
    <glyph glyph-name="uni200B" unicode="&#x200b;" horiz-adv-x="0" 
 />
    <glyph glyph-name="endash" unicode="&#x2013;" horiz-adv-x="1024" 
d="M0 440v246h1024v-246h-1024z" />
    <glyph glyph-name="emdash" unicode="&#x2014;" horiz-adv-x="2048" 
d="M0 440v246h2048v-246h-2048z" />
    <glyph glyph-name="quoteleft" unicode="&#x2018;" horiz-adv-x="526" 
d="M283 821q-99 0 -161.5 82.5t-62.5 186.5q0 144 95.5 249.5t240.5 137.5l47 -160q-78 -20 -137 -69t-59 -120v-10q27 17 59 17q63 0 106.5 -45.5t43.5 -108.5q0 -39 -23 -80q-25 -37 -65 -58.5t-84 -21.5z" />
    <glyph glyph-name="quoteright" unicode="&#x2019;" horiz-adv-x="526" 
d="M221 1151q-62 0 -105.5 46t-43.5 108q0 41 24 79q47 80 148 80q60 0 112 -34q53 -41 82 -103t29 -131q0 -146 -94 -251t-242 -136l-47 160q79 21 138 69t59 119v10q-26 -16 -60 -16z" />
    <glyph glyph-name="quotesinglbase" unicode="&#x201a;" horiz-adv-x="538" 
d="M246 49q-62 0 -106 46t-44 108q0 41 25 80q46 79 147 79q61 0 113 -34q53 -41 82 -103t29 -131q0 -146 -94 -251t-242 -136l-47 160q59 14 99.5 38t72.5 68q24 41 24 82v11q-27 -17 -59 -17z" />
    <glyph glyph-name="quotedblleft" unicode="&#x201c;" horiz-adv-x="999" 
d="M756 821q-99 0 -161.5 82.5t-62.5 186.5q0 144 95.5 249.5t240.5 137.5l47 -160q-78 -20 -137 -69t-59 -120v-10q27 17 59 17q63 0 106.5 -45.5t43.5 -108.5q0 -39 -23 -80q-25 -37 -65 -58.5t-84 -21.5zM59 1090q0 144 95.5 249.5t240.5 137.5l47 -160q-78 -20 -137 -69
t-59 -120v-10q27 17 59 17q63 0 106.5 -45.5t43.5 -108.5q0 -39 -23 -80q-25 -37 -65 -58.5t-84 -21.5q-99 0 -161.5 82.5t-62.5 186.5z" />
    <glyph glyph-name="quotedblright" unicode="&#x201d;" horiz-adv-x="999" 
d="M694 1151q-62 0 -105.5 46t-43.5 108q0 41 24 79q47 80 148 80q60 0 112 -34q53 -41 82 -103t29 -131q0 -146 -94 -251t-242 -136l-47 160q79 21 138 69t59 119v10q-26 -16 -60 -16zM72 1305q0 41 24 79q47 80 148 80q60 0 112 -34q53 -41 82 -103t29 -131
q0 -146 -94 -251t-242 -136l-47 160q79 21 138 69t59 119v10q-26 -16 -60 -16q-62 0 -105.5 46t-43.5 108z" />
    <glyph glyph-name="quotedblbase" unicode="&#x201e;" horiz-adv-x="1013" 
d="M96 203q0 41 25 80q46 79 147 79q61 0 113 -34q53 -41 82 -103t29 -131q0 -146 -94 -251t-242 -136l-47 160q59 14 99.5 38t72.5 68q24 41 24 82v11q-27 -17 -59 -17q-62 0 -106 46t-44 108zM721 49q-62 0 -106 46t-44 108q0 41 25 80q46 79 147 79q61 0 113 -34
q53 -41 82 -103t29 -131q0 -146 -94 -251t-242 -136l-47 160q59 14 99.5 38t72.5 68q24 41 24 82v11q-27 -17 -59 -17z" />
    <glyph glyph-name="dagger" unicode="&#x2020;" horiz-adv-x="999" 
d="M61 1116h285v338h307v-338h285v-266h-285v-1018h-307v1018h-285v266z" />
    <glyph glyph-name="daggerdbl" unicode="&#x2021;" horiz-adv-x="1073" 
d="M98 446h285v404h-285v266h285v338h307v-338h285v-266h-285v-404h285v-266h-285v-348h-307v348h-285v266z" />
    <glyph glyph-name="bullet" unicode="&#x2022;" horiz-adv-x="696" 
d="M84 565q0 109 77 186.5t187 77.5q109 0 186.5 -77t77.5 -187q0 -111 -76 -187.5t-188 -76.5q-72 0 -133 34.5t-94 96.5q-37 58 -37 133z" />
    <glyph glyph-name="ellipsis" unicode="&#x2026;" horiz-adv-x="1744" 
d="M1454 -8q-83 0 -143 60t-60 143q0 85 58.5 143.5t144.5 58.5q87 0 145 -57.5t58 -144.5q0 -84 -59.5 -143.5t-143.5 -59.5zM291 -8q-83 0 -143 60t-60 143q0 85 58.5 143.5t144.5 58.5q87 0 145 -57.5t58 -144.5q0 -84 -59.5 -143.5t-143.5 -59.5zM670 195q0 85 58 143.5
t144 58.5q87 0 145 -57.5t58 -144.5q0 -84 -59.5 -143.5t-143.5 -59.5q-83 0 -142.5 60t-59.5 143z" />
    <glyph glyph-name="perthousand" unicode="&#x2030;" horiz-adv-x="2334" 
d="M215 0l883 1413h262l-883 -1413h-262zM63 1106q0 139 98 232.5t240 93.5q141 0 239.5 -91t98.5 -233q0 -140 -98 -233t-240 -93q-139 0 -238.5 92t-99.5 232zM1933 -18q-139 0 -238.5 91.5t-99.5 231.5q0 139 98 232.5t240 93.5q141 0 239.5 -91t98.5 -233
q0 -140 -98 -232.5t-240 -92.5zM836 305q0 139 98 232.5t240 93.5q141 0 239 -91t98 -233q0 -140 -97.5 -232.5t-239.5 -92.5q-139 0 -238.5 91.5t-99.5 231.5zM1067 305q0 -52 31 -88q27 -37 76 -37q50 0 78 37t28 88q0 50 -29 90q-30 35 -77 35q-50 0 -78.5 -37t-28.5 -88
zM295 1106q0 -49 29 -87t77 -38t77.5 38t29.5 87q0 50 -29 87.5t-78 37.5t-77.5 -37.5t-28.5 -87.5zM1827 305q0 -49 29 -87t77 -38t77.5 38t29.5 87q0 50 -29 87.5t-78 37.5t-77.5 -37.5t-28.5 -87.5z" />
    <glyph glyph-name="guilsinglleft" unicode="&#x2039;" horiz-adv-x="663" 
d="M311 186l-270 398l270 397h281l-260 -397l260 -398h-281z" />
    <glyph glyph-name="guilsinglright" unicode="&#x203a;" horiz-adv-x="663" 
d="M72 186l260 398l-260 397h280l271 -397l-271 -398h-280z" />
    <glyph glyph-name="fraction" unicode="&#x2044;" horiz-adv-x="188" 
d="M-479 0l901 1413h246l-901 -1413h-246z" />
    <glyph glyph-name="uni2080" unicode="&#x2080;" horiz-adv-x="739" 
d="M51 385q0 63 10.5 120.5t35 110.5t61 92t91.5 62t124 23q82 0 144 -34t98 -92t53.5 -128t17.5 -150q0 -63 -10.5 -120t-35 -110t-60.5 -92t-91 -62t-124 -23q-65 0 -118.5 22.5t-89.5 61t-60 91t-35 109.5t-11 119zM369 590q-90 0 -90 -203t90 -203t90 203t-90 203z" />
    <glyph glyph-name="uni2081" unicode="&#x2081;" horiz-adv-x="739" 
d="M307 0v547l-147 -80l-66 182l240 129h198v-778h-225z" />
    <glyph glyph-name="uni2082" unicode="&#x2082;" horiz-adv-x="739" 
d="M70 553q18 107 104 173.5t197 66.5q116 0 199 -68.5t83 -183.5q0 -50 -18 -97.5t-52.5 -89.5t-66.5 -72t-78 -67q-5 -4 -16 -12.5t-16 -12.5h262v-190h-586v152q67 52 68 53l75 63q45 36 60 51q141 124 141 205q0 35 -18 55.5t-52 20.5q-31 0 -52.5 -22t-27.5 -54z" />
    <glyph glyph-name="uni2083" unicode="&#x2083;" horiz-adv-x="739" 
d="M53 199l203 30q20 -59 94 -59q43 0 66 20q22 22 22 50q0 33 -24.5 49t-59.5 16h-78v176h64q41 0 63 19q21 15 21 43q0 27 -21 45q-22 16 -53 16q-27 0 -48 -14.5t-30 -40.5l-204 33q19 101 104 156t193 55q52 0 99.5 -13t88 -39t64.5 -69.5t24 -98.5q0 -112 -109 -170
q130 -52 130 -182q0 -77 -46 -133t-113 -81t-143 -25q-110 0 -196 56.5t-111 160.5z" />
    <glyph glyph-name="uni2084" unicode="&#x2084;" horiz-adv-x="739" 
d="M33 143v168l309 467h254v-463h76v-172h-76v-143h-215v143h-348zM227 315h154v230z" />
    <glyph glyph-name="colonmonetary" unicode="&#x20a1;" 
d="M80 692q0 96 14 187.5t48 182.5t85 163t130.5 125t179.5 73l41 246h161l-41 -237q50 -3 103 -19l43 256h162l-56 -328q152 -115 203 -335l-332 -50q-20 75 -62.5 123.5t-113.5 48.5q-56 0 -97.5 -32t-64 -78t-36 -109t-17.5 -112t-4 -99q0 -41 2.5 -80t10 -89t23 -91
t38.5 -77t59.5 -56t83.5 -20q72 0 120 49t64 123l332 -49q-39 -173 -151.5 -285.5t-284.5 -136.5l-45 -273h-162l45 271q-49 6 -100 22l-49 -293h-162l63 371q-85 67 -139.5 173t-74 211.5t-19.5 223.5z" />
    <glyph glyph-name="uni20A8" unicode="&#x20a8;" horiz-adv-x="2254" 
d="M451 0h-336v1413h465q113 0 210.5 -26.5t177 -80t125.5 -145t46 -211.5q0 -119 -60.5 -224t-163.5 -167l308 -559h-373l-229 465q-18 -2 -60 -2q-33 0 -51 2q-9 1 -59 6v-471zM1729 -31q-164 0 -296.5 76.5t-177.5 224.5l297 56q21 -51 71 -78t108 -27q33 0 62 7.5t53 29
t24 55.5q0 41 -37 62q-44 23 -131 37l-49 8q-74 13 -136 37.5t-116.5 64t-85.5 100.5t-31 138q0 87 37 157.5t98.5 114t139 67t161.5 23.5q159 0 282.5 -73.5t164.5 -219.5l-295 -55q-18 46 -57 72q-41 24 -95 24t-90 -22q-35 -24 -35 -64q0 -34 35 -55q37 -22 129 -37
l49 -8q60 -11 111.5 -27.5t101.5 -44.5t84.5 -64t56 -88.5t21.5 -115.5q0 -121 -66.5 -208t-167 -127t-220.5 -40zM580 1122h-129v-362q61 -12 131 -12q99 0 159 48t60 144q0 94 -61 138t-160 44z" />
    <glyph glyph-name="uni20A9" unicode="&#x20a9;" horiz-adv-x="1996" 
d="M61 731v195h168l-125 487h361l182 -981l205 981h305l207 -981l180 981h348l-125 -487h168v-195h-217l-35 -135h252v-195h-301l-102 -401h-338l-195 909l-192 -909h-342l-103 401h-301v195h252l-34 135h-218z" />
    <glyph glyph-name="uni20AA" unicode="&#x20aa;" horiz-adv-x="1910" 
d="M139 0v1413h647q247 0 392 -151t145 -404v-395h-283v381q0 128 -71 190t-201 62h-346v-1096h-283zM1237 0h-649v940h282v-623h349q128 0 200 63t72 189v844h283v-858q0 -248 -143 -401.5t-394 -153.5z" />
    <glyph glyph-name="dong" unicode="&#x20ab;" 
d="M467 -31q-132 0 -235.5 77t-156 194.5t-52.5 248.5q0 102 31.5 197t89 170.5t147 120.5t196.5 45q81 0 153 -32.5t118 -94.5v209h-250v194h250v115h334v-115h120v-194h-120v-1104h-310l-8 137q-51 -80 -131.5 -124t-175.5 -44zM41 -324v195h1112v-195h-1112zM561 735
q-92 0 -145.5 -71.5t-53.5 -167.5q0 -95 54 -167.5t145 -72.5q92 0 145.5 72t53.5 168t-52.5 167.5t-146.5 71.5z" />
    <glyph glyph-name="Euro" unicode="&#x20ac;" 
d="M-8 473l43 174h106v35q0 49 2 74h-147l43 174h125q22 109 65 199.5t108 162.5t159.5 112t208.5 40q186 0 312 -100t169 -283l-309 -51q-46 137 -177 137q-151 0 -202 -217h368l-43 -174h-346q-2 -18 -2 -60v-49h328l-43 -174h-264q47 -207 200 -207q69 0 118 36t71 101
l309 -51q-41 -179 -177 -281t-325 -102q-225 0 -360 137t-174 367h-166z" />
    <glyph glyph-name="uni20AD" unicode="&#x20ad;" 
d="M-10 864h145v549h342v-596l344 596h369l-354 -549h280v-250h-256l404 -614h-410l-377 668v-668h-342v614h-145v250z" />
    <glyph glyph-name="uni20B1" unicode="&#x20b1;" 
d="M178 645h-155v195h155v137h-153v194h153v242h395q155 0 278 -58.5t191 -183.5h175v-194h-119q2 -18 2 -55q0 -41 -6 -82h123v-195h-187q-70 -116 -184 -172.5t-256 -56.5q-28 0 -82 4v-420h-330v645zM508 1114v-393q32 -4 45 -4q103 0 160 50t57 151q0 97 -53.5 146.5
t-151.5 49.5h-57z" />
    <glyph glyph-name="uni20B9" unicode="&#x20b9;" 
d="M158 1042h465q-57 144 -238 144h-227v227h975l-60 -227h-184q52 -61 76 -144h168l-60 -227h-100q-29 -136 -124 -229.5t-233 -126.5l514 -459h-448l-522 469h-2v213q112 -23 202 -23q212 0 265 156h-467v227z" />
    <glyph glyph-name="uni20BA" unicode="&#x20ba;" 
d="M96 340v207l140 67v142l-138 -66v207l138 66v450h335v-289l222 107v-207l-222 -106v-144l222 107v-207l-222 -107v-260q236 24 279 307l317 -26q-89 -588 -686 -588h-245v408z" />
    <glyph glyph-name="trademark" unicode="&#x2122;" horiz-adv-x="1654" 
d="M762 735v719h223l170 -352l168 352h219v-719h-211v387l-108 -237h-142l-108 237v-387h-211zM248 1262h-193v192h607v-192h-193v-527h-221v527z" />
    <glyph glyph-name="minus" unicode="&#x2212;" 
d="M176 420v287h879v-287h-879z" />
    <glyph glyph-name="uniFEFF" unicode="&#xfeff;" horiz-adv-x="0" 
 />
    <glyph glyph-name="uniFFFD" unicode="&#xfffd;" horiz-adv-x="1654" 
d="M827 -70l-796 797l796 797l797 -797zM827 1147q-115 0 -203.5 -59t-113.5 -168l188 -41q33 90 121 90q46 0 76 -27q29 -29 29 -70q0 -105 -205 -157v-185h192v95q100 31 161 97.5t61 164.5q0 122 -89.5 191t-216.5 69zM815 463q-51 0 -84 -34t-33 -85q0 -48 34 -83.5
t83 -35.5q48 0 83.5 35t35.5 84q0 52 -34 85.5t-85 33.5z" />
    <glyph glyph-name="glyph1" horiz-adv-x="0" 
 />
    <glyph glyph-name="zero.aalt" 
d="M63 705q0 109 17.5 211t59 199.5t103.5 169t158.5 115.5t216.5 44q117 0 211.5 -42.5t156.5 -113.5t103.5 -167t59.5 -198.5t18 -213.5q0 -109 -17.5 -211t-59 -199.5t-103.5 -169.5t-158.5 -116t-216.5 -44q-117 0 -211.5 43t-156.5 114t-103.5 167.5t-59.5 199
t-18 212.5zM614 1130q-44 0 -79 -21.5t-56.5 -59.5t-36 -80.5t-21 -94.5t-9 -89.5t-2.5 -77.5q0 -49 3 -95.5t15.5 -109.5t33 -108.5t60 -78t92.5 -32.5q45 0 81 21.5t57.5 59.5t36 80t21 94.5t9 90t2.5 78.5t-2.5 78.5t-9 89.5t-21 94t-36 80t-57.5 59.5t-81 21.5z" />
    <glyph glyph-name="one.aalt" 
d="M539 0v1055l-269 -150l-106 283l420 225h295v-1413h-340z" />
    <glyph glyph-name="two.aalt" 
d="M94 1028q24 124 98.5 219t183.5 146t236 51q203 0 344.5 -128.5t141.5 -332.5q0 -64 -19 -128t-47.5 -115.5t-73.5 -108t-84 -97t-92 -90.5l-82 -73q-39 -36 -86 -74h508v-297h-1009v242q34 29 90.5 76.5t77.5 66.5q52 43 78 65t84 74t92 87t80.5 88t72.5 95t45 90.5
t19 90.5q0 74 -42.5 118t-115.5 44q-71 0 -117.5 -44t-60.5 -116z" />
    <glyph glyph-name="three.aalt" 
d="M78 356l313 52q23 -67 78.5 -104.5t126.5 -37.5q54 0 98 21q42 19 67 54.5t25 80.5q0 88 -92 137q-46 19 -98 19h-147v286h129q74 0 128 38t54 108q0 60 -43 100q-46 37 -115 37q-138 0 -184 -139l-316 51q22 120 100.5 209t187 132.5t231.5 43.5q90 0 173.5 -25
t151 -72.5t108 -125t40.5 -172.5q0 -102 -50 -182t-141 -128q107 -40 167 -127.5t60 -203.5q0 -104 -44 -189t-118.5 -138.5t-167.5 -82.5t-194 -29q-195 0 -341.5 101t-186.5 286z" />
    <glyph glyph-name="four.aalt" 
d="M51 272v273l582 868h383v-858h149v-283h-149v-272h-330v272h-635zM362 555h324v479z" />
    <glyph glyph-name="five.aalt" 
d="M614 -31q-188 0 -330.5 101.5t-181.5 281.5l320 45q21 -62 71.5 -96.5t116.5 -34.5q81 0 137 49.5t56 130.5q0 107 -92 162q-48 23 -97 23q-47 0 -94.5 -18t-79.5 -50l-268 27v823h868v-301h-544v-252q80 53 192 53q197 0 327 -130t130 -330q0 -142 -73 -254t-193.5 -171
t-264.5 -59z" />
    <glyph glyph-name="six.aalt" 
d="M653 -31q-140 0 -253 56t-184.5 151.5t-109.5 218.5t-38 262q0 123 26 237t80.5 214.5t132.5 175t189 117.5t243 43q196 0 346 -90l-79 -279q-112 62 -246 62q-152 0 -240 -100.5t-110 -260.5q107 139 303 139q195 0 328 -130t133 -328q0 -140 -71 -252.5t-190 -174
t-260 -61.5zM639 643q-82 0 -136 -54.5t-54 -137.5q0 -57 26 -99q25 -44 69 -70t95 -26q82 0 137 56t55 139q0 85 -53 138.5t-139 53.5z" />
    <glyph glyph-name="seven.aalt" 
d="M256 0l471 1102h-627v311h1008v-256l-473 -1157h-379z" />
    <glyph glyph-name="eight.aalt" 
d="M610 -31q-79 0 -155 15t-146.5 48.5t-123.5 82t-85 120t-32 158.5q0 118 61 209t170 137q-88 44 -137 124.5t-49 178.5q0 78 29 145t78 113.5t114 79.5t137 48.5t147 15.5q74 0 144 -14.5t134.5 -46.5t113 -77.5t77.5 -112t29 -146.5q0 -101 -48.5 -180.5t-137.5 -125.5
q110 -44 170.5 -133t60.5 -209q0 -108 -48 -192.5t-127.5 -135t-175.5 -76.5t-200 -26zM614 584q-83 0 -145.5 -43t-62.5 -123q0 -79 62 -120.5t146 -41.5q83 0 146 41t63 121q0 79 -62.5 122.5t-146.5 43.5zM526 1139q-86 -49 -86 -129q0 -42 23.5 -76t62.5 -53
q40 -21 88 -21q50 0 91 21q38 17 60.5 52.5t22.5 76.5q0 85 -83 129q-41 18 -91 18q-48 0 -88 -18z" />
    <glyph glyph-name="nine.aalt" 
d="M518 498q-126 0 -231 59t-166.5 164t-61.5 233q0 140 71 253t190 175t260 62q118 0 215.5 -37.5t165 -103.5t114 -156t68.5 -193.5t22 -218.5q0 -125 -26 -237.5t-80.5 -209.5t-132.5 -167.5t-189.5 -111t-244.5 -40.5q-196 0 -355 90l80 279q112 -62 256 -62
q305 0 350 359q-52 -68 -132.5 -102.5t-172.5 -34.5zM401 963q0 -84 53.5 -138.5t137.5 -54.5t138 54t54 139q0 53 -24 100q-62 94 -166 94q-82 0 -137.5 -55.5t-55.5 -138.5z" />
    <glyph glyph-name="hyphen.aalt" horiz-adv-x="761" 
d="M88 608v287h586v-287h-586z" />
    <glyph glyph-name="endash.aalt" horiz-adv-x="1024" 
d="M0 629v245h1024v-245h-1024z" />
    <glyph glyph-name="emdash.aalt" horiz-adv-x="2048" 
d="M0 629v245h2048v-245h-2048z" />
    <glyph glyph-name="parenleft.aalt" horiz-adv-x="755" 
d="M416 -240q-158 213 -244 461.5t-86 505.5q0 259 85.5 507t244.5 460h315q-159 -217 -248.5 -464.5t-89.5 -502.5q0 -254 89.5 -502.5t248.5 -464.5h-315z" />
    <glyph glyph-name="parenright.aalt" horiz-adv-x="755" 
d="M340 -240h-315q337 461 337 967t-337 967h315q330 -442 330 -967t-330 -967z" />
    <glyph glyph-name="slash.case" horiz-adv-x="1011" 
d="M12 -178l682 1810h305l-682 -1810h-305z" />
    <glyph glyph-name="backslash.aalt" horiz-adv-x="1011" 
d="M694 -178l-682 1810h305l682 -1810h-305z" />
    <glyph glyph-name="bracketleft.aalt" horiz-adv-x="780" 
d="M143 1694h555v-256h-260v-1422h260v-256h-555v1934z" />
    <glyph glyph-name="bracketright.aalt" horiz-adv-x="780" 
d="M342 1438h-260v256h555v-1934h-555v256h260v1422z" />
    <glyph glyph-name="braceleft.aalt" horiz-adv-x="815" 
d="M61 606v242h31q63 0 97 31.5t34 93.5q0 35 -6 88q-24 134 -24 239q0 134 58.5 224t156.5 130t231 40h94v-256h-67q-89 0 -130.5 -45t-41.5 -136q0 -47 8 -94q7 -62 14 -100q8 -44 8 -90q0 -79 -38.5 -149.5t-106.5 -96.5q79 -31 127 -137q18 -53 18 -109q0 -46 -8 -90
q-7 -38 -14 -100q-8 -47 -8 -94q0 -93 43 -136q39 -45 129 -45h67v-256h-94q-133 0 -231 40t-156.5 130t-58.5 224q0 104 24 241q6 53 6 86q0 62 -34 93.5t-97 31.5h-31z" />
    <glyph glyph-name="braceright.aalt" horiz-adv-x="815" 
d="M176 -240h-94v256h68q89 0 130.5 45t41.5 136q0 33 -7 94q-3 16 -8 49t-8 51q-8 44 -8 90q0 77 39 148.5t106 97.5q-86 35 -125 139q-20 47 -20 107q0 46 8 90q3 18 8 51t8 49q7 61 7 94q0 91 -41 138q-43 43 -131 43h-68v256h94q206 0 326.5 -97t120.5 -297
q0 -62 -9 -124q-5 -34 -14 -115q-8 -47 -8 -88q0 -60 35 -92.5t96 -32.5h31v-242h-31q-61 0 -96 -32.5t-35 -92.5q0 -39 8 -86q10 -84 14 -114q9 -65 9 -127q0 -200 -120.5 -297t-326.5 -97z" />
    <glyph glyph-name="bullet.aalt" horiz-adv-x="696" 
d="M84 748q0 109 77 186.5t187 77.5q109 0 186.5 -77t77.5 -187q0 -111 -76 -188t-188 -77q-72 0 -133 34.5t-94 96.5q-37 58 -37 134z" />
    <glyph glyph-name="guilsinglleft.aalt" horiz-adv-x="663" 
d="M311 330l-270 397l270 397h281l-260 -397l260 -397h-281z" />
    <glyph glyph-name="guilsinglright.aalt" horiz-adv-x="663" 
d="M72 330l260 397l-260 397h280l271 -397l-271 -397h-280z" />
    <glyph glyph-name="guillemotleft.aalt" horiz-adv-x="1142" 
d="M791 330l-271 397l271 397h280l-260 -397l260 -397h-280zM41 727l270 397h281l-260 -397l260 -397h-281z" />
    <glyph glyph-name="guillemotright.aalt" horiz-adv-x="1142" 
d="M811 727l-260 397h280l271 -397l-271 -397h-280zM72 330l260 397l-260 397h280l271 -397l-271 -397h-280z" />
    <glyph glyph-name="at.aalt" horiz-adv-x="2086" 
d="M1049 -217q-265 0 -485.5 116.5t-352 332t-131.5 487.5q0 203 76 380t207 301.5t312.5 195.5t387.5 71q188 0 359 -61.5t301 -171.5t207 -275.5t77 -361.5q0 -83 -15 -158.5t-48.5 -144.5t-82.5 -119.5t-122.5 -80.5t-163.5 -30q-101 0 -180 41.5t-117 128.5
q-44 -84 -120.5 -128t-172.5 -44q-122 0 -220 65.5t-150 171.5t-52 228q0 120 49.5 226.5t146.5 175.5t220 69q172 0 264 -139l6 117h260v-576q0 -51 25 -82q22 -31 61 -31q36 0 64.5 23.5t45 57.5t27 77.5t14 79t3.5 66.5q0 191 -89.5 338t-243.5 225t-347 78
q-203 0 -368 -88t-261 -250.5t-96 -370.5q0 -147 52.5 -277.5t144 -224.5t222.5 -148.5t281 -54.5q220 0 418 103l103 -207q-219 -131 -516 -131zM1038 942q-88 0 -139 -61.5t-51 -151.5q0 -87 52 -149t138 -62q85 0 139 62t54 149q0 59 -25 111q-60 102 -168 102z" />
    <glyph glyph-name="periodcentered.case" horiz-adv-x="581" 
d="M88 774q0 85 58.5 144t144.5 59q87 0 145 -58t58 -145q0 -84 -59.5 -143.5t-143.5 -59.5q-83 0 -143 60t-60 143z" />
    <glyph glyph-name="exclamdown.aalt" horiz-adv-x="565" 
d="M463 0h-361l21 975h319zM88 1268q0 84 55 139t140 55q108 0 170 -94q24 -46 24 -100q0 -82 -55.5 -138.5t-138.5 -56.5q-52 0 -98 25.5t-70 70.5q-27 43 -27 99z" />
    <glyph glyph-name="questiondown.aalt" horiz-adv-x="1134" 
d="M571 -31q-97 0 -186.5 28t-161 80.5t-114.5 136t-43 185.5q0 156 101.5 269.5t260.5 160.5v146h320v-307q-334 -80 -334 -252q0 -67 49 -108.5t117 -41.5q69 0 121.5 38t74.5 104l318 -66q-26 -118 -105.5 -204t-187.5 -127.5t-230 -41.5zM393 1268q0 84 55.5 139
t139.5 55q54 0 100 -24q43 -27 70 -70q24 -46 24 -100q0 -84 -55 -139.5t-139 -55.5q-56 0 -99 27q-46 23 -69 69q-27 43 -27 99z" />
    <glyph glyph-name="a.ss01" horiz-adv-x="1325" 
d="M559 -31q-109 0 -203 49t-156 130t-97 182.5t-35 208.5q0 112 35.5 216.5t100 186.5t163 131t215.5 49q215 0 323 -168l8 138h308v-1092h-308l-10 156q-57 -88 -148.5 -137.5t-195.5 -49.5zM408 547q0 -84 32 -141q29 -62 85.5 -99t123.5 -37q109 0 175.5 82t66.5 195
q0 112 -65.5 193t-176.5 81q-108 0 -174.5 -81t-66.5 -193z" />
    <glyph glyph-name="ordfeminine.ss01" horiz-adv-x="985" 
d="M408 625q-104 0 -185 57.5t-122.5 147.5t-41.5 194q0 107 41.5 199t125 151.5t192.5 59.5q141 0 227 -121l6 100h236v-770h-236l-8 111q-85 -129 -235 -129zM319 1028q0 -72 43.5 -123t114.5 -51q70 0 114 50.5t44 123.5q0 99 -76 154q-39 22 -82 22q-46 0 -82 -22
q-76 -55 -76 -154z" />
    <glyph glyph-name="glyph199" horiz-adv-x="282" 
d="M-23 776q0 68 48 117t116 49q67 0 115.5 -49t48.5 -117t-48 -117t-116 -49q-67 0 -115.5 49t-48.5 117z" />
    <glyph glyph-name="glyph200" horiz-adv-x="0" 
d="M-449 836q0 46 23 90q24 40 66 65q44 23 90 23t90 -23q42 -25 63 -65q25 -42 25 -90q0 -49 -25 -91q-22 -41 -63 -63q-42 -25 -90 -25t-90 25q-41 21 -66 63q-23 44 -23 91z" />
    <glyph glyph-name="glyph205" 
d="M104 502v590h334v-543q0 -98 45 -152q42 -57 121 -57q53 0 97.5 25.5t68.5 72.5q23 51 23 105v549h333v-973q0 -240 -143 -390.5t-387 -150.5q-160 0 -292 78t-189 221l321 72q58 -96 164 -96q96 0 144.5 66t48.5 165v104q-52 -72 -131 -110.5t-170 -38.5
q-95 0 -170.5 37.5t-122 102.5t-71 147.5t-24.5 175.5z" />
    <glyph glyph-name="ae.ss01" horiz-adv-x="1988" 
d="M547 -31q-87 0 -164.5 32.5t-134 88.5t-98 129t-62 155t-20.5 165q0 109 34.5 213t96.5 186.5t158.5 133t211.5 50.5q103 0 184 -47t130 -137l10 154h244l8 -121q121 151 321 151q94 0 172.5 -33.5t131.5 -90t90 -133t54 -160.5t17 -173v-73h-733q18 -102 76 -154
q55 -55 143 -55q123 0 189 106l305 -80q-52 -139 -177.5 -223t-275.5 -84q-191 0 -313 146l-8 -115h-244l-12 174q-50 -96 -138.5 -150.5t-195.5 -54.5zM639 821q-105 0 -168 -82t-63 -192q0 -79 30 -141q27 -61 81.5 -98.5t119.5 -37.5q107 0 169 82.5t62 194.5
q0 70 -25 131t-79 102t-127 41zM1198 672h389q-32 200 -192 200q-85 0 -133.5 -55.5t-63.5 -144.5z" />
    <glyph glyph-name="glyph234" horiz-adv-x="0" 
d="M-82 -494q-83 0 -184 33l30 174q66 -20 105 -20q41 0 63 16q25 16 25 45q0 31 -33 45q-32 19 -88 19l76 202h213l-39 -110q61 -20 99 -71t38 -113q0 -56 -28.5 -100t-74.5 -69t-98 -38t-104 -13z" />
    <glyph glyph-name="glyph237" horiz-adv-x="0" 
d="M-168 -252q0 38 21 69t55 46q34 18 80 18q53 0 94 -24q36 -19 63 -64q23 -44 23 -92q0 -106 -69 -178.5t-177 -104.5l-47 121q103 35 123 94q-13 -8 -41 -8q-55 0 -90 34t-35 89z" />
    <glyph glyph-name="glyph240" horiz-adv-x="0" 
d="M-436 -270q0 155 262 323l174 -53q-94 -76 -133 -123q-39 -45 -39 -82q0 -30 20 -47q22 -16 56 -16q15 0 47 4q30 8 43 14l22 -184q-98 -37 -184 -37q-41 0 -78 6t-72 21t-61 37.5t-41.5 57.5t-15.5 79z" />
    <glyph glyph-name="glyph241" horiz-adv-x="0" 
d="M-164 -463q-67 0 -124 18.5t-98.5 66t-41.5 116.5q0 51 24.5 101.5t69 96t83 77t87.5 65.5l199 39q-108 -111 -160 -185q-47 -71 -47 -122q0 -78 82 -78q13 0 41 4q30 8 43 14l22 -176q-87 -37 -180 -37z" />
    <glyph glyph-name="glyph242" horiz-adv-x="0" 
d="M-436 -266q0 164 264 348l207 39q-207 -207 -207 -311q0 -38 21.5 -58t58.5 -20q9 0 41 4q31 7 45 14l22 -184q-90 -37 -184 -37q-79 0 -143 25q-125 59 -125 180z" />
    <glyph glyph-name="aogonek.ss01" horiz-adv-x="1325" 
d="M68 539q0 112 35.5 216.5t100 186.5t163 131t215.5 49q215 0 323 -168l8 138h308v-1092q-172 -141 -172 -205q0 -30 20 -47q22 -16 59 -16q10 0 46 4q29 7 40 14l23 -176q-81 -37 -180 -37q-48 0 -93 10.5t-84 32.5t-63 60.5t-24 89.5q0 133 188 270h-68l-10 156
q-57 -88 -148.5 -137.5t-195.5 -49.5q-109 0 -203 49t-156 130t-97 182.5t-35 208.5zM408 547q0 -84 32 -141q29 -62 85.5 -99t123.5 -37q109 0 175.5 82t66.5 195q0 112 -65.5 193t-176.5 81q-108 0 -174.5 -81t-66.5 -193z" />
    <glyph glyph-name="glyph270" horiz-adv-x="0" 
d="M-252 1602l285 282h413l-358 -282h-340z" />
    <glyph glyph-name="glyph273" horiz-adv-x="0" 
d="M348 1602h-315l270 282h389zM-160 1602h-315l270 282h389z" />
    <glyph glyph-name="Iacute_J_acutecomb.locl" horiz-adv-x="1466" 
d="M739 -41q-228 0 -396 117.5t-228 335.5l344 55q34 -86 102 -133t160 -47q135 0 206.5 89.5t71.5 231.5v846h357v-848q0 -139 -41.5 -257t-119 -205t-195 -136t-261.5 -49zM111 1454h356v-813h-356v813zM1266 1602h-340l284 282h414zM377 1602h-340l285 282h413z" />
    <glyph glyph-name="iacute_j_acutecomb.locl" 
d="M104 502v590h334v-543q0 -98 45 -152q42 -57 121 -57q53 0 97.5 25.5t68.5 72.5q23 51 23 105v549h333v-973q0 -240 -143 -390.5t-387 -150.5q-160 0 -292 78t-189 221l321 72q58 -96 164 -96q96 0 144.5 66t48.5 165v104q-52 -72 -131 -110.5t-170 -38.5
q-95 0 -170.5 37.5t-122 102.5t-71 147.5t-24.5 175.5zM748 1239l229 293h369l-287 -293h-311zM371 1239h-312l230 293h368z" />
    <glyph glyph-name="aacute.ss01" horiz-adv-x="1325" 
d="M68 539q0 112 35.5 216.5t100 186.5t163 131t215.5 49q215 0 323 -168l8 138h308v-1092h-308l-10 156q-57 -88 -148.5 -137.5t-195.5 -49.5q-109 0 -203 49t-156 130t-97 182.5t-35 208.5zM649 821q-108 0 -174.5 -81t-66.5 -193q0 -84 32 -141q29 -62 85.5 -99
t123.5 -37q109 0 175.5 82t66.5 195q0 112 -65.5 193t-176.5 81zM760 1239h-311l229 293h369z" />
    <glyph glyph-name="glyph309" horiz-adv-x="0" 
d="M-88 1602l-358 282h413l285 -282h-340z" />
    <glyph glyph-name="agrave.ss01" horiz-adv-x="1325" 
d="M559 -31q-109 0 -203 49t-156 130t-97 182.5t-35 208.5q0 112 35.5 216.5t100 186.5t163 131t215.5 49q215 0 323 -168l8 138h308v-1092h-308l-10 156q-57 -88 -148.5 -137.5t-195.5 -49.5zM649 821q-108 0 -174.5 -81t-66.5 -193q0 -84 32 -141q29 -62 85.5 -99
t123.5 -37q109 0 175.5 82t66.5 195q0 112 -65.5 193t-176.5 81zM559 1239l-287 293h369l229 -293h-311z" />
    <glyph glyph-name="glyph328" horiz-adv-x="0" 
d="M-463 1602l305 282h318l305 -282h-326l-141 116l-145 -116h-316z" />
    <glyph glyph-name="glyph331" horiz-adv-x="0" 
d="M-213 1604h-205q5 61 23.5 114.5t50 98t82.5 70.5t115 26q47 0 80.5 -11t82.5 -38q81 -52 119 -52q35 0 55 25.5t25 63.5h205q-6 -61 -24 -114t-49 -98t-82 -71.5t-115 -26.5q-87 0 -164 51q-11 6 -32 18t-32 17q-27 15 -55 15q-36 0 -55.5 -25t-24.5 -63z" />
    <glyph glyph-name="acircumflex.ss01" horiz-adv-x="1325" 
d="M68 539q0 112 35.5 216.5t100 186.5t163 131t215.5 49q215 0 323 -168l8 138h308v-1092h-308l-10 156q-57 -88 -148.5 -137.5t-195.5 -49.5q-109 0 -203 49t-156 130t-97 182.5t-35 208.5zM649 821q-108 0 -174.5 -81t-66.5 -193q0 -84 32 -141q29 -62 85.5 -99
t123.5 -37q109 0 175.5 82t66.5 195q0 112 -65.5 193t-176.5 81zM250 1239l280 293h261l280 -293h-285l-129 117l-133 -117h-274z" />
    <glyph glyph-name="atilde.ss01" horiz-adv-x="1325" 
d="M559 -31q-109 0 -203 49t-156 130t-97 182.5t-35 208.5q0 112 35.5 216.5t100 186.5t163 131t215.5 49q215 0 323 -168l8 138h308v-1092h-308l-10 156q-57 -88 -148.5 -137.5t-195.5 -49.5zM408 547q0 -84 32 -141q29 -62 85.5 -99t123.5 -37q109 0 175.5 82t66.5 195
q0 112 -65.5 193t-176.5 81q-108 0 -174.5 -81t-66.5 -193zM481 1241h-190q6 54 21 103t41.5 94t71 71.5t101.5 26.5q48 0 80 -14q31 -13 66 -31q11 -7 31.5 -19.5t21.5 -13.5q22 -14 49 -14q54 0 66 80h190q-6 -54 -21 -103t-41.5 -94t-71 -71.5t-101.5 -26.5
q-74 0 -144 47q-27 13 -55 31q-22 14 -49 14q-54 0 -66 -80z" />
    <glyph glyph-name="glyph360" horiz-adv-x="0" 
d="M-463 1884h326l141 -117l146 117h315l-305 -282h-318z" />
    <glyph glyph-name="glyph363" horiz-adv-x="0" 
d="M137 1219l21 313h268l-100 -313h-189z" />
    <glyph glyph-name="glyph365" horiz-adv-x="0" 
d="M-385 1612v231h770v-231h-770z" />
    <glyph glyph-name="amacron.ss01" horiz-adv-x="1325" 
d="M559 -31q-109 0 -203 49t-156 130t-97 182.5t-35 208.5q0 112 35.5 216.5t100 186.5t163 131t215.5 49q215 0 323 -168l8 138h308v-1092h-308l-10 156q-57 -88 -148.5 -137.5t-195.5 -49.5zM649 821q-108 0 -174.5 -81t-66.5 -193q0 -84 32 -141q29 -62 85.5 -99
t123.5 -37q109 0 175.5 82t66.5 195q0 112 -65.5 193t-176.5 81zM324 1247v215h671v-215h-671z" />
    <glyph glyph-name="glyph396" horiz-adv-x="0" 
d="M104 1659q-24 41 -24 90t24 90q21 41 64 66q42 22 90 22t90 -22q41 -25 66 -66q22 -42 22 -90t-22 -90q-25 -43 -66 -64q-40 -24 -90 -24t-90 24q-42 22 -64 64zM-414 1659q-22 42 -22 90t22 90q25 41 66 66q42 22 90 22t90 -22q43 -25 64 -66q24 -41 24 -90t-24 -90
q-22 -42 -64 -64q-40 -24 -90 -24t-90 24q-41 21 -66 64z" />
    <glyph glyph-name="glyph399" horiz-adv-x="0" 
d="M0 1591q-149 0 -262 82.5t-137 227.5h262q12 -53 47.5 -81t89.5 -28t89.5 28t47.5 81h262q-24 -144 -136 -227t-263 -83z" />
    <glyph glyph-name="adieresis.ss01" horiz-adv-x="1325" 
d="M68 539q0 112 35.5 216.5t100 186.5t163 131t215.5 49q215 0 323 -168l8 138h308v-1092h-308l-10 156q-57 -88 -148.5 -137.5t-195.5 -49.5q-109 0 -203 49t-156 130t-97 182.5t-35 208.5zM649 821q-108 0 -174.5 -81t-66.5 -193q0 -84 32 -141q29 -62 85.5 -99
t123.5 -37q109 0 175.5 82t66.5 195q0 112 -65.5 193t-176.5 81zM258 1378q0 72 49.5 121t122.5 49t122.5 -48.5t49.5 -121.5q0 -72 -49.5 -121t-122.5 -49t-122.5 48.5t-49.5 121.5zM889 1208q-73 0 -122.5 48.5t-49.5 121.5q0 72 49.5 121t122.5 49t122.5 -48.5
t49.5 -121.5q0 -72 -49.5 -121t-122.5 -49z" />
    <glyph glyph-name="abreve.ss01" horiz-adv-x="1325" 
d="M68 539q0 112 35.5 216.5t100 186.5t163 131t215.5 49q215 0 323 -168l8 138h308v-1092h-308l-10 156q-57 -88 -148.5 -137.5t-195.5 -49.5q-109 0 -203 49t-156 130t-97 182.5t-35 208.5zM408 547q0 -84 32 -141q29 -62 85.5 -99t123.5 -37q109 0 175.5 82t66.5 195
q0 112 -65.5 193t-176.5 81q-108 0 -174.5 -81t-66.5 -193zM289 1524h237q9 -49 45 -74q34 -27 88 -27q55 0 89 27q36 25 45 74h237q-24 -135 -126.5 -213t-244.5 -78q-141 0 -243.5 77t-126.5 214z" />
    <glyph glyph-name="glyph422" horiz-adv-x="0" 
d="M-190 1759q0 82 53.5 135.5t136.5 53.5q82 0 136 -53t54 -136q0 -82 -53.5 -135t-136.5 -53q-82 0 -136 52.5t-54 135.5z" />
    <glyph glyph-name="glyph425" horiz-adv-x="0" 
d="M-190 -311q0 82 53.5 135t136.5 53q82 0 136 -52.5t54 -135.5q0 -82 -53.5 -135.5t-136.5 -53.5q-82 0 -136 53t-54 136z" />
    <glyph glyph-name="glyph440" horiz-adv-x="0" 
d="M-252 1778q0 104 73 171.5t179 67.5q105 0 178.5 -67t73.5 -172q0 -103 -73.5 -171.5t-178.5 -68.5q-104 0 -178 68t-74 172zM-86 1778q0 -36 25 -62t61 -26t61 26t25 62q0 35 -25 63q-28 25 -61 25t-61 -25q-25 -28 -25 -63z" />
    <glyph glyph-name="aring.ss01" horiz-adv-x="1325" 
d="M559 -31q-109 0 -203 49t-156 130t-97 182.5t-35 208.5q0 112 35.5 216.5t100 186.5t163 131t215.5 49q215 0 323 -168l8 138h308v-1092h-308l-10 156q-57 -88 -148.5 -137.5t-195.5 -49.5zM408 547q0 -84 32 -141q29 -62 85.5 -99t123.5 -37q109 0 175.5 82t66.5 195
q0 112 -65.5 193t-176.5 81q-108 0 -174.5 -81t-66.5 -193zM659 1184q-99 0 -171 66t-72 165q0 98 71.5 165t171.5 67q101 0 172.5 -65.5t71.5 -166.5q0 -98 -72 -164.5t-172 -66.5zM659 1503q-36 0 -61 -26t-25 -62q0 -37 27 -61q24 -27 59 -27q36 0 61 26t25 62
q0 37 -24 64q-27 24 -62 24z" />
    <glyph glyph-name="colon_B_e_l_o_colon.dlig" horiz-adv-x="1599" 
d="M424 -20q-131 0 -227.5 91.5t-96.5 223.5q0 41 15 88q9 35 43 115q17 42 55 120q11 22 34.5 71.5t37.5 76.5q12 25 37.5 78.5t39.5 81.5q24 48 72.5 145.5t73.5 145.5l30 57.5t21 40.5q89 160 240 160q83 0 139 -40.5t100 -119.5q6 -11 23.5 -43.5t28.5 -54.5
q46 -94 69 -136q25 -50 78 -155q5 -11 33.5 -70.5t44.5 -89.5q7 -15 31.5 -68.5t37.5 -79.5q71 -145 101 -235q12 -47 12 -88q0 -132 -94.5 -223.5t-228.5 -91.5q-185 0 -375 208q-190 -208 -375 -208zM207 362q-10 -38 -10 -67q0 -90 67 -155.5t158 -65.5q146 0 313 188
q-192 235 -192 410q0 110 72.5 184t183.5 74t183.5 -72.5t72.5 -185.5q0 -174 -193 -410q167 -188 314 -188q90 0 157.5 65.5t67.5 155.5q0 29 -10 67q-3 10 -39 97q-2 3 -21 44.5t-31 69.5q-11 22 -34 71.5t-37 76.5q-15 29 -41 85t-37 79q-13 27 -39 79.5t-39 77.5
q-32 58 -67 134q-9 17 -18.5 34t-18 32t-11.5 20q-23 40 -40.5 62t-48 39t-70.5 17q-58 0 -92 -29t-68 -89q-68 -123 -190 -377q-7 -14 -35.5 -73.5t-44.5 -90.5q-33 -65 -70 -148q-20 -40 -53 -114q-36 -87 -39 -97zM799 834q-71 0 -115.5 -44t-44.5 -114q0 -76 48.5 -169
t111.5 -171q63 78 111 170.5t48 169.5q0 70 -44 114t-115 44z" />
    </font>
</defs>
</svg>
